Tags
Language
Tags

Mastodon - Cold Dark Place (2017)

Posted By: delpotro
Mastodon - Cold Dark Place (2017)

Mastodon - Cold Dark Place (2017)
EAC Rip | FLAC (tracks+log+.cue) - 153 Mb | MP3 CBR 320 kbps - 50 Mb | 00:21:51
Progressive Metal | Label: Reprise Records

So, Cold Dark Place is actually a thing! Back, when Mastodon were writing Emperor of Sand, there was talk about a double album, with the second half being written entirely by Brent Hinds. That obviously didn't happen, as EoS ended up being a single record. Then, in the best interview ever made (check it out below), Brent said an album called "Cold Dark Place" will be released "on Record Store Day in June". The record is supposedly about a "nasty breakup". Brent described it as "pretty dark, beautiful, spooky, funky, ethereal, melancholy music, which also sounds like the Bee Gees a little bit."

Across their catalog, Mastodon scream about walking trees and assassinated czars; giant sharks and steam-breathers; sex in space and sleep undersea. But despite their predilections towards heavy-metal high fantasy, the Atlanta band have been, and always will be, peddlers of the cold, hard, extremely loud truth. “We tend to channel any and all emotions through this art that we call Mastodon,” bassist Troy Sanders said in an interview last Spring in anticipation of Emperor of Sand, a collectively-written account of cancer struggle masquerading as a prog-metal-spiked Arabian Nights. (Three members of Mastodon had family members battling the disease.) By expressing their present personal pain in terms of mythic beings, deadly monsters, and wrecking-ball riffs, the band don’t just own their anguish; they make a cosmic spectacle of it, typically a top-notch one at that.

Mastodon’s new EP, Cold Dark Place, is primarily sourced from a single tormented soul: Brent Hinds, the band’s fleet-fingered, sludgy-throated, erstwhile-penis-statue-carving axeman/vocalist. Originally conceived and composed as a solo album, this four-track effort—the contents of which originated during the sessions for their last two albums—eventually blossomed into a de facto Mastodon record. The final product, while technically credited to the full band, is distinctly Hinds’ own, all daredevil guitar stunts and quaking, crooned refrains: a satisfying, if nonessential, dose of latter-day Mastodon, not to mention a compelling self-portrait.

Where Emperor of Sand found its creators self-immolating in a far-off desert, Cold Dark Place hits closer to home. The band’s southern roots are on full display here thanks to Hinds’ latest weapon of choice: a 1954 Sho-Bud 13-string pedal steel guitar he acquired several years ago, fully outfitted with knee and foot-benders. Texturally alluring and technically intimidating, the Sho-Bud comes with a steep learning curve; most axemen spend their whole careers trying to reap its atmospheric rewards. Not so for Hinds, whose mastery of the instrument is clear within seconds of six-minute opener “North Side Star.” As his dulcet wails and arpeggios drift around the cavernous sonic space like phantasms in the night, the Sho-Bud transmogrifies and warps, a bluegrass instrument on a terrifying acid trip. Halfway through their psychedelic journey, the spell breaks, giving way to a southern-fried boogie that reeks of funk, but mostly dread.

This game of stylistic hopscotch, as with most of Mastodon’s records, is the EP’s M.O. “Blue Walsh,” a holdover from the days of 2014’s Once More ’Round the Sun led by drummer Brann Dailor, snakes between prickly psych-pop à la Pinback and the usual syncopated sludge. Lead single “Toe to Toes,” meanwhile, pits Hinds’ arena-friendly choruses against his bandmates’ bruising breakdowns. The EP’s mercurial sprawl, coupled with its lack of overarching narrative, occasionally makes the band susceptible to slog, primarily on the concluding title track: a downtempo ballad similarly dominated by Hinds’ Sho-budding and singing. It spends far too much time flopping around in the muck, rendering a painstakingly-crafted finale dynamically dull; Hinds’ uncharacteristically muffled vocals, which sound as though they were recorded through a microphone filled with cotton balls, don’t make things any easier.

Near the end of “Toe to Toes,” though, Hinds sheds light on his life as a raconteur rock star. “I played the fool/I played the sinner/I played the part of me that no one wanted to see,” bleats the face-tatted southerner, in a rare show of intimacy. Therein lies the record’s central conceit: the real cold dark place is the heart of the man who made it. Hinds said so himself in a recent interview with Loudwire, going on to reveal the EP’s big takeaway as “the concept of living and how much it hurts to fucking be alive.” And yet, however thematically mired in misery, Cold Dark Place plays out as a triumphant march into the darkness: one man’s pain, collectively conjured and conquered.
Tracklist:
1. North Side Star
2. Blue Walsh
3. Toe To Toes
4. Cold Dark Place

Exact Audio Copy V1.1 from 23. June 2015

EAC extraction logfile from 22. September 2017, 14:57

Mastodon / Cold Dark Place

Used drive : HP DVD Writer 1160d Adapter: 1 ID: 0

Read mode : Secure
Utilize accurate stream : Yes
Defeat audio cache : Yes
Make use of C2 pointers : No

Read offset correction : 6
Overread into Lead-In and Lead-Out : No
Fill up missing offset samples with silence : Yes
Delete leading and trailing silent blocks : No
Null samples used in CRC calculations : Yes
Used interface : Native Win32 interface for Win NT & 2000
Gap handling : Appended to previous track

Used output format : User Defined Encoder
Selected bitrate : 1024 kBit/s
Quality : High
Add ID3 tag : No
Command line compressor : C:\Program Files (x86)\Exact Audio Copy\Flac\flac.exe
Additional command line options : -8 -V -T "ARTIST=%artist%" -T "TITLE=%title%" -T "ALBUM=%albumtitle%" -T "DATE=%year%" -T "TRACKNUMBER=%tracknr%" -T "GENRE=%genre%" -T "PERFORMER=%albuminterpret%" -T "COMPOSER=%composer%" %haslyrics%–tag-from-file=LYRICS="%lyricsfile%"%haslyrics% -T "ALBUMARTIST=%albumartist%" -T "DISCNUMBER=%cdnumber%" -T "TOTALDISCS=%totalcds%" -T "TOTALTRACKS=%numtracks%" -T "COMMENT=%comment%" %source% -o %dest%


TOC of the extracted CD

Track | Start | Length | Start sector | End sector
––––––––––––––––––––––––––––-
1 | 0:00.00 | 6:10.12 | 0 | 27761
2 | 6:10.12 | 5:12.45 | 27762 | 51206
3 | 11:22.57 | 4:29.18 | 51207 | 71399
4 | 15:52.00 | 5:59.30 | 71400 | 98354


Track 1

Filename R:\CD Rip\1-01 - Mastodon - North Side Star.wav

Pre-gap length 0:00:02.00

Peak level 97.2 %
Extraction speed 4.1 X
Track quality 99.9 %
Test CRC 274F3EDE
Copy CRC 274F3EDE
Track not present in AccurateRip database
Copy OK

Track 2

Filename R:\CD Rip\1-02 - Mastodon - Blue Walsh.wav

Peak level 97.7 %
Extraction speed 5.2 X
Track quality 100.0 %
Test CRC FB6CDFCE
Copy CRC FB6CDFCE
Track not present in AccurateRip database
Copy OK

Track 3

Filename R:\CD Rip\1-03 - Mastodon - Toe To Toes.wav

Peak level 96.5 %
Extraction speed 4.8 X
Track quality 99.9 %
Test CRC 96192D8E
Copy CRC 96192D8E
Track not present in AccurateRip database
Copy OK

Track 4

Filename R:\CD Rip\1-04 - Mastodon - Cold Dark Place.wav

Peak level 96.9 %
Extraction speed 6.3 X
Track quality 100.0 %
Test CRC 0104DB39
Copy CRC 0104DB39
Track not present in AccurateRip database
Copy OK


None of the tracks are present in the AccurateRip database

No errors occurred

End of status report

–– CUETools DB Plugin V2.1.6

[CTDB TOCID: qbvrO_ciTTf.cNIlnnz1b1he_U4-] found
Submit result: qbvrO_ciTTf.cNIlnnz1b1he_U4- has been confirmed
Track | CTDB Status
1 | (6/6) Accurately ripped
2 | (6/6) Accurately ripped
3 | (6/6) Accurately ripped
4 | (6/6) Accurately ripped


==== Log checksum 1C54390A074BEFD869BC961B98C7F69AFA7CBA424CEA55EDB3471EF527B63456 ====

Thanks to the Original ripper Flower86 !