Subcategories

Michael Jackson - Bad 25 (2012) {3CD+DVD Deluxe Edition Set, Sony Music Japan, EICP-1541~4}

Posted By: ruskaval
Michael Jackson - Bad 25 (2012) {3CD+DVD Deluxe Edition Set, Sony Music Japan, EICP-1541~4}

Michael Jackson - Bad 25 (2012) {3CD+DVD Deluxe Edition Set, Sony Music Japan, EICP-1541~4}
EAC rip (secure mode) | FLAC (image)+CUE+LOG -> 1.40 Gb | MP3 @320 -> 447 Mb
Full Artwork @ 600 dpi (png) -> 1.04 Gb | 5% repair rar
DVD9 -> 7.20 Gb | All Regions | NTSC 4:3 | PCM Stereo / Dolby AC3, 6 ch | ~ 2h15m | ISO Image
© 1987, 2012 Epic / Sony Music Japan | EICP-1541~4
Pop / R'n'B / Dance Pop

Deluxe edition of "BAD" release from Michael Jackson. This deluxe edition consists of three CDs, a DVD, two color booklets, a double-sided poster, and a sticker. Disc 1: The original album featuring 2012 rematering. Disc 2: A CD containing previously unreleased material recorded during the BAD sessions, unreleased demo tracks, and remixes by popular artists. Disc 3: A CD featuring his concert held on July 16, 1988 at Wembley Stadium. Uses the multitrack-recorded master. Disc 4: A DVD featuring his concert held on July 16, 1988 at Wembley Stadium. Also comes with a Japanese description and lyrics. Bonus Track: Japan edition bonus track.

Michael Jackson - Bad 25 (2012) {3CD+DVD Deluxe Edition Set, Sony Music Japan, EICP-1541~4}

This Deluxe 25th Anniversary Edition includes three CDs, two collectible booklets, and features the first ever authorized DVD release of a concert from the record breaking BAD tour.
DVD - Michael Jackson's legendary July 16, 1988 concert at Wembley Stadium in London. This DVD is not a compilation of performances, but rather one complete show, exactly as Michael performed it for Prince Charles, Princess Diana and the 72,000 fans who were in the audience for that night's sold out show. The DVD was sourced from Michael Jackson's personal VHS copy of the performance as shown on the JumboTrons during the concert. This footage was only recently unearthed and is the only known copy of the show to exist. The visuals have been restored and the audio quality enhanced so that fans can share in the excitement of that famous night.

CD1 - The original re-mastered album.

CD2 - A CD containing previously unreleased material recorded in Michael's personal studio at Hayvenhurst. This material includes early demo versions of songs from the album as well as demos for songs not included on the final album. All of this material is being released as it was recorded during the BAD sessions. Nothing has been added or changed. In addition, this CD also includes new remixes from internationally renowned DJ/producers.

CD3 - A CD showcasing the audio from the sound truck recordings of the July 16th Wembley performance. The first-ever live Michael Jackson CD to be released, this is the only concert from the BAD Tour known to exist on multitracks.

This magnificent 3 CD/1 DVD box also includes two extensive booklets with yet unseen photos from the recording sessions, video sets and the concert tour, the original BAD cover art, a two-sided poster and more.

Michael Jackson - Bad 25 (2012) {3CD+DVD Deluxe Edition Set, Sony Music Japan, EICP-1541~4}

Michael Jackson - Bad 25 (2012) {3CD+DVD Deluxe Edition Set, Sony Music Japan, EICP-1541~4}


BBC Info
PM Info
WIKI Info


tracklist:

CD1
01. Bad
02. The Way You Make Me Feel
03. Speed Demon
04. Liberian Girl
05. Just Good Friends
06. Another Part Of Me
07. Man In The Mirror
08. I Just Can't Stop Loving You
09. Dirty Diana
10. Smooth Criminal
11. Leave Me Alone

CD2
01. Don't Be Messin' Round
02. I'm So Blue
03. Song Groove (A/K/A Abortion Papers)
04. Free
05. Price Of Fame
06. Al Capone
07. Streetwalker
08. Fly Away
09. Todo Mi Amor Eres Tu (I Just Can't Stop Loving You / Spanish Version)
10. Je Ne Veux Pas La Fin De Nous (I Just Can't Stop Loving You / French Version)
11. Bad (Remix By Afrojack Feat. Pitbull / DJ Buddha Edit)
12. Speed Demon (Remix By Nero)
13. Bad (Remix By Afrojack / Club Mix)

Bonus Track
14. Bad (Live At Yokohama Stadium September 1987)

Michael Jackson - Bad 25 (2012) {3CD+DVD Deluxe Edition Set, Sony Music Japan, EICP-1541~4}

CD3
01. Wanna Be Startin' Somethin'
02. This Place Hotel
03. Another Part Of Me
04. I Just Can't Stop Loving You
05. She's Out Of My Life
06. I Want You Back / The Love You Save / I'll Be There
07. Rock With You
08. Human Nature
09. Smooth Criminal
10. Dirty Diana
11. Thriller
12. Working Day And Night
13. Beat It
14. Billie Jean
15. Bad
16. Man In The Mirror

DVD
Live At Wembley July 16, 1988

01. Wanna Be Startin' Somethin'
02. This Place Hotel
03. Another Part Of Me
04. I Just Can't Stop Loving You
05. She's Out Of My Life
06. I Want You Back / The Love You Save / I'll Be There
07. Rock With You
08. Human Nature
09. Smooth Criminal
10. Dirty Diana
11. Thriller
12. Bad Groove (Band Jam)
13. Working Day And Night
14. Beat It
15. Billie Jean
16. Bad
17. Man In The Mirror (Encore)
DVD Bonus Features
18. The Way You Make Me Feel (From Wembley Stadium, July 15th, 1988)
19. I Just Can't Stop Loving You / Bad (From Yokohama Stadium, September, 1987)

Exact Audio Copy V1.0 beta 3 from 29. August 2011

EAC extraction logfile from 4. October 2012, 20:44

Michael Jackson / Bad 25 CD1

Used drive : HL-DT-STDVDRAM GSA-H60N Adapter: 2 ID: 0

Read mode : Secure
Utilize accurate stream : Yes
Defeat audio cache : Yes
Make use of C2 pointers : No

Read offset correction : 667
Overread into Lead-In and Lead-Out : No
Fill up missing offset samples with silence : Yes
Delete leading and trailing silent blocks : No
Null samples used in CRC calculations : Yes
Used interface : Native Win32 interface for Win NT & 2000

Used output format : Internal WAV Routines
Sample format : 44.100 Hz; 16 Bit; Stereo


TOC of the extracted CD

Track | Start | Length | Start sector | End sector
––––––––––––––––––––––––––––-
1 | 0:00.00 | 4:07.36 | 0 | 18560
2 | 4:07.36 | 4:59.12 | 18561 | 40997
3 | 9:06.48 | 4:04.66 | 40998 | 59363
4 | 13:11.39 | 3:49.33 | 59364 | 76571
5 | 17:00.72 | 4:07.42 | 76572 | 95138
6 | 21:08.39 | 3:55.01 | 95139 | 112764
7 | 25:03.40 | 5:18.49 | 112765 | 136663
8 | 30:22.14 | 4:11.06 | 136664 | 155494
9 | 34:33.20 | 4:42.21 | 155495 | 176665
10 | 39:15.41 | 4:18.52 | 176666 | 196067
11 | 43:34.18 | 4:40.14 | 196068 | 217081


Range status and errors

Selected range

Filename C:\Documents and Settings\Admin\Michael Jackson\1987 Bad 25 (3CD + DVD Box Set Deluxe Edition Sony Music Japan 2012)\CD1\Michael Jackson - Bad 25 CD1.wav

Peak level 100.0 %
Extraction speed 5.8 X
Range quality 99.9 %
Test CRC DF9589B2
Copy CRC DF9589B2
Copy OK

No errors occurred


AccurateRip summary

Track 1 not present in database
Track 2 not present in database
Track 3 not present in database
Track 4 not present in database
Track 5 not present in database
Track 6 not present in database
Track 7 not present in database
Track 8 not present in database
Track 9 not present in database
Track 10 not present in database
Track 11 not present in database

None of the tracks are present in the AccurateRip database

End of status report

==== Log checksum E3E25DFEEDFA5AA08DA6B09C948A7A0AA6BD3BB7A452E66298173DE45C0E503A ====

Exact Audio Copy V1.0 beta 3 from 29. August 2011

EAC extraction logfile from 4. October 2012, 21:56

Michael Jackson / Bad 25 CD2 (Bonus Material)

Used drive : HL-DT-STDVDRAM GSA-H60N Adapter: 2 ID: 0

Read mode : Secure
Utilize accurate stream : Yes
Defeat audio cache : Yes
Make use of C2 pointers : No

Read offset correction : 667
Overread into Lead-In and Lead-Out : No
Fill up missing offset samples with silence : Yes
Delete leading and trailing silent blocks : No
Null samples used in CRC calculations : Yes
Used interface : Native Win32 interface for Win NT & 2000

Used output format : Internal WAV Routines
Sample format : 44.100 Hz; 16 Bit; Stereo


TOC of the extracted CD

Track | Start | Length | Start sector | End sector
––––––––––––––––––––––––––––-
1 | 0:00.00 | 4:20.16 | 0 | 19515
2 | 4:20.16 | 4:09.37 | 19516 | 38227
3 | 8:29.53 | 4:28.58 | 38228 | 58385
4 | 12:58.36 | 4:27.10 | 58386 | 78420
5 | 17:25.46 | 4:35.34 | 78421 | 99079
6 | 22:01.05 | 3:36.59 | 99080 | 115338
7 | 25:37.64 | 5:55.53 | 115339 | 142016
8 | 31:33.42 | 3:28.68 | 142017 | 157684
9 | 35:02.35 | 4:11.20 | 157685 | 176529
10 | 39:13.55 | 4:07.71 | 176530 | 195125
11 | 43:21.51 | 4:30.52 | 195126 | 215427
12 | 47:52.28 | 4:13.47 | 215428 | 234449
13 | 52:06.00 | 7:37.35 | 234450 | 268759
14 | 59:43.35 | 4:41.12 | 268760 | 289846


Range status and errors

Selected range

Filename C:\Documents and Settings\Admin\Michael Jackson\1987 Bad 25 (3CD + DVD Box Set Deluxe Edition Sony Music Japan 2012)\CD2\Michael Jackson - Bad 25 CD2 (Bonus Material).wav

Peak level 100.0 %
Extraction speed 6.0 X
Range quality 100.0 %
Test CRC 53C7DCD7
Copy CRC 53C7DCD7
Copy OK

No errors occurred


AccurateRip summary

Track 1 not present in database
Track 2 not present in database
Track 3 not present in database
Track 4 not present in database
Track 5 not present in database
Track 6 not present in database
Track 7 not present in database
Track 8 not present in database
Track 9 not present in database
Track 10 not present in database
Track 11 not present in database
Track 12 not present in database
Track 13 not present in database
Track 14 not present in database

None of the tracks are present in the AccurateRip database

End of status report

==== Log checksum A8C77D96D133D181B0FCAB6FB48934D2AB78F59120904B6C053E62DC77B4D0E2 ====

Exact Audio Copy V1.0 beta 3 from 29. August 2011

EAC extraction logfile from 4. October 2012, 19:41

Michael Jackson / Bad 25 CD3 (Live Wembley)

Used drive : HL-DT-STDVDRAM GSA-H60N Adapter: 2 ID: 0

Read mode : Secure
Utilize accurate stream : Yes
Defeat audio cache : Yes
Make use of C2 pointers : No

Read offset correction : 667
Overread into Lead-In and Lead-Out : No
Fill up missing offset samples with silence : Yes
Delete leading and trailing silent blocks : No
Null samples used in CRC calculations : Yes
Used interface : Native Win32 interface for Win NT & 2000

Used output format : Internal WAV Routines
Sample format : 44.100 Hz; 16 Bit; Stereo


TOC of the extracted CD

Track | Start | Length | Start sector | End sector
––––––––––––––––––––––––––––-
1 | 0:00.00 | 5:18.58 | 0 | 23907
2 | 5:18.58 | 4:55.44 | 23908 | 46076
3 | 10:14.27 | 4:02.58 | 46077 | 64284
4 | 14:17.10 | 4:22.73 | 64285 | 84007
5 | 18:40.08 | 3:16.02 | 84008 | 98709
6 | 21:56.10 | 5:06.29 | 98710 | 121688
7 | 27:02.39 | 4:04.73 | 121689 | 140061
8 | 31:07.37 | 4:29.03 | 140062 | 160239
9 | 35:36.40 | 4:41.23 | 160240 | 181337
10 | 40:17.63 | 5:00.63 | 181338 | 203900
11 | 45:18.51 | 4:28.27 | 203901 | 224027
12 | 49:47.03 | 5:55.04 | 224028 | 250656
13 | 55:42.07 | 5:44.15 | 250657 | 276471
14 | 61:26.22 | 5:39.31 | 276472 | 301927
15 | 67:05.53 | 4:28.33 | 301928 | 322060
16 | 71:34.11 | 6:22.36 | 322061 | 350746


Range status and errors

Selected range

Filename C:\Documents and Settings\Admin\Michael Jackson\1987 Bad 25 (3CD + DVD Box Set Deluxe Edition Sony Music Japan 2012)\CD3\Michael Jackson - Bad 25 CD3 (Live Wembley).wav

Peak level 100.0 %
Extraction speed 6.0 X
Range quality 100.0 %
Test CRC A464EA2D
Copy CRC A464EA2D
Copy OK

No errors occurred


AccurateRip summary

Track 1 not present in database
Track 2 not present in database
Track 3 not present in database
Track 4 not present in database
Track 5 not present in database
Track 6 not present in database
Track 7 not present in database
Track 8 not present in database
Track 9 not present in database
Track 10 not present in database
Track 11 not present in database
Track 12 not present in database
Track 13 not present in database
Track 14 not present in database
Track 15 not present in database
Track 16 not present in database

None of the tracks are present in the AccurateRip database

End of status report

==== Log checksum 6B2F2E23AF00CF44AD9FFC55E32E994FD05985ED87F9A8787D6242010D1852DE ====


Michael Jackson - Bad 25 (2012) {3CD+DVD Deluxe Edition Set, Sony Music Japan, EICP-1541~4}

Michael Jackson - Bad 25 (2012) {3CD+DVD Deluxe Edition Set, Sony Music Japan, EICP-1541~4}

Michael Jackson - Bad 25 (2012) {3CD+DVD Deluxe Edition Set, Sony Music Japan, EICP-1541~4}

Michael Jackson - Bad 25 (2012) {3CD+DVD Deluxe Edition Set, Sony Music Japan, EICP-1541~4}

Michael Jackson - Bad 25 (2012) {3CD+DVD Deluxe Edition Set, Sony Music Japan, EICP-1541~4}

Michael Jackson - Bad 25 (2012) {3CD+DVD Deluxe Edition Set, Sony Music Japan, EICP-1541~4}

Michael Jackson - Bad 25 (2012) {3CD+DVD Deluxe Edition Set, Sony Music Japan, EICP-1541~4}

Michael Jackson - Bad 25 (2012) {3CD+DVD Deluxe Edition Set, Sony Music Japan, EICP-1541~4}

Michael Jackson - Bad 25 (2012) {3CD+DVD Deluxe Edition Set, Sony Music Japan, EICP-1541~4}



===