Tags
Language
Tags

Mick Kolassa & Mark Telesca - You Can't Do That (Acoustic Blues Beatles Tribute) (2018)

Posted By: Domestos
Mick Kolassa & Mark Telesca - You Can't Do That (Acoustic Blues Beatles Tribute) (2018)

Mick Kolassa & Mark Telesca - You Can't Do That (Acoustic Blues Beatles Tribute) (2018)
EAC Rip | FLAC (image+.cue, log) ~ 218.23 Mb + 45.06 Mb (Scans) | 37:11
Modern Electric Blues | Label: Time Blues

In life, some things are so ubiquitous that any attempt to imitate them or “change them up a bit” can be easily spotted. One of them is McDonald’s fries. Companies like OreIda put out frozen “Fast Food Fries” in order to satisfy a craving, but there’s nothing like the real deal. Another worldwide ubiquity is the Beatles: the band, the brand, the music, the merch. Who knows how many hundreds, probably thousands, of performers have covered their songs?

Michigan’s Mick Kolassa and Mark Telesca aren’t the first, and won’t be the last. Nevertheless, they’ve given their best shot at trying to blues-ify some of their favorite tunes by the Fab Four. You Can’t Do That! is a collection of eleven covers, remarkable in their lack of remarkability. The sample I review later is notable because it sounds the most like traditional blues, and is a more-than-pleasant arrangement. Beyond that, do I have much more to say? Would the Beatles? The jury’s out in the second case. As for the first? On vocals, these two do not sing. They talk. This cannot be overstated. On guitar (both men), percussion (Kolassa) and bass (Telesca), they’re clearly better, but guest star Jeff Jensen is better still. What classics from the mop-tops will you hear? “Can’t Buy Me Love” – moderately interesting; “Lady Madonna” – gloomy and depressing; “You Can’t Do That” – obviously; and “Why Don’t We Do It in the Road” – ugh. Still need more info? Check out their bio below, and my last sentence for a final verdict.

Mick’s little corner of the Web reveals a little background: “I’m Mick Kolassa, also known as Michissippi Mick. I am a lifelong musician and hardcore blues fan who also happens to be on the Board of Directors of the Blues Foundation. My love of the blues began 50 years ago and with this and my previous album I am able to share that love with you. You can see that I love all styles of blues, and I also love to find the blues song hidden in tunes that most people wouldn’t think of as blues. I hope you enjoy listening to it as much as I’ve enjoyed putting it together.”

Along with Kolassa and Telesca are guest guitarist Jeff Jensen, James Cunningham on drums and other percussion; Eric Hughes on harmonica and guitar; Marc Franklin on trumpet and flugelhorn (!), and Tommy Boroughs on fiddle and mandolin.

The following selection is the best blend of Beatles and blues, by far.

Track 03: “I Feel Fine” – Sing along, anyone over 50 (and also anyone who hasn’t been living under a rock for the past 50 years or so)! This slow burner is a keeper for sure, along with Eric Hughes’ terrific harmonica. This time, it’s perfectly okay to converse while performing, because such a tone is perfectly fitting for this cover.

Ms. Wetnight hates to say it, but when it comes to blues-ifying Beatles songs in a mediocre way, You Can’t Do That!

Track List:
01. I'll Cry Instead [0:03:27.29]
02. Can't Buy Me Love [0:03:51.60]
03. I Feel Fine [0:03:00.14]
04. Fixing a Hole [0:03:27.68]
05. You Can't Do That [0:03:31.49]
06. Got to Get You Into My Life [0:03:47.62]
07. Lady Madonna [0:03:05.00]
08. Why Don't We Do It in the Road [0:03:24.50]
09. She's a Woman [0:03:57.14]
10. Mean Mr. Mustard / Polythene Pam [0:03:57.24]
11. She Came In Through the Bathroom Window [0:01:38.12]

Mick Kolassa & Mark Telesca - You Can't Do That (Acoustic Blues Beatles Tribute) (2018)

Exact Audio Copy V1.3 from 2. September 2016

Отчёт EAC об извлечении, выполненном 25. апреля 2018, 21:25

Mick Kolassa and Mark Telesca / You Can't Do That

Дисковод: ATAPI iHAS124 F Adapter: 1 ID: 0

Режим чтения : Достоверность
Использование точного потока : Да
Отключение кэша аудио : Да
Использование указателей C2 : Нет

Коррекция смещения при чтении : 6
Способность читать области Lead-in и Lead-out : Нет
Заполнение пропущенных сэмплов тишиной : Да
Удаление блоков с тишиной в начале и конце : Нет
При вычислениях CRC использовались нулевые сэмплы : Да
Интерфейс : Встроенный Win32-интерфейс для Win NT/2000

Выходной формат : Пользовательский кодировщик
Выбранный битрейт : 768 kBit/s
Качество : Высокий
Добавление ID3-тега : Нет
Утилита сжатия : C:\Program Files (x86)\Exact Audio Copy\FLAC\FLAC.EXE
Дополнительные параметры : -6 -V -T "ARTIST=%artist%" -T "TITLE=%title%" -T "ALBUM=%albumtitle%" -T "DATE=%year%" -T "TRACKNUMBER=%tracknr%" -T "GENRE=%genre%" -T "COMMENT=%comment%" -T "BAND=%albuminterpret%" -T "ALBUMARTIST=%albuminterpret%" -T "COMPOSER=%composer%" %haslyrics%–tag-from-file=LYRICS="%lyricsfile%"%haslyrics% -T "DISCNUMBER=%cdnumber%" -T "TOTALDISCS=%totalcds%" -T "TOTALTRACKS=%numtracks%" %hascover%–picture="%coverfile%"%hascover% %source% -o %dest%

TOC извлечённого CD

Трек | Старт | Длительность | Начальный сектор | Конечный сектор
––––––––––––––––––––––––––––––––––-
1 | 0:00.00 | 3:27.29 | 0 | 15553
2 | 3:27.29 | 3:51.60 | 15554 | 32938
3 | 7:19.14 | 3:00.14 | 32939 | 46452
4 | 10:19.28 | 3:27.68 | 46453 | 62045
5 | 13:47.21 | 3:31.49 | 62046 | 77919
6 | 17:18.70 | 3:47.62 | 77920 | 95006
7 | 21:06.57 | 3:05.00 | 95007 | 108881
8 | 24:11.57 | 3:24.50 | 108882 | 124231
9 | 27:36.32 | 3:57.14 | 124232 | 142020
10 | 31:33.46 | 3:57.24 | 142021 | 159819
11 | 35:30.70 | 1:38.12 | 159820 | 167181

Характеристики диапазона извлечения и сообщения об ошибках

Выбранный диапазон

Имя файла K:\My Uploads-12\Mick Kolassa and Mark Telesca - You Can't Do That 2018 37'11''\Mick Kolassa and Mark Telesca - You Can't Do That.wav

Пиковый уровень 96.6 %
Скорость извлечения 8.3 X
Качество диапазона 100.0 %
CRC теста 9208B3EE
CRC копии 9208B3EE
Копирование… OK

Ошибок не произошло

Конец отчёта

–– CUETools DB Plugin V2.1.6

[CTDB TOCID: mO2ofqyTw3Oy22QBI9QOD0LPGcs-] found
Submit result: mO2ofqyTw3Oy22QBI9QOD0LPGcs- has been confirmed
Track | CTDB Status
1 | (1/1) Accurately ripped
2 | (1/1) Accurately ripped
3 | (1/1) Accurately ripped
4 | (1/1) Accurately ripped
5 | (1/1) Accurately ripped
6 | (1/1) Accurately ripped
7 | (1/1) Accurately ripped
8 | (1/1) Accurately ripped
9 | (1/1) Accurately ripped
10 | (1/1) Accurately ripped
11 | (1/1) Accurately ripped

==== Контрольная сумма отчёта 17FF61C7ABB40DA0A3CA80DB3299349D6EC7600BF45F901D18FA54A1DBE5B0BE ====

All thanks go to the BluesHouse

More Music in My Blog
Follow My RSS Channel