Subcategories

Miles Davis - Miles Davis At Newport 1955-1975: The Bootleg Series Vol. 4 (2015) [4CD Set] {Columbia}

Posted By: ruskaval
Miles Davis - Miles Davis At Newport 1955-1975: The Bootleg Series Vol. 4 (2015) [4CD Set] {Columbia}

Miles Davis - Miles Davis At Newport 1955-1975: The Bootleg Series Vol. 4 (2015) [4CD Set] {Columbia}
EAC rip (secure mode) | FLAC (tracks)+CUE+LOG -> 1.59 Gb | MP3 @320 -> 707 Mb
Full Artwork @ 600 dpi (png) -> 1.58 Gb | 5% repair rar
© 2015 Columbia / Legacy / Sony Music | 88875081952
Jazz / Bop / Hard Bop / Modal Music / Jazz Funk / Fusion / Trumpet

Miles Davis’ 20-year association as an artist at impresario George Wein’s renowned Newport Jazz Festival is a thriving tradition celebrated with the release of MILES DAVIS AT NEWPORT 1955-1975: THE BOOTLEG SERIES VOL. 4, released 60 years to the date since Davis’ breakthrough performance at Newport in 1955. The four-CD box set is comprised of live performances by Miles’ stellar band lineups in 1955, 1958, 1966, 1967, 1969, 1971, 1973, and 1975, in Newport, Rhode Island, New York City, Berlin, and Switzerland. (All tracks previously unreleased, except where otherwise indicated).
Miles Davis - Miles Davis At Newport 1955-1975: The Bootleg Series Vol. 4 (2015) [4CD Set] {Columbia}

The newest entry in Columbia/Legacy Recordings' critically-acclaimed Miles Davis Bootleg Series, NEWPORT 1955-1975 clocks in at 296 minutes, nearly four hours of which is previously unreleased. From Miles' debut performance at NJF in 1955 (a hastily arranged jam session featuring Thelonious Monk and Gerry Mulligan, that immediately led to the trumpeter's Columbia signing), to his final public perform¬ance of the '70s in 1975 (at Lincoln Center during NJF-NY, the singular "Mtume" named for Miles' favored percussion¬ist of that decade), the box set traces the ascendance of Miles' music as the ne plus ultra of jazz. The full-length concert performances alone of Miles' famed "Kind Of Blue" Sextet (with Cannonball Adderley, John Coltrane, Bill Evans, Paul Chambers, and Jimmy Cobb), and second great quintet in '66 and '67 (with Wayne Shorter, Herbie Hancock, Ron Carter, and Tony Williams) represent templates that reverberate in jazz and popular music to this day.
Miles Davis - Miles Davis At Newport 1955-1975: The Bootleg Series Vol. 4 (2015) [4CD Set] {Columbia}

The fourth volume in the ongoing Miles Davis live Bootleg Series, 2015's Miles Davis at Newport: 1955-1975 is a four-disc anthology that brings together all of the legendary trumpeter's live recordings captured at the storied Newport Jazz Festival. Founded by organizer George Wein in 1954, the Newport Jazz Festival grew into one of the premier music festivals in the world, thanks in no small part to Wein's longstanding association with Davis. With Wein's support and famous dedication to encouraging artistic experimentation, Davis would return to the festival throughout the most creatively vital years of his career.

Miles Davis - Miles Davis At Newport 1955-1975: The Bootleg Series Vol. 4 (2015) [4CD Set] {Columbia}


Although he first appeared at the festival in 1955, unbilled, ostensibly as part of an all-star group featuring pianist Thelonious Monk and saxophonist Gerry Mulligan, it was his star-making rendition of "'Round Midnight" (the microphone buried deep in his trumpet to overcome sound-system issues) that landed him a record deal with Columbia and marked his ascent as one of the most innovative and important figures in music history. Miles Davis at Newport details the association between Davis and the festival, each performance serendipitously documenting his ever-morphing sound, from swinging cool jazz in the '50s to aggressive, free jazz-influenced modal bop in the '60s and finally to funky, acid-soaked fusion in the '70s. As with the previous Bootleg Series sets, many of the tracks on Miles Davis at Newport have been available either officially or unofficially in some configuration for decades.

Miles Davis - Miles Davis At Newport 1955-1975: The Bootleg Series Vol. 4 (2015) [4CD Set] {Columbia}


Nonetheless, this collection does contain several previously unreleased cuts, including an epic 1966 version of "Stella by Starlight." Showcasing Davis' transformative second great quintet with pianist Herbie Hancock, saxophonist Wayne Shorter, bassist Ron Carter, and drummer Tony Williams, the track begins as an atmospheric rubato ballad and ends with Davis and his group having blown out the walls of the song's form with frenetic glee, a move that foreshadows the darker, psych-rock-infused sound Davis would debut with his next appearance. Captured just six weeks before the recording sessions for his landmark fusion album Bitches Brew, Davis' 1969 Newport date is a roiling, funky performance, marked by Chick Corea's dewy Fender Rhodes and Jack DeJohnette's whirlwind percussion.

Miles Davis - Miles Davis At Newport 1955-1975: The Bootleg Series Vol. 4 (2015) [4CD Set] {Columbia}


By this time, Davis had eschewed the jazz standards-based lyricism of his 1958 appearance, favoring instead an open-ended, groove-oriented sound punctuated by the outward squelch of his horn. The collection ends with three of Davis' post-Bitches Brew performances, two recorded in Europe in 1971 and 1973 and one at New York's Avery Fisher Hall in 1975. With Davis' trumpet slathered in the sticky swell of his wah-wah pedal and his group featuring saxophonist Dave Liebman and others, including not one but two electric guitarists with Pete Cosey and Reggie Lucas, these performances mark the apotheosis of a creative journey that began at Newport two decades earlier.
Miles Davis - Miles Davis At Newport 1955-1975: The Bootleg Series Vol. 4 (2015) [4CD Set] {Columbia}


tracklist & personnel:
CD 1: (July 17, 1955: Newport Jazz Festival, Newport, RI)

01. Spoken Introductions by Duke Ellington and Gerry Mulligan
02. Hackensack
03. ’Round Midnight (previously released)
04. Now’s The Time
All-Star Jam Session: Miles Davis, trumpet; Zoot Sims, tenor saxophone; Gerry Mulligan, baritone saxophone; Thelonious Monk, piano; Percy Heath, bass; Connie Kay, drums.

(July 3, 1958: Newport Jazz Festival, Newport, RI)
05. Spoken Introduction by Willis Conover (previously released)
06. Ah-Leu-Cha (previously released)
07. Straight, No Chaser (previously released)
08. Fran-Dance (previously released)
09. Two Bass Hit (previously released)
10. Bye Bye Blackbird (previously released)
11. The Theme (previously released)
Miles Davis, trumpet; Cannonball Adderley, alto saxophone; John Coltrane, tenor saxophone; Bill Evans, piano; Paul Chambers, bass; Jimmy Cobb, drums.

Miles Davis - Miles Davis At Newport 1955-1975: The Bootleg Series Vol. 4 (2015) [4CD Set] {Columbia}


CD 2: (July 4, 1966: Newport Jazz Festival, Newport, RI)
01. Gingerbread Boy
02. All Blues
03. Stella By Starlight
04. R.J.
05. Seven Steps To Heaven
06. The Theme / Closing Announcement by Leonard Feather

(July 2, 1967: Newport Jazz Festival, Newport, RI)
07. Spoken Introduction by Del Shields
08. Gingerbread Boy
09. Footprints
10. ’Round Midnight
11. So What
12. The Theme / Closing Announcement by Del Shields
1966 & 1967: Miles Davis, trumpet; Wayne Shorter, tenor saxophone; Herbie Hancock, piano; Ron Carter, bass; Tony Williams, drums.

Miles Davis - Miles Davis At Newport 1955-1975: The Bootleg Series Vol. 4 (2015) [4CD Set] {Columbia}


CD 3: (July 5, 1969: Newport Jazz Festival, Newport, RI)
01. Miles Runs The Voodoo Down (previously released)
02. Sanctuary (previously released)
03. It’s About That Time / The Theme (previously released)
Miles Davis, trumpet; Chick Corea, electric piano; Dave Holland, bass; Jack DeJohnette, drums.

(November 1, 1973: Newport Jazz Festival In Europe, Berlin)
04. Spoken Introduction by Ronnie Scott / Band Warming Up
05. Turnaroundphrase
06. Tune In 5
07. Ife
08. Untitled Original
09. Tune In 5 / Closing Announcement by Ronnie Scott
Miles Davis, trumpet, organ; Dave Liebman, soprano saxophone, tenor saxophone, flute; Pete Cosey, guitar, percussion; Reggie Lucas, guitar; Michael Henderson, electric bass; Al Foster, drums; James Mtume Forman, percussion.

(July 1, 1975: Newport Jazz Festival – NY, Avery Fisher Hall)
10. Mtume
Miles Davis, trumpet, organ; Sam Morrison, tenor saxophone; Pete Cosey, guitar, percussion; Reggie Lucas, guitar; Michael Henderson, electric bass; Al Foster, drums; James Mtume Forman, percussion.

Miles Davis - Miles Davis At Newport 1955-1975: The Bootleg Series Vol. 4 (2015) [4CD Set] {Columbia}


CD 4: (October 22, 1971 : Newport Jazz Festival In Europe, Neue Stadthalle, Dietikon, Switzerland)
01. Directions
02. What I Say
03. Sanctuary
04. It’s About That Time
05. Bitches Brew
06. Funky Tonk
07. Sanctuary
Miles Davis, trumpet; Gary Bartz, soprano saxophone, alto saxophone; Keith Jarrett, electric piano, organ; Michael Henderson, electric bass; Ndugu Leon Chancler, drums; Don Alias, percussion; James Mtume Forman, percussion.

Miles Davis - Miles Davis At Newport 1955-1975: The Bootleg Series Vol. 4 (2015) [4CD Set] {Columbia}


Exact Audio Copy V1.1 from 23. June 2015

EAC extraction logfile from 31. August 2015, 23:43

Miles Davis / Miles Davis At Newport 1955-1975: The Bootleg Series Vol. 4 (CD1)

Used drive : TSSTcorpCDDVDW SE-208DB Adapter: 7 ID: 0

Read mode : Secure
Utilize accurate stream : Yes
Defeat audio cache : Yes
Make use of C2 pointers : No

Read offset correction : 6
Overread into Lead-In and Lead-Out : No
Fill up missing offset samples with silence : Yes
Delete leading and trailing silent blocks : No
Null samples used in CRC calculations : Yes
Used interface : Installed external ASPI interface
Gap handling : Appended to previous track

Used output format : User Defined Encoder
Selected bitrate : 1024 kBit/s
Quality : High
Add ID3 tag : No
Command line compressor : C:\Program Files (x86)\FLAC Frontend\tools\flac.exe
Additional command line options : -8 -V -T "ARTIST=%artist%" -T "TITLE=%title%" -T "ALBUM=%albumtitle%" -T "DATE=%year%" -T "TRACKNUMBER=%tracknr%" -T "TOTALTRACKS=%numtracks%" -T "GENRE=%genre%" -T "ALBUMARTIST=%albumartist%" -T "ALBUM ARTIST=%albumartist%" -T "COMMENT=EAC Secure Mode, Test & Copy, AccurateRip, FLAC -8" %source%


TOC of the extracted CD

Track | Start | Length | Start sector | End sector
––––––––––––––––––––––––––––-
1 | 0:00.00 | 1:27.01 | 0 | 6525
2 | 1:27.01 | 8:02.20 | 6526 | 42695
3 | 9:29.21 | 6:11.72 | 42696 | 70592
4 | 15:41.18 | 8:48.73 | 70593 | 110265
5 | 24:30.16 | 2:16.11 | 110266 | 120476
6 | 26:46.27 | 5:52.55 | 120477 | 146931
7 | 32:39.07 | 8:47.42 | 146932 | 186498
8 | 41:26.49 | 7:13.54 | 186499 | 219027
9 | 48:40.28 | 4:10.46 | 219028 | 237823
10 | 52:50.74 | 9:10.46 | 237824 | 279119
11 | 62:01.45 | 2:49.61 | 279120 | 291855


Track 1

Filename M:\_EAC\Miles Davis - Miles Davis At Newport 1955-1975. The Bootleg Series Vol. 4 (2015) [FLAC] {4CD}\CD1\01 - Spoken Introductions By Duke Ellington And Gerry Mulligan.wav

Pre-gap length 0:00:02.00

Peak level 91.7 %
Extraction speed 0.8 X
Track quality 100.0 %
Test CRC ACF8CBE0
Copy CRC ACF8CBE0
Accurately ripped (confidence 8) [555A8333] (AR v2)
Copy OK

Track 2

Filename M:\_EAC\Miles Davis - Miles Davis At Newport 1955-1975. The Bootleg Series Vol. 4 (2015) [FLAC] {4CD}\CD1\02 - Hackensack.wav

Peak level 85.0 %
Extraction speed 1.2 X
Track quality 100.0 %
Test CRC B40D013B
Copy CRC B40D013B
Accurately ripped (confidence 8) [0D62D6EB] (AR v2)
Copy OK

Track 3

Filename M:\_EAC\Miles Davis - Miles Davis At Newport 1955-1975. The Bootleg Series Vol. 4 (2015) [FLAC] {4CD}\CD1\03 - 'Round Midnight.wav

Peak level 60.8 %
Extraction speed 1.4 X
Track quality 100.0 %
Test CRC 3DF4ABDE
Copy CRC 3DF4ABDE
Accurately ripped (confidence 8) [02B8E487] (AR v2)
Copy OK

Track 4

Filename M:\_EAC\Miles Davis - Miles Davis At Newport 1955-1975. The Bootleg Series Vol. 4 (2015) [FLAC] {4CD}\CD1\04 - Now's The Time.wav

Peak level 84.3 %
Extraction speed 1.5 X
Track quality 100.0 %
Test CRC CFA799EA
Copy CRC CFA799EA
Accurately ripped (confidence 8) [E655325E] (AR v2)
Copy OK

Track 5

Filename M:\_EAC\Miles Davis - Miles Davis At Newport 1955-1975. The Bootleg Series Vol. 4 (2015) [FLAC] {4CD}\CD1\05 - Spoken Introduction By Willis Conover.wav

Pre-gap length 0:00:01.17

Peak level 86.4 %
Extraction speed 1.3 X
Track quality 100.0 %
Test CRC E97B59C5
Copy CRC E97B59C5
Accurately ripped (confidence 8) [9D085DC2] (AR v2)
Copy OK

Track 6

Filename M:\_EAC\Miles Davis - Miles Davis At Newport 1955-1975. The Bootleg Series Vol. 4 (2015) [FLAC] {4CD}\CD1\06 - Ah-Leu-Cha.wav

Peak level 92.5 %
Extraction speed 1.6 X
Track quality 100.0 %
Test CRC 9D1CB198
Copy CRC 9D1CB198
Accurately ripped (confidence 8) [B7D15B2C] (AR v2)
Copy OK

Track 7

Filename M:\_EAC\Miles Davis - Miles Davis At Newport 1955-1975. The Bootleg Series Vol. 4 (2015) [FLAC] {4CD}\CD1\07 - Straight, No Chaser.wav

Peak level 90.8 %
Extraction speed 1.7 X
Track quality 99.9 %
Test CRC 68E9C96B
Copy CRC 68E9C96B
Accurately ripped (confidence 8) [D93E2D89] (AR v2)
Copy OK

Track 8

Filename M:\_EAC\Miles Davis - Miles Davis At Newport 1955-1975. The Bootleg Series Vol. 4 (2015) [FLAC] {4CD}\CD1\08 - Fran-Dance.wav

Peak level 70.6 %
Extraction speed 1.9 X
Track quality 100.0 %
Test CRC 8D67390E
Copy CRC 8D67390E
Accurately ripped (confidence 8) [1ACDCE87] (AR v2)
Copy OK

Track 9

Filename M:\_EAC\Miles Davis - Miles Davis At Newport 1955-1975. The Bootleg Series Vol. 4 (2015) [FLAC] {4CD}\CD1\09 - Two Bass Hit.wav

Peak level 90.5 %
Extraction speed 1.8 X
Track quality 100.0 %
Test CRC 3FAE3281
Copy CRC 3FAE3281
Accurately ripped (confidence 8) [EFE0FBB1] (AR v2)
Copy OK

Track 10

Filename M:\_EAC\Miles Davis - Miles Davis At Newport 1955-1975. The Bootleg Series Vol. 4 (2015) [FLAC] {4CD}\CD1\10 - Bye Bye Blackbird.wav

Peak level 90.5 %
Extraction speed 2.0 X
Track quality 100.0 %
Test CRC 6D1AB09B
Copy CRC 6D1AB09B
Accurately ripped (confidence 8) [8E1EFF57] (AR v2)
Copy OK

Track 11

Filename M:\_EAC\Miles Davis - Miles Davis At Newport 1955-1975. The Bootleg Series Vol. 4 (2015) [FLAC] {4CD}\CD1\11 - The Theme.wav

Peak level 90.4 %
Extraction speed 1.7 X
Track quality 100.0 %
Test CRC 42578A1C
Copy CRC 42578A1C
Accurately ripped (confidence 8) [CE49AFE7] (AR v2)
Copy OK


All tracks accurately ripped

No errors occurred

End of status report

==== Log checksum 5750455E8B490287D5A429AF1A420E5499C0D2C4520B28ECE47DC6B806390321 ====

Exact Audio Copy V1.1 from 23. June 2015

EAC extraction logfile from 1. September 2015, 5:48

Miles Davis / Miles Davis At Newport 1955-1975: The Bootleg Series Vol. 4 (CD2)

Used drive : TSSTcorpCDDVDW SE-208DB Adapter: 7 ID: 0

Read mode : Secure
Utilize accurate stream : Yes
Defeat audio cache : Yes
Make use of C2 pointers : No

Read offset correction : 6
Overread into Lead-In and Lead-Out : No
Fill up missing offset samples with silence : Yes
Delete leading and trailing silent blocks : No
Null samples used in CRC calculations : Yes
Used interface : Installed external ASPI interface
Gap handling : Appended to previous track

Used output format : User Defined Encoder
Selected bitrate : 1024 kBit/s
Quality : High
Add ID3 tag : No
Command line compressor : C:\Program Files (x86)\FLAC Frontend\tools\flac.exe
Additional command line options : -8 -V -T "ARTIST=%artist%" -T "TITLE=%title%" -T "ALBUM=%albumtitle%" -T "DATE=%year%" -T "TRACKNUMBER=%tracknr%" -T "TOTALTRACKS=%numtracks%" -T "GENRE=%genre%" -T "ALBUMARTIST=%albumartist%" -T "ALBUM ARTIST=%albumartist%" -T "COMMENT=EAC Secure Mode, Test & Copy, AccurateRip, FLAC -8" %source%


TOC of the extracted CD

Track | Start | Length | Start sector | End sector
––––––––––––––––––––––––––––-
1 | 0:00.00 | 8:29.46 | 0 | 38220
2 | 8:29.46 | 10:27.08 | 38221 | 85253
3 | 18:56.54 | 7:58.32 | 85254 | 121135
4 | 26:55.11 | 6:20.67 | 121136 | 149702
5 | 33:16.03 | 4:45.66 | 149703 | 171143
6 | 38:01.69 | 2:19.00 | 171144 | 181568
7 | 40:20.69 | 0:38.15 | 181569 | 184433
8 | 40:59.09 | 8:42.40 | 184434 | 223623
9 | 49:41.49 | 7:53.58 | 223624 | 259156
10 | 57:35.32 | 6:41.25 | 259157 | 289256
11 | 64:16.57 | 8:18.26 | 289257 | 326632
12 | 72:35.08 | 0:19.64 | 326633 | 328121


Track 1

Filename M:\_EAC\Miles Davis - Miles Davis At Newport 1955-1975. The Bootleg Series Vol. 4 (2015) [FLAC] {4CD}\CD2\01 - Gingerbread Boy.wav

Pre-gap length 0:00:02.00

Peak level 84.9 %
Extraction speed 1.2 X
Track quality 99.9 %
Test CRC 2DC86396
Copy CRC 2DC86396
Accurately ripped (confidence 7) [12D4C4F7] (AR v2)
Copy OK

Track 2

Filename M:\_EAC\Miles Davis - Miles Davis At Newport 1955-1975. The Bootleg Series Vol. 4 (2015) [FLAC] {4CD}\CD2\02 - All Blues.wav

Peak level 80.6 %
Extraction speed 1.4 X
Track quality 99.9 %
Test CRC F6EE8432
Copy CRC F6EE8432
Accurately ripped (confidence 7) [AC8FE49B] (AR v2)
Copy OK

Track 3

Filename M:\_EAC\Miles Davis - Miles Davis At Newport 1955-1975. The Bootleg Series Vol. 4 (2015) [FLAC] {4CD}\CD2\03 - Stella by Starlight.wav

Peak level 84.9 %
Extraction speed 1.5 X
Track quality 99.9 %
Test CRC 891584AA
Copy CRC 891584AA
Accurately ripped (confidence 7) [D0300185] (AR v2)
Copy OK

Track 4

Filename M:\_EAC\Miles Davis - Miles Davis At Newport 1955-1975. The Bootleg Series Vol. 4 (2015) [FLAC] {4CD}\CD2\04 - R.J..wav

Peak level 77.1 %
Extraction speed 1.7 X
Track quality 100.0 %
Test CRC 92E551EA
Copy CRC 92E551EA
Accurately ripped (confidence 7) [6B25DD48] (AR v2)
Copy OK

Track 5

Filename M:\_EAC\Miles Davis - Miles Davis At Newport 1955-1975. The Bootleg Series Vol. 4 (2015) [FLAC] {4CD}\CD2\05 - Seven Steps to Heaven.wav

Peak level 82.7 %
Extraction speed 1.5 X
Track quality 99.9 %
Test CRC 4DBF551E
Copy CRC 4DBF551E
Accurately ripped (confidence 7) [4D90564F] (AR v2)
Copy OK

Track 6

Filename M:\_EAC\Miles Davis - Miles Davis At Newport 1955-1975. The Bootleg Series Vol. 4 (2015) [FLAC] {4CD}\CD2\06 - The Theme - Closing Announcement by Leonard Feather.wav

Peak level 78.8 %
Extraction speed 1.5 X
Track quality 100.0 %
Test CRC B31A5863
Copy CRC B31A5863
Accurately ripped (confidence 7) [B34D7E49] (AR v2)
Copy OK

Track 7

Filename M:\_EAC\Miles Davis - Miles Davis At Newport 1955-1975. The Bootleg Series Vol. 4 (2015) [FLAC] {4CD}\CD2\07 - Spoken Introduction by Del Shields.wav

Pre-gap length 0:00:01.69

Peak level 54.2 %
Extraction speed 0.6 X
Track quality 99.7 %
Test CRC 1E3F3100
Copy CRC 1E3F3100
Accurately ripped (confidence 7) [3277D47F] (AR v2)
Copy OK

Track 8

Filename M:\_EAC\Miles Davis - Miles Davis At Newport 1955-1975. The Bootleg Series Vol. 4 (2015) [FLAC] {4CD}\CD2\08 - Gingerbread Boy.wav

Peak level 83.7 %
Extraction speed 1.8 X
Track quality 99.9 %
Test CRC 2A035D47
Copy CRC 2A035D47
Accurately ripped (confidence 7) [1934C0CC] (AR v2)
Copy OK

Track 9

Filename M:\_EAC\Miles Davis - Miles Davis At Newport 1955-1975. The Bootleg Series Vol. 4 (2015) [FLAC] {4CD}\CD2\09 - Footprints.wav

Peak level 82.5 %
Extraction speed 1.9 X
Track quality 99.9 %
Test CRC 44A7D80B
Copy CRC 44A7D80B
Accurately ripped (confidence 7) [631DE003] (AR v2)
Copy OK

Track 10

Filename M:\_EAC\Miles Davis - Miles Davis At Newport 1955-1975. The Bootleg Series Vol. 4 (2015) [FLAC] {4CD}\CD2\10 - 'Round Midnight.wav

Peak level 82.8 %
Extraction speed 2.1 X
Track quality 100.0 %
Test CRC 600FCE1D
Copy CRC 600FCE1D
Accurately ripped (confidence 7) [DAB857EB] (AR v2)
Copy OK

Track 11

Filename M:\_EAC\Miles Davis - Miles Davis At Newport 1955-1975. The Bootleg Series Vol. 4 (2015) [FLAC] {4CD}\CD2\11 - So What.wav

Peak level 82.3 %
Extraction speed 2.0 X
Track quality 99.9 %
Test CRC 28F72FFC
Copy CRC 28F72FFC
Accurately ripped (confidence 7) [A64E4AB8] (AR v2)
Copy OK

Track 12

Filename M:\_EAC\Miles Davis - Miles Davis At Newport 1955-1975. The Bootleg Series Vol. 4 (2015) [FLAC] {4CD}\CD2\12 - The Theme - Closing Announcement by Del Shields.wav

Peak level 79.9 %
Extraction speed 0.7 X
Track quality 100.0 %
Test CRC A5FC8C43
Copy CRC A5FC8C43
Accurately ripped (confidence 7) [EED0B8CC] (AR v2)
Copy OK


All tracks accurately ripped

No errors occurred

End of status report

==== Log checksum A5EAACB1659DC52431D18ECE4F63E886D3D9918F241AAEA7FDAB74BD6448D920 ====

Exact Audio Copy V1.1 from 23. June 2015

EAC extraction logfile from 1. September 2015, 7:28

Miles Davis / Miles Davis At Newport 1955-1975: The Bootleg Series Vol. 4 (CD3)

Used drive : TSSTcorpCDDVDW SE-208DB Adapter: 7 ID: 0

Read mode : Secure
Utilize accurate stream : Yes
Defeat audio cache : Yes
Make use of C2 pointers : No

Read offset correction : 6
Overread into Lead-In and Lead-Out : No
Fill up missing offset samples with silence : Yes
Delete leading and trailing silent blocks : No
Null samples used in CRC calculations : Yes
Used interface : Installed external ASPI interface
Gap handling : Appended to previous track

Used output format : User Defined Encoder
Selected bitrate : 1024 kBit/s
Quality : High
Add ID3 tag : No
Command line compressor : C:\Program Files (x86)\FLAC Frontend\tools\flac.exe
Additional command line options : -8 -V -T "ARTIST=%artist%" -T "TITLE=%title%" -T "ALBUM=%albumtitle%" -T "DATE=%year%" -T "TRACKNUMBER=%tracknr%" -T "TOTALTRACKS=%numtracks%" -T "GENRE=%genre%" -T "ALBUMARTIST=%albumartist%" -T "ALBUM ARTIST=%albumartist%" -T "COMMENT=EAC Secure Mode, Test & Copy, AccurateRip, FLAC -8" %source%


TOC of the extracted CD

Track | Start | Length | Start sector | End sector
––––––––––––––––––––––––––––-
1 | 0:00.00 | 10:27.44 | 0 | 47068
2 | 10:27.44 | 3:52.67 | 47069 | 64535
3 | 14:20.36 | 9:48.30 | 64536 | 108665
4 | 24:08.66 | 0:36.66 | 108666 | 111431
5 | 24:45.57 | 10:57.06 | 111432 | 160712
6 | 35:42.63 | 4:12.34 | 160713 | 179646
7 | 39:55.22 | 13:54.32 | 179647 | 242228
8 | 53:49.54 | 11:31.32 | 242229 | 294085
9 | 65:21.11 | 6:07.36 | 294086 | 321646
10 | 71:28.47 | 6:57.44 | 321647 | 352965


Track 1

Filename M:\_EAC\Miles Davis - Miles Davis At Newport 1955-1975. The Bootleg Series Vol. 4 (2015) [FLAC] {4CD}\CD3\01 - Miles Runs the Voodoo Down.wav

Pre-gap length 0:00:02.00

Peak level 93.1 %
Extraction speed 3.5 X
Track quality 100.0 %
Test CRC DE2F26FE
Copy CRC DE2F26FE
Accurately ripped (confidence 7) [41BA63DC] (AR v2)
Copy OK

Track 2

Filename M:\_EAC\Miles Davis - Miles Davis At Newport 1955-1975. The Bootleg Series Vol. 4 (2015) [FLAC] {4CD}\CD3\02 - Sanctuary.wav

Peak level 89.9 %
Extraction speed 3.6 X
Track quality 100.0 %
Test CRC 9CBA6A67
Copy CRC 9CBA6A67
Accurately ripped (confidence 7) [1736E7D5] (AR v2)
Copy OK

Track 3

Filename M:\_EAC\Miles Davis - Miles Davis At Newport 1955-1975. The Bootleg Series Vol. 4 (2015) [FLAC] {4CD}\CD3\03 - It's About That Time - The Theme.wav

Peak level 94.1 %
Extraction speed 4.3 X
Track quality 100.0 %
Test CRC 9568EFE4
Copy CRC 9568EFE4
Accurately ripped (confidence 7) [C7CBAF93] (AR v2)
Copy OK

Track 4

Filename M:\_EAC\Miles Davis - Miles Davis At Newport 1955-1975. The Bootleg Series Vol. 4 (2015) [FLAC] {4CD}\CD3\04 - Spoken Introduction by Ronnie Scott - Band Warming Up.wav

Pre-gap length 0:00:02.25

Peak level 82.7 %
Extraction speed 2.3 X
Track quality 100.0 %
Test CRC 0A724A8B
Copy CRC 0A724A8B
Accurately ripped (confidence 7) [50777AB7] (AR v2)
Copy OK

Track 5

Filename M:\_EAC\Miles Davis - Miles Davis At Newport 1955-1975. The Bootleg Series Vol. 4 (2015) [FLAC] {4CD}\CD3\05 - Turnaroundphrase.wav

Peak level 84.0 %
Extraction speed 4.9 X
Track quality 100.0 %
Test CRC 088C6CFB
Copy CRC 088C6CFB
Accurately ripped (confidence 7) [294F0B9B] (AR v2)
Copy OK

Track 6

Filename M:\_EAC\Miles Davis - Miles Davis At Newport 1955-1975. The Bootleg Series Vol. 4 (2015) [FLAC] {4CD}\CD3\06 - Tune In 5.wav

Peak level 76.8 %
Extraction speed 4.8 X
Track quality 100.0 %
Test CRC 150BD029
Copy CRC 150BD029
Accurately ripped (confidence 7) [0A3CA08A] (AR v2)
Copy OK

Track 7

Filename M:\_EAC\Miles Davis - Miles Davis At Newport 1955-1975. The Bootleg Series Vol. 4 (2015) [FLAC] {4CD}\CD3\07 - Ife.wav

Peak level 80.8 %
Extraction speed 5.7 X
Track quality 100.0 %
Test CRC EB17EFC4
Copy CRC EB17EFC4
Accurately ripped (confidence 7) [AC5356EE] (AR v2)
Copy OK

Track 8

Filename M:\_EAC\Miles Davis - Miles Davis At Newport 1955-1975. The Bootleg Series Vol. 4 (2015) [FLAC] {4CD}\CD3\08 - Untitled Original.wav

Peak level 79.5 %
Extraction speed 6.1 X
Track quality 100.0 %
Test CRC 18742317
Copy CRC 18742317
Accurately ripped (confidence 7) [2BA5A93F] (AR v2)
Copy OK

Track 9

Filename M:\_EAC\Miles Davis - Miles Davis At Newport 1955-1975. The Bootleg Series Vol. 4 (2015) [FLAC] {4CD}\CD3\09 - Tune In 5 - Closing Announcement by Ronnie Scott.wav

Peak level 82.1 %
Extraction speed 5.2 X
Track quality 99.9 %
Test CRC E6BBFAD6
Copy CRC E6BBFAD6
Accurately ripped (confidence 7) [8B6CB7A3] (AR v2)
Copy OK

Track 10

Filename M:\_EAC\Miles Davis - Miles Davis At Newport 1955-1975. The Bootleg Series Vol. 4 (2015) [FLAC] {4CD}\CD3\10 - Mtume.wav

Pre-gap length 0:00:01.17

Peak level 67.1 %
Extraction speed 6.4 X
Track quality 100.0 %
Test CRC 0F4E6947
Copy CRC 0F4E6947
Accurately ripped (confidence 7) [AAE606EF] (AR v2)
Copy OK


All tracks accurately ripped

No errors occurred

End of status report

==== Log checksum 78F0A345D95007F8009E11A55E8B2BB8AD4ECD704EBFB698755634A40C0FD2C9 ====

Exact Audio Copy V1.1 from 23. June 2015

EAC extraction logfile from 1. September 2015, 9:01

Miles Davis / Miles Davis At Newport 1955-1975: The Bootleg Series Vol. 4 (CD4)

Used drive : TSSTcorpCDDVDW SE-208DB Adapter: 7 ID: 0

Read mode : Secure
Utilize accurate stream : Yes
Defeat audio cache : Yes
Make use of C2 pointers : No

Read offset correction : 6
Overread into Lead-In and Lead-Out : No
Fill up missing offset samples with silence : Yes
Delete leading and trailing silent blocks : No
Null samples used in CRC calculations : Yes
Used interface : Installed external ASPI interface
Gap handling : Appended to previous track

Used output format : User Defined Encoder
Selected bitrate : 1024 kBit/s
Quality : High
Add ID3 tag : No
Command line compressor : C:\Program Files (x86)\FLAC Frontend\tools\flac.exe
Additional command line options : -8 -V -T "ARTIST=%artist%" -T "TITLE=%title%" -T "ALBUM=%albumtitle%" -T "DATE=%year%" -T "TRACKNUMBER=%tracknr%" -T "TOTALTRACKS=%numtracks%" -T "GENRE=%genre%" -T "ALBUMARTIST=%albumartist%" -T "ALBUM ARTIST=%albumartist%" -T "COMMENT=EAC Secure Mode, Test & Copy, AccurateRip, FLAC -8" %source%


TOC of the extracted CD

Track | Start | Length | Start sector | End sector
––––––––––––––––––––––––––––-
1 | 0:00.00 | 13:05.47 | 0 | 58921
2 | 13:05.47 | 10:43.11 | 58922 | 107157
3 | 23:48.58 | 3:42.71 | 107158 | 123878
4 | 27:31.54 | 13:21.50 | 123879 | 184003
5 | 40:53.29 | 11:55.09 | 184004 | 237637
6 | 52:48.38 | 25:43.43 | 237638 | 353405
7 | 78:32.06 | 1:15.08 | 353406 | 359038


Track 1

Filename M:\_EAC\Miles Davis - Miles Davis At Newport 1955-1975. The Bootleg Series Vol. 4 (2015) [FLAC] {4CD}\CD4\01 - Directions.wav

Pre-gap length 0:00:02.00

Peak level 97.8 %
Extraction speed 1.3 X
Track quality 100.0 %
Test CRC 31F0027D
Copy CRC 31F0027D
Accurately ripped (confidence 7) [8376B17D] (AR v2)
Copy OK

Track 2

Filename M:\_EAC\Miles Davis - Miles Davis At Newport 1955-1975. The Bootleg Series Vol. 4 (2015) [FLAC] {4CD}\CD4\02 - What I Say.wav

Peak level 89.5 %
Extraction speed 1.6 X
Track quality 100.0 %
Test CRC A112CBDA
Copy CRC A112CBDA
Accurately ripped (confidence 7) [6C76F8C5] (AR v2)
Copy OK

Track 3

Filename M:\_EAC\Miles Davis - Miles Davis At Newport 1955-1975. The Bootleg Series Vol. 4 (2015) [FLAC] {4CD}\CD4\03 - Sanctuary.wav

Peak level 81.7 %
Extraction speed 1.5 X
Track quality 100.0 %
Test CRC 406DF1C3
Copy CRC 406DF1C3
Accurately ripped (confidence 7) [FC83B683] (AR v2)
Copy OK

Track 4

Filename M:\_EAC\Miles Davis - Miles Davis At Newport 1955-1975. The Bootleg Series Vol. 4 (2015) [FLAC] {4CD}\CD4\04 - It's About That Time.wav

Peak level 86.4 %
Extraction speed 1.8 X
Track quality 100.0 %
Test CRC 90B84970
Copy CRC 90B84970
Accurately ripped (confidence 7) [48B3D176] (AR v2)
Copy OK

Track 5

Filename M:\_EAC\Miles Davis - Miles Davis At Newport 1955-1975. The Bootleg Series Vol. 4 (2015) [FLAC] {4CD}\CD4\05 - Bitches Brew.wav

Peak level 90.6 %
Extraction speed 1.9 X
Track quality 99.9 %
Test CRC 8FC0455C
Copy CRC 8FC0455C
Accurately ripped (confidence 7) [8693CEFA] (AR v2)
Copy OK

Track 6

Filename M:\_EAC\Miles Davis - Miles Davis At Newport 1955-1975. The Bootleg Series Vol. 4 (2015) [FLAC] {4CD}\CD4\06 - Funky Tonk.wav

Peak level 86.5 %
Extraction speed 2.2 X
Track quality 100.0 %
Test CRC E6B339E2
Copy CRC E6B339E2
Accurately ripped (confidence 7) [AEFB4BED] (AR v2)
Copy OK

Track 7

Filename M:\_EAC\Miles Davis - Miles Davis At Newport 1955-1975. The Bootleg Series Vol. 4 (2015) [FLAC] {4CD}\CD4\07 - Sanctuary.wav

Peak level 78.8 %
Extraction speed 1.4 X
Track quality 100.0 %
Test CRC FD60E77A
Copy CRC FD60E77A
Accurately ripped (confidence 7) [A3EE7EC5] (AR v2)
Copy OK


All tracks accurately ripped

No errors occurred

End of status report

==== Log checksum 84E615D274F5D0F3A7B8EBF075F62071F8172CF9267487FF32500F0355F5757A ====


Miles Davis - Miles Davis At Newport 1955-1975: The Bootleg Series Vol. 4 (2015) [4CD Set] {Columbia}

Miles Davis - Miles Davis At Newport 1955-1975: The Bootleg Series Vol. 4 (2015) [4CD Set] {Columbia}