Subcategories

Miles Davis - Miles Davis Volume 2 (1953) [Remastered 1986]

Posted By: Bezz
Miles Davis - Miles Davis Volume 2 (1953) [Remastered 1986]

Miles Davis - Miles Davis Volume 2 (1953) [Remastered 1986]
EAC rip | FLAC+CUE+LOG | Scans | 204 Mb(Incl. Recovery)
Genre ~ Hard Bop, Trumpet Jazz | Label ~ Blue Note Records

This CD contains all of the music recorded by a particularly strong sextet in 1953, six selections and five alternate takes. With trumpeter Miles Davis, trombonist J.J. Johnson, tenor saxophonist Jimmy Heath, pianist Gil Coggins, bassist Percy Heath and drummer Art Blakey all in fine form, "Tempus Fugit" and "C.T.A." receive definitive treatment along with two Johnson compositions. ~ AllMusic
Tracklist

01. Tempus Fugit (03:54)
02. Tempus Fugit (alternate take) (04:02)
03. C.T.A. (alternate take) (03:20)
04. C.T.A. (03:38)
05. I Waited For You (03:34)
06. The Leap (04:36)
07. Lazy Susan (04:06)
08. Well You Needn't (05:26)
09. Take-Off (03:43)
10. Weirdo (04:46)
11. It Never Entered My Mind (04:04)

Exact Audio Copy V0.99 prebeta 5 from 4. May 2009

Отчёт EAC об извлечении, выполненном 2. ноября 2010, 10:58

Miles Davis / Miles Davis Volume 2 [CP32-5222]

Дисковод: Optiarc DVD RW AD-7200A Adapter: 1 ID: 0

Режим чтения : Достоверность
Использование точного потока : Да
Отключение кэша аудио : Да
Использование указателей C2 : Нет

Коррекция смещения при чтении : 48
Способность читать области Lead-in и Lead-out : Нет
Заполнение пропущенных сэмплов тишиной : Да
Удаление блоков с тишиной в начале и конце : Нет
При вычислениях CRC использовались нулевые сэмплы : Да
Интерфейс : Встроенный Win32-интерфейс для Win NT/2000

Выходной формат : Пользовательский кодировщик
Выбранный битрейт : 128 kBit/s
Качество : Высокий
Добавление ID3-тэга : Нет
Утилита сжатия : C:\Program Files\Exact Audio Copy\Flac\flac.exe
Дополнительные параметры : -8 -V -T "artist=%a" -T "title=%t" -T "album=%g" -T "date=%y" -T "tracknumber=%n" -T "genre=%m" -T "comment=EAC

TOC извлечённого CD

Трек | Старт | Длительность | Начальный сектор | Конечный сектор
––––––––––––––––––––––––––––––––––-
1 | 0:00.00 | 3:53.47 | 0 | 17521
2 | 3:53.47 | 4:01.65 | 17522 | 35661
3 | 7:55.37 | 3:19.60 | 35662 | 50646
4 | 11:15.22 | 3:37.38 | 50647 | 66959
5 | 14:52.60 | 3:33.52 | 66960 | 82986
6 | 18:26.37 | 4:35.45 | 82987 | 103656
7 | 23:02.07 | 4:05.55 | 103657 | 122086
8 | 27:07.62 | 5:25.55 | 122087 | 146516
9 | 32:33.42 | 3:43.00 | 146517 | 163241
10 | 36:16.42 | 4:46.23 | 163242 | 184714
11 | 41:02.65 | 4:04.15 | 184715 | 203029

Характеристики диапазона извлечения и сообщения об ошибках

Выбранный диапазон

Имя файла Y:\Музыка\Miles Davis\1986 Miles Davis Volume 2\Miles Davis - Miles Davis Volume 2 [CP32-5222].wav

Пиковый уровень 87.9 %
Качество диапазона 100.0 %
CRC теста 466DA3B2
CRC копии 466DA3B2
Копирование… OK

Ошибок не произошло

AccurateRip: сводка

Трек 1 нет в базе данных
Трек 2 нет в базе данных
Трек 3 нет в базе данных
Трек 4 нет в базе данных
Трек 5 нет в базе данных
Трек 6 нет в базе данных
Трек 7 нет в базе данных
Трек 8 нет в базе данных
Трек 9 нет в базе данных
Трек 10 нет в базе данных
Трек 11 нет в базе данных

Ни одного трека нет в базе AccurateRip

Конец отчёта

Miles Davis - Miles Davis Volume 2 (1953) [Remastered 1986]

Miles Davis - Miles Davis Volume 2 (1953) [Remastered 1986]

Special thanks to ikebana and Pretender!

Welcome to my blog for more wonderful music

PLEASE DO NOT PROVIDE MIRROR LINKS!