Subcategories

Miles Davis - Munich Concert (1988) {3CD Set IMC Music DEL 800111 rel 2005}

Posted By: ruskaval
Miles Davis - Munich Concert (1988) {3CD Set IMC Music DEL 800111 rel 2005}

Miles Davis - Munich Concert (1988) {3CD Set IMC Music DEL 800111 rel 2005}
EAC rip (secure mode) | FLAC (tracks)+CUE+LOG -> 936 Mb | MP3 @320 -> 377 Mb
Full Artwork @ 300 dpi (jpg) -> 11 Mb | 5% repair rar
© 1988, 2005 IMC Music | DEL 800111
Jazz / Fusion / Jazz Funk / Trumpet

Outstanding three CD set featuring the entire July 1988 15 song performance at the Munich Philharmonic Concert Hall plus a blistering 35 minute version of 'Call It Anything' taken from his1970 Isle of Wight Festival show. The Munich concert features able assistance from Kenny Garrett, Bobby Irving, Adam Holzman and Joseph McCreary amongst others while the Isle of Wight track features Chick Corea, Keith Jarrett, Dave Holland and Jack DeJohnette.

Forget about any slick editing and studio overdubs, this is the complete July 1988 concert in the Munich Philharmonic Concert Hall the way it was performed.

Miles and Kenny Garrett (sax) have outstanding interplay that creates the space for some great solos. There are nice improvisational spots, with the band in a funk-driven splendor. You can visualize Miles leading the musicians through small nods of his head and brief eye contact, while keeping his trumpet sound fresh & vibrant.

Guitarist Joseph McCreary stretches out on Heavy Metal Prelude/Heavy Metal. The band flexes its creativity in a pair of longer cuts, Carnival Time & Tomaas. But the third CD - with Hannibal, Code M.D., Jean Pierre and Time After Time - is where the music builds to a classic ending; an absolutely beautiful solo by Miles on the final number.

A bonus is a sizzling 35 minute version of Call It Anything from the 1970 Isle of Wight Festival. Jack DeJohnette and Airto keep the heavy, fast-paced rhythm, as Miles uses the trumpet as a lead guitar, while keyboardists Chick Corea and Keith Jarrett dive in and out of the mix. It is a gem that back in the day may have been released as a live album.

This is an essential live set for any fan and actually not a bad start for someone who wants to hear the late 1980's Miles in all of his concert glory.

Personnel:
Philharmonie am Gasteig, München, Germany, July 10, 1988

Miles Davis (tp, synth); Kenny Garrett (ss, as, fl); Joe "Foley" McCreary (g); Robert Irving III (synth); Adam Holzman (synth); Benjamin Reitveld (el-b); Ricky Wellman (d); Marilyn Mazur (perc)

Festival grounds, Isle of Wight, United Kingdom, August 29, 1970 (bonus track)
Miles Davis (tp); Gary Bartz (ss, as); Chick Corea (el-p); Keith Jarrett (org); Dave Holland (b, el-b); Jack DeJohnette (d); Airto Moreira (perc)

Track Listings

CD1

1. Perfect Way
2. Human Nature
3. Titu
4. Splatch
5. Heavy Metal Prelude
6. Heavy Metal

Miles Davis - Munich Concert (1988) {3CD Set IMC Music DEL 800111 rel 2005}


CD2
7. Don't Stop Me Now
8. Carnival Time
9. Tomaas
10. New Blues
11. Portia

Miles Davis - Munich Concert (1988) {3CD Set IMC Music DEL 800111 rel 2005}


CD3
12. Hannibal
13. Code M.D.
14. Jean Pierre
15. Time After Time
16. Call It Anything (Bonus Track) (Recorded At The 1970 Wight Festival)

Miles Davis - Munich Concert (1988) {3CD Set IMC Music DEL 800111 rel 2005}


Exact Audio Copy V1.0 beta 3 from 29. August 2011

EAC extraction logfile from 21. October 2014, 15:18

Miles Davis / Munich Concert disc1

Used drive : TSSTcorpCDDVDW SE-S084F Adapter: 1 ID: 0

Read mode : Secure
Utilize accurate stream : Yes
Defeat audio cache : Yes
Make use of C2 pointers : No

Read offset correction : 6
Overread into Lead-In and Lead-Out : No
Fill up missing offset samples with silence : Yes
Delete leading and trailing silent blocks : No
Null samples used in CRC calculations : Yes
Used interface : Native Win32 interface for Win NT & 2000
Gap handling : Appended to previous track

Used output format : User Defined Encoder
Selected bitrate : 1024 kBit/s
Quality : High
Add ID3 tag : No
Command line compressor : C:\Program Files (x86)\Exact Audio Copy\Flac\flac.exe
Additional command line options : -8 -V -T "ARTIST=%artist%" -T "TITLE=%title%" -T "ALBUM=%albumtitle%" -T "DATE=%year%" -T "TRACKNUMBER=%tracknr%" -T "GENRE=%genre%" -T "PERFORMER=%albuminterpret%" -T "COMPOSER=%composer%" %haslyrics%–tag-from-file=LYRICS="%lyricsfile%"%haslyrics% -T "ALBUMARTIST=%albumartist%" -T "DISCNUMBER=%cdnumber%" -T "TOTALDISCS=%totalcds%" -T "TOTALTRACKS=%numtracks%" -T "COMMENT=%comment%" %source% -o %dest%


TOC of the extracted CD

Track | Start | Length | Start sector | End sector
––––––––––––––––––––––––––––-
1 | 0:00.00 | 4:39.36 | 0 | 20960
2 | 4:39.36 | 12:13.15 | 20961 | 75950
3 | 16:52.51 | 10:20.26 | 75951 | 122476
4 | 27:13.02 | 9:41.31 | 122477 | 166082
5 | 36:54.33 | 4:52.50 | 166083 | 188032
6 | 41:47.08 | 6:06.01 | 188033 | 215483


Track 1

Filename C:\Users\ian\Desktop\Miles Davis - Munich Concert (1988) [FLAC] {3CD}\Munich Concert CD1\01 - Perfect Way.wav

Pre-gap length 0:00:02.00

Peak level 98.8 %
Extraction speed 1.0 X
Track quality 100.0 %
Test CRC E6108432
Copy CRC E6108432
Accurately ripped (confidence 20) [7BFD1965] (AR v2)
Copy OK

Track 2

Filename C:\Users\ian\Desktop\Miles Davis - Munich Concert (1988) [FLAC] {3CD}\Munich Concert CD1\02 - Human Nature.wav

Peak level 98.8 %
Extraction speed 1.3 X
Track quality 100.0 %
Test CRC 700AC662
Copy CRC 700AC662
Accurately ripped (confidence 20) [603EB303] (AR v2)
Copy OK

Track 3

Filename C:\Users\ian\Desktop\Miles Davis - Munich Concert (1988) [FLAC] {3CD}\Munich Concert CD1\03 - Tutu.wav

Peak level 98.8 %
Extraction speed 1.5 X
Track quality 100.0 %
Test CRC 40D3BBCA
Copy CRC 40D3BBCA
Accurately ripped (confidence 20) [3170FB48] (AR v2)
Copy OK

Track 4

Filename C:\Users\ian\Desktop\Miles Davis - Munich Concert (1988) [FLAC] {3CD}\Munich Concert CD1\04 - Splatch.wav

Peak level 98.8 %
Extraction speed 1.6 X
Track quality 100.0 %
Test CRC BC5330B9
Copy CRC BC5330B9
Accurately ripped (confidence 21) [D464AD75] (AR v2)
Copy OK

Track 5

Filename C:\Users\ian\Desktop\Miles Davis - Munich Concert (1988) [FLAC] {3CD}\Munich Concert CD1\05 - Heavy Metal Prelude.wav

Peak level 98.8 %
Extraction speed 1.6 X
Track quality 100.0 %
Test CRC 31A4FA14
Copy CRC 31A4FA14
Accurately ripped (confidence 20) [FC582094] (AR v2)
Copy OK

Track 6

Filename C:\Users\ian\Desktop\Miles Davis - Munich Concert (1988) [FLAC] {3CD}\Munich Concert CD1\06 - Heavy Metal.wav

Peak level 98.8 %
Extraction speed 1.7 X
Track quality 100.0 %
Test CRC AF6F58E2
Copy CRC AF6F58E2
Accurately ripped (confidence 20) [BC5E5EF0] (AR v2)
Copy OK


All tracks accurately ripped

No errors occurred

End of status report

–– CUETools DB Plugin V2.1.3

[CTDB TOCID: SAzV5Z5NiapWw4V9OwlRANjr.Mk-] found, Submit result: SAzV5Z5NiapWw4V9OwlRANjr.Mk- has been confirmed
[8c01a3e4] (23/27) Accurately ripped
[3c951cb2] (04/27) Accurately ripped


==== Log checksum 411E0948AD15342F3BA4D4B1332287906BCFDCD62C90BD564139506804BFB9D7 ====




Exact Audio Copy V1.0 beta 3 from 29. August 2011

EAC extraction logfile from 21. October 2014, 16:31

Miles Davis / Munich Concert disc2

Used drive : TSSTcorpCDDVDW SE-S084F Adapter: 1 ID: 0

Read mode : Secure
Utilize accurate stream : Yes
Defeat audio cache : Yes
Make use of C2 pointers : No

Read offset correction : 6
Overread into Lead-In and Lead-Out : No
Fill up missing offset samples with silence : Yes
Delete leading and trailing silent blocks : No
Null samples used in CRC calculations : Yes
Used interface : Native Win32 interface for Win NT & 2000
Gap handling : Appended to previous track

Used output format : User Defined Encoder
Selected bitrate : 1024 kBit/s
Quality : High
Add ID3 tag : No
Command line compressor : C:\Program Files (x86)\Exact Audio Copy\Flac\flac.exe
Additional command line options : -8 -V -T "ARTIST=%artist%" -T "TITLE=%title%" -T "ALBUM=%albumtitle%" -T "DATE=%year%" -T "TRACKNUMBER=%tracknr%" -T "GENRE=%genre%" -T "PERFORMER=%albuminterpret%" -T "COMPOSER=%composer%" %haslyrics%–tag-from-file=LYRICS="%lyricsfile%"%haslyrics% -T "ALBUMARTIST=%albumartist%" -T "DISCNUMBER=%cdnumber%" -T "TOTALDISCS=%totalcds%" -T "TOTALTRACKS=%numtracks%" -T "COMMENT=%comment%" %source% -o %dest%


TOC of the extracted CD

Track | Start | Length | Start sector | End sector
––––––––––––––––––––––––––––-
1 | 0:00.00 | 6:14.24 | 0 | 28073
2 | 6:14.24 | 16:10.36 | 28074 | 100859
3 | 22:24.60 | 11:22.27 | 100860 | 152036
4 | 33:47.12 | 7:20.00 | 152037 | 185036
5 | 41:07.12 | 8:05.61 | 185037 | 221472


Track 1

Filename C:\Users\ian\Desktop\Miles Davis - Munich Concert (1988) [FLAC] {3CD}\Munich Concert CD2\01 - Don't Stop Me Now.wav

Pre-gap length 0:00:02.00

Peak level 98.8 %
Extraction speed 1.0 X
Track quality 100.0 %
Test CRC 417A921C
Copy CRC 417A921C
Accurately ripped (confidence 29) [E70C9B6C] (AR v2)
Copy OK

Track 2

Filename C:\Users\ian\Desktop\Miles Davis - Munich Concert (1988) [FLAC] {3CD}\Munich Concert CD2\02 - Carnival Time.wav

Peak level 98.8 %
Extraction speed 1.3 X
Track quality 100.0 %
Test CRC B5121CC3
Copy CRC B5121CC3
Accurately ripped (confidence 28) [44489EF4] (AR v2)
Copy OK

Track 3

Filename C:\Users\ian\Desktop\Miles Davis - Munich Concert (1988) [FLAC] {3CD}\Munich Concert CD2\03 - Tomaas.wav

Peak level 98.8 %
Extraction speed 1.6 X
Track quality 100.0 %
Test CRC FEAC75FB
Copy CRC FEAC75FB
Accurately ripped (confidence 29) [E399258E] (AR v2)
Copy OK

Track 4

Filename C:\Users\ian\Desktop\Miles Davis - Munich Concert (1988) [FLAC] {3CD}\Munich Concert CD2\04 - New Blues.wav

Peak level 98.8 %
Extraction speed 1.6 X
Track quality 100.0 %
Test CRC 07E61BDD
Copy CRC 07E61BDD
Accurately ripped (confidence 29) [52140EF2] (AR v2)
Copy OK

Track 5

Filename C:\Users\ian\Desktop\Miles Davis - Munich Concert (1988) [FLAC] {3CD}\Munich Concert CD2\05 - Portia.wav

Peak level 98.8 %
Extraction speed 1.8 X
Track quality 100.0 %
Test CRC 080A9304
Copy CRC 080A9304
Accurately ripped (confidence 29) [991CB945] (AR v2)
Copy OK


All tracks accurately ripped

No errors occurred

End of status report

–– CUETools DB Plugin V2.1.3

[CTDB TOCID: g4NcCM44FKXiI4vbWnw6Nqy9rzc-] found, Submit result: g4NcCM44FKXiI4vbWnw6Nqy9rzc- has been confirmed
[0249f551] (23/24) Accurately ripped
[d665a4de] (01/24) No match


==== Log checksum E49BE67120FC58C2C4570B875A04CA13F3774EF46C0A59F7BDF65B945202B555 ====




Exact Audio Copy V1.0 beta 3 from 29. August 2011

EAC extraction logfile from 21. October 2014, 18:00

Miles Davis / Munich Concert Disc 3 of 3

Used drive : TSSTcorpCDDVDW SE-S084F Adapter: 1 ID: 0

Read mode : Secure
Utilize accurate stream : Yes
Defeat audio cache : Yes
Make use of C2 pointers : No

Read offset correction : 6
Overread into Lead-In and Lead-Out : No
Fill up missing offset samples with silence : Yes
Delete leading and trailing silent blocks : No
Null samples used in CRC calculations : Yes
Used interface : Native Win32 interface for Win NT & 2000
Gap handling : Appended to previous track

Used output format : User Defined Encoder
Selected bitrate : 1024 kBit/s
Quality : High
Add ID3 tag : No
Command line compressor : C:\Program Files (x86)\Exact Audio Copy\Flac\flac.exe
Additional command line options : -8 -V -T "ARTIST=%artist%" -T "TITLE=%title%" -T "ALBUM=%albumtitle%" -T "DATE=%year%" -T "TRACKNUMBER=%tracknr%" -T "GENRE=%genre%" -T "PERFORMER=%albuminterpret%" -T "COMPOSER=%composer%" %haslyrics%–tag-from-file=LYRICS="%lyricsfile%"%haslyrics% -T "ALBUMARTIST=%albumartist%" -T "DISCNUMBER=%cdnumber%" -T "TOTALDISCS=%totalcds%" -T "TOTALTRACKS=%numtracks%" -T "COMMENT=%comment%" %source% -o %dest%


TOC of the extracted CD

Track | Start | Length | Start sector | End sector
––––––––––––––––––––––––––––-
1 | 0:00.00 | 5:23.68 | 0 | 24292
2 | 5:23.68 | 5:42.70 | 24293 | 50012
3 | 11:06.63 | 6:22.58 | 50013 | 78720
4 | 17:29.46 | 9:12.72 | 78721 | 120192
5 | 26:42.43 | 35:03.49 | 120193 | 277966


Track 1

Filename C:\Users\ian\Desktop\Miles Davis - Munich Concert (1988) [FLAC] {3CD}\Munich Concert CD3\01 - Hannibal.wav

Pre-gap length 0:00:02.00

Peak level 98.8 %
Extraction speed 1.0 X
Track quality 100.0 %
Test CRC 3BDABE6F
Copy CRC 3BDABE6F
Accurately ripped (confidence 19) [5EC03D0D] (AR v2)
Copy OK

Track 2

Filename C:\Users\ian\Desktop\Miles Davis - Munich Concert (1988) [FLAC] {3CD}\Munich Concert CD3\02 - Code M.D..wav

Peak level 98.8 %
Extraction speed 1.0 X
Track quality 99.9 %
Test CRC 10B038A7
Copy CRC 10B038A7
Accurately ripped (confidence 19) [328F7124] (AR v2)
Copy OK

Track 3

Filename C:\Users\ian\Desktop\Miles Davis - Munich Concert (1988) [FLAC] {3CD}\Munich Concert CD3\03 - Jean Pierre.wav

Peak level 98.8 %
Extraction speed 1.2 X
Track quality 99.9 %
Test CRC CBD94A0E
Copy CRC CBD94A0E
Accurately ripped (confidence 19) [186D73F5] (AR v2)
Copy OK

Track 4

Filename C:\Users\ian\Desktop\Miles Davis - Munich Concert (1988) [FLAC] {3CD}\Munich Concert CD3\04 - Time After Time.wav

Peak level 98.8 %
Extraction speed 1.5 X
Track quality 100.0 %
Test CRC 7DF3EB6E
Copy CRC 7DF3EB6E
Accurately ripped (confidence 19) [857EE87B] (AR v2)
Copy OK

Track 5

Filename C:\Users\ian\Desktop\Miles Davis - Munich Concert (1988) [FLAC] {3CD}\Munich Concert CD3\05 - Call it Anything.wav

Pre-gap length 0:00:02.00

Peak level 90.1 %
Extraction speed 1.9 X
Track quality 100.0 %
Test CRC 41BAE201
Copy CRC 41BAE201
Accurately ripped (confidence 18) [D2F6F0F8] (AR v2)
Copy OK


All tracks accurately ripped

No errors occurred

End of status report

–– CUETools DB Plugin V2.1.3

[CTDB TOCID: Roslyq4P46L2Evh0rmF7I5kiNn4-] found, Submit result: Roslyq4P46L2Evh0rmF7I5kiNn4- has been confirmed
[e3a4cf88] (23/24) Accurately ripped
[e3fd0583] (01/24) No match


==== Log checksum EE219B40BACC0AEDA7E875D2DE3A7CED466ED1D8C396E5C30FCB1ABBA73CF3A3 ====


Miles Davis - Munich Concert (1988) {3CD Set IMC Music DEL 800111 rel 2005}


see also:
Miles Davis Quintet - Live in Europe 1967: The Bootleg Series, Vol. 1 (2011) {3CD + Bonus DVD5 NTSC}
Miles Davis - Miles At The Fillmore - Miles Davis 1970: The Bootleg Series Vol. 3 (2014) {4CD Set Columbia-Sony Music}
Miles Davis - Miles Davis At Newport 1955-1975: The Bootleg Series Vol. 4 (2015) [4CD Set] {Columbia}
Miles Davis Quintet - Freedom Jazz Dance: The Bootleg Series, Vol. 5 (2016) {3CD Set Columbia-Legacy 88985357372 rec 1966-68}
Miles Davis - The Complete Miles Davis At Montreux (2002) {20 CD LongBox Warner 0927-41836-2 rec 1973-1991}



===