Subcategories

Miles Davis & Quincy Jones - Live At Montreux (1993) {2013 Japan Jazz Best Collection 1000 Series WPCR-27403}

Posted By: ruskaval
Miles Davis & Quincy Jones - Live At Montreux (1993) {2013 Japan Jazz Best Collection 1000 Series WPCR-27403}

Miles Davis & Quincy Jones - Live At Montreux (1993) {2013 Japan Jazz Best Collection 1000 Series WPCR-27403}
EAC rip (secure mode) | FLAC (tracks)+CUE+LOG -> 390 Mb | MP3 @320 -> 136 Mb
Full Artwork @ 600 dpi (png) -> 178 Mb | 5% repair rar | 24-bit remaster
©1993, 2013 Warner Japan / Rhino | WPCR-27403 | Jazz Best Collection 1000 Series
Jazz / Cool / Progressive Jazz / Experimental Big Band / Trumpet

Features 24 bit digital remastering. Comes with a mini-description. Although Miles Davis did not live to participate in Gerry Mulligan's reunion recordings featuring the nonet that played on the famous late-'40s and early-'50s cool sessions, he participated in a reunion concert held at Montreux in 1991. This featured both the Gil Evans Orchestra and George Gruntz Concert Jazz Band, plus additional guests Benny Bailey, Grady Tate, Carlos Benavent and various European players teaming with a gravely ill Davis to perform Gil Evans' marvelous arrangements.

Quincy Jones conducted and conceived the idea of using two orchestras, offering majestic surroundings for the solos of Davis, fellow trumpeter Wallace Roney and alto saxophonist Kenny Garrett. Not every moment is golden, but the overall session ranks just a bit below the majestic '50s and '60s dates featuring Davis' trumpet and Evans' arrangements.
Miles Davis & Quincy Jones - Live At Montreux (1993) {2013 Japan Jazz Best Collection 1000 Series WPCR-27403}


Personnel:
Miles Davis - trumpet
Kenny Garrett - alto saxophone
The George Gruntz Concert Jazz Band – performer
The Gil Evans Orchestra – performer
Quincy Jones - conductor, producer
Wallace Roney - trumpet, fluegelhorn

tracklist:
01 - Introduction by Claude Nobs and Quincy Jones
02 - Boplicity
03 - Introduction to Miles Ahead Medley
04 - Springsville
05 - Maids of Cadiz
06 - The Duke
07 - My Ship
08 - Miles Ahead
09 - Blues For Pablo
10 - Introduction to Porgy and Bess Medley
11 - Orgone
12 - Gone, Gone, Gone
13 - Summertime
14 - Here Come De Honey Man
15 - The Pan Piper
16 - Solea

Exact Audio Copy V1.0 beta 3 from 29. August 2011

EAC extraction logfile from 1. November 2014, 20:00

Miles Davis & Quincy Jones / Miles & Quincy Live At Montreux

Used drive : ATAPI iHAS124 B Adapter: 2 ID: 1

Read mode : Secure
Utilize accurate stream : Yes
Defeat audio cache : Yes
Make use of C2 pointers : No

Read offset correction : 6
Overread into Lead-In and Lead-Out : No
Fill up missing offset samples with silence : Yes
Delete leading and trailing silent blocks : No
Null samples used in CRC calculations : Yes
Used interface : Native Win32 interface for Win NT & 2000
Gap handling : Appended to previous track

Used output format : User Defined Encoder
Selected bitrate : 1024 kBit/s
Quality : High
Add ID3 tag : No
Command line compressor : C:\Program Files (x86)\FLAC Frontend\tools\flac.exe
Additional command line options : -8 -V -T "ARTIST=%artist%" -T "TITLE=%title%" -T "ALBUM=%albumtitle%" -T "DATE=%year%" -T "TRACKNUMBER=%tracknr%" -T "TOTALTRACKS=%numtracks%" -T "GENRE=%genre%" -T "ALBUMARTIST=%albumartist%" -T "ALBUM ARTIST=%albumartist%" -T "COMMENT=EAC Secure Mode, Test & Copy, AccurateRip, FLAC -8" %source%


TOC of the extracted CD

Track | Start | Length | Start sector | End sector
––––––––––––––––––––––––––––-
1 | 0:00.00 | 1:24.44 | 0 | 6343
2 | 1:24.44 | 3:40.34 | 6344 | 22877
3 | 5:05.03 | 0:09.04 | 22878 | 23556
4 | 5:14.07 | 3:33.33 | 23557 | 39564
5 | 8:47.40 | 3:37.46 | 39565 | 55885
6 | 12:25.11 | 4:00.22 | 55886 | 73907
7 | 16:25.33 | 4:11.02 | 73908 | 92734
8 | 20:36.35 | 3:38.18 | 92735 | 109102
9 | 24:14.53 | 6:06.03 | 109103 | 136555
10 | 30:20.56 | 0:27.47 | 136556 | 138627
11 | 30:48.28 | 4:09.16 | 138628 | 157318
12 | 34:57.44 | 1:47.62 | 157319 | 165405
13 | 36:45.31 | 2:53.68 | 165406 | 178448
14 | 39:39.24 | 3:40.74 | 178449 | 195022
15 | 43:20.23 | 1:40.14 | 195023 | 202536
16 | 45:00.37 | 11:46.38 | 202537 | 255524


Track 1

Filename C:\Miles Davis & Quincy Jones - Miles & Quincy Live At Montreux (1993) {2013 Japan 24-bit Remaster} [Jazz Best Collection 1000 Series]\01 - Introduction by Claude Nobs and Quincy Jones.wav

Pre-gap length 0:00:02.00

Peak level 61.2 %
Extraction speed 1.4 X
Track quality 100.0 %
Test CRC E329B59B
Copy CRC E329B59B
Accurately ripped (confidence 4) [496B1125] (AR v2)
Copy OK

Track 2

Filename C:\Miles Davis & Quincy Jones - Miles & Quincy Live At Montreux (1993) {2013 Japan 24-bit Remaster} [Jazz Best Collection 1000 Series]\02 - Boplicity.wav

Peak level 100.0 %
Extraction speed 1.3 X
Track quality 99.9 %
Test CRC 9236BF5C
Copy CRC 9236BF5C
Accurately ripped (confidence 4) [7E6D6394] (AR v2)
Copy OK

Track 3

Filename C:\Miles Davis & Quincy Jones - Miles & Quincy Live At Montreux (1993) {2013 Japan 24-bit Remaster} [Jazz Best Collection 1000 Series]\03 - Introduction to Miles Ahead Medley.wav

Peak level 28.9 %
Extraction speed 0.4 X
Track quality 100.0 %
Test CRC 3F147C79
Copy CRC 3F147C79
Accurately ripped (confidence 4) [E5A5B07D] (AR v2)
Copy OK

Track 4

Filename C:\Miles Davis & Quincy Jones - Miles & Quincy Live At Montreux (1993) {2013 Japan 24-bit Remaster} [Jazz Best Collection 1000 Series]\04 - Springsville.wav

Peak level 100.0 %
Extraction speed 1.4 X
Track quality 99.9 %
Test CRC E6935625
Copy CRC E6935625
Accurately ripped (confidence 4) [9517476F] (AR v2)
Copy OK

Track 5

Filename C:\Miles Davis & Quincy Jones - Miles & Quincy Live At Montreux (1993) {2013 Japan 24-bit Remaster} [Jazz Best Collection 1000 Series]\05 - Maids of Cadiz.wav

Peak level 100.0 %
Extraction speed 2.2 X
Track quality 100.0 %
Test CRC A4C1C1E8
Copy CRC A4C1C1E8
Accurately ripped (confidence 4) [36962939] (AR v2)
Copy OK

Track 6

Filename C:\Miles Davis & Quincy Jones - Miles & Quincy Live At Montreux (1993) {2013 Japan 24-bit Remaster} [Jazz Best Collection 1000 Series]\06 - The Duke.wav

Peak level 100.0 %
Extraction speed 2.4 X
Track quality 100.0 %
Test CRC 92A468D3
Copy CRC 92A468D3
Accurately ripped (confidence 4) [B9FB4D1D] (AR v2)
Copy OK

Track 7

Filename C:\Miles Davis & Quincy Jones - Miles & Quincy Live At Montreux (1993) {2013 Japan 24-bit Remaster} [Jazz Best Collection 1000 Series]\07 - My Ship.wav

Peak level 100.0 %
Extraction speed 2.6 X
Track quality 100.0 %
Test CRC 112EA144
Copy CRC 112EA144
Accurately ripped (confidence 4) [FCF4EE08] (AR v2)
Copy OK

Track 8

Filename C:\Miles Davis & Quincy Jones - Miles & Quincy Live At Montreux (1993) {2013 Japan 24-bit Remaster} [Jazz Best Collection 1000 Series]\08 - Miles Ahead.wav

Peak level 100.0 %
Extraction speed 2.7 X
Track quality 100.0 %
Test CRC BF74FF36
Copy CRC BF74FF36
Accurately ripped (confidence 4) [DB720B13] (AR v2)
Copy OK

Track 9

Filename C:\Miles Davis & Quincy Jones - Miles & Quincy Live At Montreux (1993) {2013 Japan 24-bit Remaster} [Jazz Best Collection 1000 Series]\09 - Blues For Pablo.wav

Peak level 100.0 %
Extraction speed 3.0 X
Track quality 100.0 %
Test CRC C230AAF0
Copy CRC C230AAF0
Accurately ripped (confidence 4) [04894F24] (AR v2)
Copy OK

Track 10

Filename C:\Miles Davis & Quincy Jones - Miles & Quincy Live At Montreux (1993) {2013 Japan 24-bit Remaster} [Jazz Best Collection 1000 Series]\10 - Introduction to Porgy and Bess Medley.wav

Pre-gap length 0:00:00.26

Peak level 25.4 %
Extraction speed 1.4 X
Track quality 100.0 %
Test CRC 17D71963
Copy CRC 17D71963
Accurately ripped (confidence 4) [120E4FB8] (AR v2)
Copy OK

Track 11

Filename C:\Miles Davis & Quincy Jones - Miles & Quincy Live At Montreux (1993) {2013 Japan 24-bit Remaster} [Jazz Best Collection 1000 Series]\11 - Orgone.wav

Peak level 100.0 %
Extraction speed 3.1 X
Track quality 100.0 %
Test CRC D6F8D914
Copy CRC D6F8D914
Accurately ripped (confidence 4) [471C3C96] (AR v2)
Copy OK

Track 12

Filename C:\Miles Davis & Quincy Jones - Miles & Quincy Live At Montreux (1993) {2013 Japan 24-bit Remaster} [Jazz Best Collection 1000 Series]\12 - Gone, Gone, Gone.wav

Peak level 100.0 %
Extraction speed 2.6 X
Track quality 100.0 %
Test CRC 04E24172
Copy CRC 04E24172
Accurately ripped (confidence 4) [1B1F18A0] (AR v2)
Copy OK

Track 13

Filename C:\Miles Davis & Quincy Jones - Miles & Quincy Live At Montreux (1993) {2013 Japan 24-bit Remaster} [Jazz Best Collection 1000 Series]\13 - Summertime.wav

Peak level 100.0 %
Extraction speed 3.0 X
Track quality 100.0 %
Test CRC 59454D9B
Copy CRC 59454D9B
Accurately ripped (confidence 4) [22523F90] (AR v2)
Copy OK

Track 14

Filename C:\Miles Davis & Quincy Jones - Miles & Quincy Live At Montreux (1993) {2013 Japan 24-bit Remaster} [Jazz Best Collection 1000 Series]\14 - Here Come De Honey Man.wav

Peak level 100.0 %
Extraction speed 3.3 X
Track quality 100.0 %
Test CRC F91C0D05
Copy CRC F91C0D05
Accurately ripped (confidence 4) [C218A1A9] (AR v2)
Copy OK

Track 15

Filename C:\Miles Davis & Quincy Jones - Miles & Quincy Live At Montreux (1993) {2013 Japan 24-bit Remaster} [Jazz Best Collection 1000 Series]\15 - The Pan Piper.wav

Peak level 32.7 %
Extraction speed 2.8 X
Track quality 100.0 %
Test CRC 229000CA
Copy CRC 229000CA
Accurately ripped (confidence 4) [901CB39E] (AR v2)
Copy OK

Track 16

Filename C:\Miles Davis & Quincy Jones - Miles & Quincy Live At Montreux (1993) {2013 Japan 24-bit Remaster} [Jazz Best Collection 1000 Series]\16 - Solea.wav

Peak level 100.0 %
Extraction speed 3.4 X
Track quality 99.9 %
Test CRC 6808673A
Copy CRC 6808673A
Accurately ripped (confidence 4) [2F3501D0] (AR v2)
Copy OK


All tracks accurately ripped

No errors occurred

End of status report

==== Log checksum 654F8F644B205561C0868D0B1BD7A71BBFCE414DB1C243402731C0FD697A5A5B ====


Miles Davis & Quincy Jones - Live At Montreux (1993) {2013 Japan Jazz Best Collection 1000 Series WPCR-27403}

Miles Davis & Quincy Jones - Live At Montreux (1993) {2013 Japan Jazz Best Collection 1000 Series WPCR-27403}


see more Japan Jazz Best Collection 1000 Series 24bit Remaster…


===