Tags
Language
Tags

MONO - Beyond the Past: Live in London with the Platinum Anniversary Orchestra (2021)

Posted By: delpotro
MONO - Beyond the Past: Live in London with the Platinum Anniversary Orchestra (2021)

MONO - Beyond the Past: Live in London with the Platinum Anniversary Orchestra (2021)
EAC Rip | FLAC (tracks+log+.cue) - 676 Mb | MP3 CBR 320 kbps - 253 Mb | 01:50:16
Post-Rock | Label: Temporary Residence

For two decades, MONO have defined and refined a kind of orchestral rock that is as emotional as it is experimental. Their 10 studio albums over those 20 years have established MONO as what Pitchfork described as “one of the most distinctive bands of the 21st Century.” Meanwhile, their live concerts are typically more subdued in instrumentation – and more supercharged in volume and voltage. Rarely is there the opportunity to combine those two experiences. In their 20-year history as a band, MONO have presented no more than a half-dozen live concerts featuring the support of an orchestra. Such events are not only unusual – they are also unforgettable.


Beyond the Past • Live in London with the Platinum Anniversary Orchestra documents MONO’s extraordinary performance from the Beyond the Past event that celebrated the band’s 20th anniversary, which took place at the historic Barbican Centre in London, England on December 14, 2019. For that once-in-a-lifetime event, MONO selected a memorable lineup of old and new friends, including fellow Japanese underground icons, Boris and Envy, as well as French post-metal legends, Alcest, and UK collaborators A.A. Williams and Jo Quail. The event culminated with MONO performing with The Platinum Anniversary Orchestra, featuring National Youth String Orchestra to a rapt, sold-out audience of 2,000.


Playing through a two-hour set that touches on the band’s entire history, the sheer euphoria and dynamic resonance that engulfed the massive crowd was captured in brilliant detail by MONO’s live sound engineer, Matt Cook. Meticulously mastered by Bob Weston and presented here in its entire two-hour glory, Beyond the Past is one of the most essential MONO recordings. Packaged in a triple gatefold with accompanying 40-page photo book, this is the rare document of an event that is an event in and of itself.
Tracklist:
1. God Bless (Live with the Platinum Anniversary Orchestra) (01:50)
2. After You Comes the Flood (Live with the Platinum Anniversary Orchestra) (05:03)
3. Breathe (Live with the Platinum Anniversary Orchestra) (05:49)
4. Nowhere, Now Here (Live with the Platinum Anniversary Orchestra) (10:20)
5. Death in Rebirth (Live with the Platinum Anniversary Orchestra) (07:58)
6. Dream Odyssey (Live with the Platinum Anniversary Orchestra) (09:29)
7. Sorrow (Live with the Platinum Anniversary Orchestra) (09:00)
8. Meet Us Where the Night Ends (Live with the Platinum Anniversary Orchestra) (09:11)
9. Halcyon (Live with the Platinum Anniversary Orchestra) (09:15)
10. Ashes in the Snow (Live with the Platinum Anniversary Orchestra) (16:49)
11. Exit in Darkness (Live with the Platinum Anniversary Orchestra) (06:19)
12. Com(?) (Live with the Platinum Anniversary Orchestra) (19:12)

Exact Audio Copy V1.3 from 2. September 2016

EAC extraction logfile from 4. September 2021, 17:57

MONO / Beyond the Past • Live in London with the Platinum Anniversary Orchestra (Disc 1 of 2)

Used drive : ASUS BC-12B1ST b Adapter: 1 ID: 0

Read mode : Secure
Utilize accurate stream : Yes
Defeat audio cache : Yes
Make use of C2 pointers : No

Read offset correction : 6
Overread into Lead-In and Lead-Out : No
Fill up missing offset samples with silence : Yes
Delete leading and trailing silent blocks : No
Null samples used in CRC calculations : Yes
Used interface : Native Win32 interface for Win NT & 2000
Gap handling : Appended to previous track

Used output format : User Defined Encoder
Selected bitrate : 1024 kBit/s
Quality : High
Add ID3 tag : No
Command line compressor : C:\Program Files (x86)\Exact Audio Copy\FLAC\FLAC.EXE
Additional command line options : -8 -e -p -V -T "ARTIST=%artist%" -T "TITLE=%title%" -T "ALBUM=%albumtitle%" -T "DATE=%year%" -T "TRACKNUMBER=%tracknr%" -T "GENRE=%genre%" -T "PERFORMER=%albuminterpret%" -T "COMPOSER=%composer%" %haslyrics%–tag-from-file=LYRICS="%lyricsfile%"%haslyrics% -T "ALBUMARTIST=%albumartist%" -T "DISCNUMBER=%cdnumber%" -T "TOTALDISCS=%totalcds%" -T "TOTALTRACKS=%numtracks%" -T "COMMENT=%comment%" %source% -o %dest%


TOC of the extracted CD

Track | Start | Length | Start sector | End sector
––––––––––––––––––––––––––––-
1 | 0:00.00 | 1:49.32 | 0 | 8206
2 | 1:49.32 | 5:03.33 | 8207 | 30964
3 | 6:52.65 | 5:48.44 | 30965 | 57108
4 | 12:41.34 | 10:19.38 | 57109 | 103571
5 | 23:00.72 | 7:58.22 | 103572 | 139443
6 | 30:59.19 | 9:29.21 | 139444 | 182139
7 | 40:28.40 | 9:00.05 | 182140 | 222644
8 | 49:28.45 | 9:11.28 | 222645 | 263997


Track 1

Filename E:\Music\FLAC\Albums\MONO\2021 - Beyond the Past • Live in London with the Platinum Anniversary Orchestra (Disc 1 of 2)\01 - God Bless.wav

Pre-gap length 0:00:02.00

Peak level 52.2 %
Extraction speed 1.7 X
Track quality 100.0 %
Test CRC 20FFD255
Copy CRC 20FFD255
Accurately ripped (confidence 1) [C78D6D5E] (AR v2)
Copy OK

Track 2

Filename E:\Music\FLAC\Albums\MONO\2021 - Beyond the Past • Live in London with the Platinum Anniversary Orchestra (Disc 1 of 2)\02 - After You Comes the Flood.wav

Peak level 95.5 %
Extraction speed 1.7 X
Track quality 99.9 %
Test CRC 1DCEA7F8
Copy CRC 1DCEA7F8
Accurately ripped (confidence 1) [3B8A3BBA] (AR v2)
Copy OK

Track 3

Filename E:\Music\FLAC\Albums\MONO\2021 - Beyond the Past • Live in London with the Platinum Anniversary Orchestra (Disc 1 of 2)\03 - Breathe.wav

Peak level 76.8 %
Extraction speed 2.0 X
Track quality 99.9 %
Test CRC 2AD58334
Copy CRC 2AD58334
Accurately ripped (confidence 1) [5119FE0C] (AR v2)
Copy OK

Track 4

Filename E:\Music\FLAC\Albums\MONO\2021 - Beyond the Past • Live in London with the Platinum Anniversary Orchestra (Disc 1 of 2)\04 - Nowhere, Now Here.wav

Peak level 95.5 %
Extraction speed 2.7 X
Track quality 99.9 %
Test CRC 7DF55236
Copy CRC 7DF55236
Accurately ripped (confidence 1) [11D825DA] (AR v2)
Copy OK

Track 5

Filename E:\Music\FLAC\Albums\MONO\2021 - Beyond the Past • Live in London with the Platinum Anniversary Orchestra (Disc 1 of 2)\05 - Death in Rebirth.wav

Peak level 95.5 %
Extraction speed 3.4 X
Track quality 100.0 %
Test CRC 572729B7
Copy CRC 572729B7
Accurately ripped (confidence 1) [0A2384FD] (AR v2)
Copy OK

Track 6

Filename E:\Music\FLAC\Albums\MONO\2021 - Beyond the Past • Live in London with the Platinum Anniversary Orchestra (Disc 1 of 2)\06 - Dream Odyssey.wav

Peak level 95.5 %
Extraction speed 3.8 X
Track quality 100.0 %
Test CRC 3A5B0EB0
Copy CRC 3A5B0EB0
Accurately ripped (confidence 1) [A48D2B67] (AR v2)
Copy OK

Track 7

Filename E:\Music\FLAC\Albums\MONO\2021 - Beyond the Past • Live in London with the Platinum Anniversary Orchestra (Disc 1 of 2)\07 - Sorrow.wav

Peak level 95.5 %
Extraction speed 4.1 X
Track quality 100.0 %
Test CRC 4980C3A7
Copy CRC 4980C3A7
Accurately ripped (confidence 1) [A98E5D8B] (AR v2)
Copy OK

Track 8

Filename E:\Music\FLAC\Albums\MONO\2021 - Beyond the Past • Live in London with the Platinum Anniversary Orchestra (Disc 1 of 2)\08 - Meet Us Where the Night Ends.wav

Peak level 95.5 %
Extraction speed 4.4 X
Track quality 100.0 %
Test CRC 333D7D4B
Copy CRC 333D7D4B
Accurately ripped (confidence 1) [615BD125] (AR v2)
Copy OK


All tracks accurately ripped

No errors occurred

End of status report

–– CUETools DB Plugin V2.1.6

[CTDB TOCID: KFPd.ds.T_0IKlwgIGhOSf45634-] found
Submit result: KFPd.ds.T_0IKlwgIGhOSf45634- has been confirmed
Track | CTDB Status
1 | (15/15) Accurately ripped
2 | (15/15) Accurately ripped
3 | (15/15) Accurately ripped
4 | (15/15) Accurately ripped
5 | (15/15) Accurately ripped
6 | (15/15) Accurately ripped
7 | (15/15) Accurately ripped
8 | (15/15) Accurately ripped


==== Log checksum F1EAB46E1609954023B4511B8C3CD497C0F7047968E61CC56B1784ECBC367BC6 ====
Exact Audio Copy V1.3 from 2. September 2016

EAC extraction logfile from 4. September 2021, 18:22

MONO / Beyond the Past • Live in London with the Platinum Anniversary Orchestra (Disc 2 of 2)

Used drive : ASUS BC-12B1ST b Adapter: 1 ID: 0

Read mode : Secure
Utilize accurate stream : Yes
Defeat audio cache : Yes
Make use of C2 pointers : No

Read offset correction : 6
Overread into Lead-In and Lead-Out : No
Fill up missing offset samples with silence : Yes
Delete leading and trailing silent blocks : No
Null samples used in CRC calculations : Yes
Used interface : Native Win32 interface for Win NT & 2000
Gap handling : Appended to previous track

Used output format : User Defined Encoder
Selected bitrate : 1024 kBit/s
Quality : High
Add ID3 tag : No
Command line compressor : C:\Program Files (x86)\Exact Audio Copy\FLAC\FLAC.EXE
Additional command line options : -8 -e -p -V -T "ARTIST=%artist%" -T "TITLE=%title%" -T "ALBUM=%albumtitle%" -T "DATE=%year%" -T "TRACKNUMBER=%tracknr%" -T "GENRE=%genre%" -T "PERFORMER=%albuminterpret%" -T "COMPOSER=%composer%" %haslyrics%–tag-from-file=LYRICS="%lyricsfile%"%haslyrics% -T "ALBUMARTIST=%albumartist%" -T "DISCNUMBER=%cdnumber%" -T "TOTALDISCS=%totalcds%" -T "TOTALTRACKS=%numtracks%" -T "COMMENT=%comment%" %source% -o %dest%


TOC of the extracted CD

Track | Start | Length | Start sector | End sector
––––––––––––––––––––––––––––-
1 | 0:00.00 | 9:16.10 | 0 | 41709
2 | 9:16.10 | 16:49.29 | 41710 | 117413
3 | 26:05.39 | 6:18.49 | 117414 | 145812
4 | 32:24.13 | 19:12.09 | 145813 | 232221


Track 1

Filename E:\Music\FLAC\Albums\MONO\2021 - Beyond the Past • Live in London with the Platinum Anniversary Orchestra (Disc 2 of 2)\01 - Halcyon (Beautiful Days).wav

Pre-gap length 0:00:02.00

Peak level 95.5 %
Extraction speed 5.2 X
Track quality 100.0 %
Test CRC DB9A2CAA
Copy CRC DB9A2CAA
Accurately ripped (confidence 1) [AADF1054] (AR v2)
Copy OK

Track 2

Filename E:\Music\FLAC\Albums\MONO\2021 - Beyond the Past • Live in London with the Platinum Anniversary Orchestra (Disc 2 of 2)\02 - Ashes in the Snow.wav

Peak level 95.5 %
Extraction speed 6.9 X
Track quality 100.0 %
Test CRC 2BA7000B
Copy CRC 2BA7000B
Accurately ripped (confidence 1) [8CF8FE61] (AR v2)
Copy OK

Track 3

Filename E:\Music\FLAC\Albums\MONO\2021 - Beyond the Past • Live in London with the Platinum Anniversary Orchestra (Disc 2 of 2)\03 - Exit in Darkness.wav

Peak level 94.6 %
Extraction speed 7.6 X
Track quality 100.0 %
Test CRC 80DB036C
Copy CRC 80DB036C
Accurately ripped (confidence 1) [02E064F9] (AR v2)
Copy OK

Track 4

Filename E:\Music\FLAC\Albums\MONO\2021 - Beyond the Past • Live in London with the Platinum Anniversary Orchestra (Disc 2 of 2)\04 - Com().wav

Peak level 95.5 %
Extraction speed 9.1 X
Track quality 100.0 %
Test CRC E0FBFA67
Copy CRC E0FBFA67
Accurately ripped (confidence 1) [9A2E82A2] (AR v2)
Copy OK


All tracks accurately ripped

No errors occurred

End of status report

–– CUETools DB Plugin V2.1.6

[CTDB TOCID: fVxts9kK8gJLZIMKrSv5smfvdXA-] found
Submit result: already submitted
Track | CTDB Status
1 | (15/15) Accurately ripped
2 | (15/15) Accurately ripped
3 | (15/15) Accurately ripped
4 | (15/15) Accurately ripped


==== Log checksum AD22FDB3EE1F2680B10845671D6399A0505AA2F5474DC9D5B1AE2206D0B49517 ====

Thanks to the Original ripper !