Tags
Language
Tags

Nadia Boulanger & VA - Fauré: Requiem - Nocturne - Quatuor à cordes - Pie Jesu (2021)

Posted By: delpotro
Nadia Boulanger & VA - Fauré: Requiem - Nocturne - Quatuor à cordes - Pie Jesu (2021)

Nadia Boulanger & VA - Fauré: Requiem - Nocturne - Quatuor à cordes - Pie Jesu (2021)
EAC Rip | FLAC (tracks+log+.cue) - 311 Mb | MP3 CBR 320 kbps - 185 Mb | Covers included | 01:12:45
Classical | Label: Les indispensables de Diapason

On February 17, 1962, the public came to hear, at Carnegie Hall, the third of four concerts conducted by Nadia Boulanger - the first woman to take the pulpit of the New York Philharmonic: Three Psalms of his sister Lili and the Solemn Music of Virgil Thomson (orchestrated for the occasion) will be preceded in the program by Faurй's Requiem (1887-1901). Leonard Bernstein, mounted on stage, specifies that it will be given in memory of Bruno Walter, who died the same morning. “A man who was all kindness, warmth, kindness and devotion. We can only mourn him and pay homage to him."

The palpable emotion of the performers and the audience charges this performance with exceptional fervor. "Upset", Schuyler Chapin, the director of the classical department of Columbia Records, begged Nadia Boulanger the next day to make a recording of it. " No no no ! », She objected, scalded by the Parisian attempt of 1948, which she still refused to publish. "I hate records! … and the Carnegie Hall organ is impossible anyway!""

Fortunately, there remains the radio recording edited by the New York Philharmonic. A miracle of intensity transcends the means of a modest but united choir, weighing each word, suspended from the beat of Mademoiselle. His long sentences, gently curved, land on an orchestra with carefully regulated balances and reliefs (by Bernstein, before the arrival of his beloved teacher?). Too bad if the organ is, indeed, short of breath in the Sanctus, and if the soprano is not up to the occasion - the suave and angelic one of Martha Angelici will come at the end of the album. to console, supported by Maurice Duruflй on the organ of Saint-Eustache. Baritone Donald Gramm, on the other hand, is formidably eloquent, careful not to overdo it, in a Libera me detailed as rarely - listen to how the violins accentuate their ascending features on "requiem aeternam dopa eis"!

Path of stars.
Two intimate and secret scores here extend this “lullaby of death”. In the Nocturne in D flat major (1894), whose serenity becomes cloudy, agitated, to lead us on a “path of stars” (Nectoux), Jean-Michel Damase remains the most subtle of guides. Doesn't the question launched by the viola on the threshold of the last String Quartet (1923-1924) remind you of the four notes, on the second cellos and on the organ, which open the Offertory of the Requiem ? The infinite relief of the nuances and the density of the harmonies make all the richness of the median Andante, whose exaltation never ceases to oscillate, counterbalanced by a tender lament. The original engraving of the Krettly (whose primarius was very appreciated by the composer) captivates us with its urgency, its fever, its lightness in the finale. As with Nadia Boulanger, Faurй is there, very much alive.
Francois Laurent
Tracklist:
01. Requiem op.48 - Introitus et Kyrie
02. Requiem op.48 - Offertorium
03. Requiem op.48 - Sanctus
04. Requiem op.48 - Pie Jesu
05. Requiem op.48 - Agnus Dei
06. Requiem op.48 - Libera Me
07. Requiem op.48 - In Paradisum
08. Nocturne n°6 op.63
09. Quatuor à cordes en mi mineur, op.121 - Allegro moderato
10. Quatuor à cordes en mi mineur, op.121 - Andante
11. Quatuor à cordes en mi mineur, op.121 - Allegro
12. Pie Jesu

Exact Audio Copy V1.3 from 2. September 2016

EAC extraction logfile from 24. March 2021, 19:56

- / Les Indispensables de Diapason n°134

Used drive : HL-DT-STDVDRAM GH24NSD5 Adapter: 1 ID: 0

Read mode : Secure
Utilize accurate stream : Yes
Defeat audio cache : Yes
Make use of C2 pointers : No

Read offset correction : 6
Overread into Lead-In and Lead-Out : No
Fill up missing offset samples with silence : Yes
Delete leading and trailing silent blocks : No
Null samples used in CRC calculations : Yes
Used interface : Native Win32 interface for Win NT & 2000
Gap handling : Appended to previous track

Used output format : User Defined Encoder
Selected bitrate : 1024 kBit/s
Quality : High
Add ID3 tag : No
Command line compressor : C:\Program Files\Exact Audio Copy\FLAC\FLAC.EXE
Additional command line options : -6 -V -T "ARTIST=%artist%" -T "TITLE=%title%" -T "ALBUM=%albumtitle%" -T "DATE=%year%" -T "TRACKNUMBER=%tracknr%" -T "GENRE=%genre%" -T "COMMENT=%comment%" -T "BAND=%albuminterpret%" -T "ALBUMARTIST=%albuminterpret%" -T "COMPOSER=%composer%" %haslyrics%–tag-from-file=LYRICS="%lyricsfile%"%haslyrics% -T "DISCNUMBER=%cdnumber%" -T "TOTALDISCS=%totalcds%" -T "TOTALTRACKS=%numtracks%" %hascover%–picture="%coverfile%"%hascover% %source% -o %dest%


TOC of the extracted CD

Track | Start | Length | Start sector | End sector
––––––––––––––––––––––––––––-
1 | 0:00.00 | 6:56.25 | 0 | 31224
2 | 6:56.25 | 8:20.71 | 31225 | 68795
3 | 15:17.21 | 3:13.55 | 68796 | 83325
4 | 18:31.01 | 4:32.28 | 83326 | 103753
5 | 23:03.29 | 5:55.23 | 103754 | 130401
6 | 28:58.52 | 5:20.04 | 130402 | 154405
7 | 34:18.56 | 3:42.62 | 154406 | 171117
8 | 38:01.43 | 7:45.70 | 171118 | 206062
9 | 45:47.38 | 6:02.69 | 206063 | 233281
10 | 51:50.32 | 10:07.66 | 233282 | 278872
11 | 61:58.23 | 7:29.15 | 278873 | 312562
12 | 69:27.38 | 3:18.12 | 312563 | 327424


Track 1

Filename E:\__R\DIAP134\01.- Requiem op.48 - Introitus et Kyrie.wav

Pre-gap length 0:00:02.00

Peak level 96.9 %
Extraction speed 4.3 X
Track quality 99.9 %
Test CRC 903E2125
Copy CRC 903E2125
Track not present in AccurateRip database
Copy OK

Track 2

Filename E:\__R\DIAP134\02.- Requiem op.48 - Offertorium.wav

Peak level 71.6 %
Extraction speed 5.2 X
Track quality 99.9 %
Test CRC 8AB57E92
Copy CRC 8AB57E92
Track not present in AccurateRip database
Copy OK

Track 3

Filename E:\__R\DIAP134\03.- Requiem op.48 - Sanctus.wav

Peak level 88.1 %
Extraction speed 5.6 X
Track quality 100.0 %
Test CRC 801DD094
Copy CRC 801DD094
Track not present in AccurateRip database
Copy OK

Track 4

Filename E:\__R\DIAP134\04.- Requiem op.48 - Pie Jesu.wav

Peak level 54.9 %
Extraction speed 6.2 X
Track quality 100.0 %
Test CRC 512882E7
Copy CRC 512882E7
Track not present in AccurateRip database
Copy OK

Track 5

Filename E:\__R\DIAP134\05.- Requiem op.48 - Agnus Dei.wav

Peak level 92.1 %
Extraction speed 6.8 X
Track quality 100.0 %
Test CRC DE31C8BF
Copy CRC DE31C8BF
Track not present in AccurateRip database
Copy OK

Track 6

Filename E:\__R\DIAP134\06.- Requiem op.48 - Libera Me.wav

Peak level 95.2 %
Extraction speed 6.2 X
Track quality 99.9 %
Test CRC DFAE71EB
Copy CRC DFAE71EB
Track not present in AccurateRip database
Copy OK

Track 7

Filename E:\__R\DIAP134\07.- Requiem op.48 - In Paradisum.wav

Peak level 83.8 %
Extraction speed 7.0 X
Track quality 100.0 %
Test CRC 01ADF739
Copy CRC 01ADF739
Track not present in AccurateRip database
Copy OK

Track 8

Filename E:\__R\DIAP134\08.- Nocturne n°6 op.63.wav

Peak level 59.7 %
Extraction speed 7.9 X
Track quality 100.0 %
Test CRC 2BFDDD61
Copy CRC 2BFDDD61
Track not present in AccurateRip database
Copy OK

Track 9

Filename E:\__R\DIAP134\09.- Quatuor à cordes en mi mineur, op.121 - Allegro moderato.wav

Peak level 83.7 %
Extraction speed 8.2 X
Track quality 100.0 %
Test CRC 5AD22F94
Copy CRC 5AD22F94
Track not present in AccurateRip database
Copy OK

Track 10

Filename E:\__R\DIAP134\10.- Quatuor à cordes en mi mineur, op.121 - Andante.wav

Peak level 63.7 %
Extraction speed 8.2 X
Track quality 99.9 %
Test CRC DEE1242C
Copy CRC DEE1242C
Track not present in AccurateRip database
Copy OK

Track 11

Filename E:\__R\DIAP134\11.- Quatuor à cordes en mi mineur, op.121 - Allegro.wav

Peak level 85.0 %
Extraction speed 8.3 X
Track quality 99.9 %
Test CRC BF1E450F
Copy CRC BF1E450F
Track not present in AccurateRip database
Copy OK

Track 12

Filename E:\__R\DIAP134\12.- Pie Jesu.wav

Peak level 85.1 %
Extraction speed 8.6 X
Track quality 100.0 %
Test CRC 072666C0
Copy CRC 072666C0
Track not present in AccurateRip database
Copy OK


None of the tracks are present in the AccurateRip database

No errors occurred

End of status report

–– CUETools DB Plugin V2.1.6

[CTDB TOCID: JZ.0FhIsWft06tcBB0gJZmZdKk0-] found
Submit result: JZ.0FhIsWft06tcBB0gJZmZdKk0- has been confirmed
Track | CTDB Status
1 | (1/1) Accurately ripped
2 | (1/1) Accurately ripped
3 | (1/1) Accurately ripped
4 | (1/1) Accurately ripped
5 | (1/1) Accurately ripped
6 | (1/1) Accurately ripped
7 | (1/1) Accurately ripped
8 | (1/1) Accurately ripped
9 | (1/1) Accurately ripped
10 | (1/1) Accurately ripped
11 | (1/1) Accurately ripped
12 | (1/1) Accurately ripped


==== Log checksum C1039EE3D63C057C5FE18877125763917C3F98EFCD5E345D9156D79FDD08DF92 ====

Thanks to the Original ripper !