Subcategories

Nana Hiwatari - Ghibli The Guitar (2007)

Posted By: SuniR
Nana Hiwatari - Ghibli The Guitar (2007)

Nana Hiwatari - Ghibli The Guitar (2007)
EAC | FLAC (log,tracks+cue) -> 347 Mb (5% Rec.) | Mp3 CBR320 Kbps -> 191 Mb (5% Rec.) | Scans included
Instrumental, Acoustic, Easy Listening | Label: Aniplex / Yamaha Music, SVWC 7477 | 2007 | 01:13:39

Cover a studio ghibli masterpiece with a solo acoustic guitar. This collection contains 24 songs of studio ghibli as "Nausicaa Of The Valley Of The Wind", "Laputa: Castle In The Sky", "My Neighbor Totoro", "Princess Mononoke", "Howl's Moving Castle" etc. Ghibli music fans can be enjoyed this healing album.

Tracklist:

01. Kaze No Tani No Naushika (Theme Song) (Nausicaa Of The Valley Of The Wind)
02. Kaze No Tani No Naushika (Opening) (Nausicaa Of The Valley Of The Wind)
03. Nausicaa Requiem (Nausicaa Of The Valley Of The Wind)
04. Kimi Wo Nosete (Laputa: Castle In The Sky)
05. Sanpo (My Neighbor Totoro)
06. Tonari No Totoro (My Neighbor Totoro)
07. Kaze No Toorimichi (My Neighbor Totoro)
08. Umi No Mieru Machi (Kiki's Delivery Service)
09. Yasashisa Ni Tsutsumareta Nara (Kiki's Delivery Service)
10. Ai Ha Hana, Kimi Ha Sono Tane (The Rose) (Only Yesterday)
11. Toki Ni Ha Mukashi No Hanashi Wo (Porco Rosso)
12. Itsu Demo Dare Ka Ga (Pom Poko)
13. Engel's Zimmer (Tenshi No Heya) (Whisper Of The Heart)
14. Country Road (Take Me Home, Country Roads) (Whisper Of The Heart)
15. Ashitaka Sekki (Princess Mononoke)
16. Mononoke No Hime (Princess Mononoke)
17. Hitoribocchi Ha Yameta (My Neighbors The Yamadas)
18. Itsumo Nando Demo (Spirited Away)
19. Ano Natsu He (Spirited Away)
20. Kaze Ni Naru (The Cat Returns)
21. Sekai No Yakusoku (Howl's Moving Castle)
22. Jinsei No Merry-Go-Round (Howl's Moving Castle)
23. Teruu No Uta (Tales From Earthsea)
24. Toki No Uta (Tales From Earthsea)

Exact Audio Copy V1.0 beta 3 from 29. August 2011

EAC extraction logfile from 1. February 2013, 19:04

Nana Hiwatari / Ghibli The Guitar

Used drive : TSSTcorpCDDVDW SE-218BB Adapter: 2 ID: 0

Read mode : Secure
Utilize accurate stream : Yes
Defeat audio cache : Yes
Make use of C2 pointers : No

Read offset correction : 6
Overread into Lead-In and Lead-Out : No
Fill up missing offset samples with silence : Yes
Delete leading and trailing silent blocks : No
Null samples used in CRC calculations : Yes
Used interface : Native Win32 interface for Win NT & 2000
Gap handling : Appended to previous track

Used output format : User Defined Encoder
Selected bitrate : 1024 kBit/s
Quality : High
Add ID3 tag : No
Command line compressor : C:\Program Files (x86)\FLAC\flac.exe
Additional command line options : -8 -V -T "ARTIST=%artist%" -T "TITLE=%title%" -T "ALBUM=%albumtitle%" -T "DATE=%year%" -T "TRACKNUMBER=%tracknr%" -T "GENRE=%genre%" -T "PERFORMER=%albuminterpret%" -T "COMPOSER=%composer%" %haslyrics%–tag-from-file=LYRICS="%lyricsfile%"%haslyrics% -T "ALBUMARTIST=%albumartist%" -T "DISCNUMBER=%cdnumber%" -T "TOTALDISCS=%totalcds%" -T "TOTALTRACKS=%numtracks%" -T "COMMENT=%comment%" %source% -o %dest%


TOC of the extracted CD

Track | Start | Length | Start sector | End sector
––––––––––––––––––––––––––––-
1 | 0:00.00 | 2:34.49 | 0 | 11598
2 | 2:34.49 | 2:44.65 | 11599 | 23963
3 | 5:19.39 | 2:46.34 | 23964 | 36447
4 | 8:05.73 | 3:49.54 | 36448 | 53676
5 | 11:55.52 | 2:07.68 | 53677 | 63269
6 | 14:03.45 | 3:50.62 | 63270 | 80581
7 | 17:54.32 | 3:42.06 | 80582 | 97237
8 | 21:36.38 | 2:40.04 | 97238 | 109241
9 | 24:16.42 | 3:08.22 | 109242 | 123363
10 | 27:24.64 | 2:42.22 | 123364 | 135535
11 | 30:07.11 | 2:53.57 | 135536 | 148567
12 | 33:00.68 | 2:02.30 | 148568 | 157747
13 | 35:03.23 | 2:06.74 | 157748 | 167271
14 | 37:10.22 | 3:20.31 | 167272 | 182302
15 | 40:30.53 | 2:29.47 | 182303 | 193524
16 | 43:00.25 | 3:48.12 | 193525 | 210636
17 | 46:48.37 | 3:31.34 | 210637 | 226495
18 | 50:19.71 | 3:33.02 | 226496 | 242472
19 | 53:52.73 | 2:57.50 | 242473 | 255797
20 | 56:50.48 | 2:38.28 | 255798 | 267675
21 | 59:29.01 | 4:08.26 | 267676 | 286301
22 | 63:37.27 | 1:56.14 | 286302 | 295015
23 | 65:33.41 | 4:02.09 | 295016 | 313174
24 | 69:35.50 | 4:04.59 | 313175 | 331533


Track 1

Filename C:\EAC\Nana Hiwatari - Ghibli The Guitar\01 Kaze No Tani No Naushika [Nausicaä Of The Valley Of The Wind].wav

Pre-gap length 0:00:02.00

Peak level 97.2 %
Extraction speed 2.7 X
Track quality 100.0 %
Test CRC F911132F
Copy CRC F911132F
Accurately ripped (confidence 2) [6582EB8C] (AR v1)
Copy OK

Track 2

Filename C:\EAC\Nana Hiwatari - Ghibli The Guitar\02 Kaze No Tani No Naushika (Opening) [Nausicaä Of The Valley Of The Wind].wav

Pre-gap length 0:00:05.00

Peak level 97.2 %
Extraction speed 2.9 X
Track quality 100.0 %
Test CRC DE538E9C
Copy CRC DE538E9C
Accurately ripped (confidence 2) [44870AB4] (AR v1)
Copy OK

Track 3

Filename C:\EAC\Nana Hiwatari - Ghibli The Guitar\03 Nausicaä ・ Requiem [Nausicaä Of The Valley Of The Wind].wav

Pre-gap length 0:00:05.00

Peak level 97.2 %
Extraction speed 3.1 X
Track quality 100.0 %
Test CRC 9925676A
Copy CRC 9925676A
Accurately ripped (confidence 2) [BF853A94] (AR v1)
Copy OK

Track 4

Filename C:\EAC\Nana Hiwatari - Ghibli The Guitar\04 Kimi Wo Nosete [Laputa: Castle In The Sky].wav

Pre-gap length 0:00:05.00

Peak level 97.2 %
Extraction speed 2.8 X
Track quality 99.9 %
Test CRC 1ACF1382
Copy CRC 1ACF1382
Accurately ripped (confidence 2) [25026072] (AR v1)
Copy OK

Track 5

Filename C:\EAC\Nana Hiwatari - Ghibli The Guitar\05 Sanpo [My Neighbor Totoro].wav

Pre-gap length 0:00:05.00

Peak level 97.2 %
Extraction speed 3.3 X
Track quality 100.0 %
Test CRC 7493E36F
Copy CRC 7493E36F
Accurately ripped (confidence 2) [7A5DE846] (AR v1)
Copy OK

Track 6

Filename C:\EAC\Nana Hiwatari - Ghibli The Guitar\06 Tonari No Totoro [My Neighbor Totoro].wav

Pre-gap length 0:00:05.00

Peak level 97.2 %
Extraction speed 3.9 X
Track quality 100.0 %
Test CRC 4D17882A
Copy CRC 4D17882A
Accurately ripped (confidence 2) [76C64C02] (AR v1)
Copy OK

Track 7

Filename C:\EAC\Nana Hiwatari - Ghibli The Guitar\07 Kaze No Toorimichi [My Neighbor Totoro].wav

Pre-gap length 0:00:05.00

Peak level 97.2 %
Extraction speed 3.2 X
Track quality 99.9 %
Test CRC 13A9F7B3
Copy CRC 13A9F7B3
Accurately ripped (confidence 2) [926C7795] (AR v1)
Copy OK

Track 8

Filename C:\EAC\Nana Hiwatari - Ghibli The Guitar\08 Umi No Mieru Machi [Kiki's Delivery Service].wav

Pre-gap length 0:00:05.00

Peak level 97.2 %
Extraction speed 3.9 X
Track quality 100.0 %
Test CRC 7A072910
Copy CRC 7A072910
Accurately ripped (confidence 2) [313B33B3] (AR v1)
Copy OK

Track 9

Filename C:\EAC\Nana Hiwatari - Ghibli The Guitar\09 Yasashisa Ni Tsutsumareta Nara [Kiki's Delivery Service].wav

Pre-gap length 0:00:05.00

Peak level 97.2 %
Extraction speed 4.2 X
Track quality 100.0 %
Test CRC 28D09BB5
Copy CRC 28D09BB5
Accurately ripped (confidence 2) [01D4C5B2] (AR v1)
Copy OK

Track 10

Filename C:\EAC\Nana Hiwatari - Ghibli The Guitar\10 Ai Ha Hana, Kimi Ha Sono Tane (The Rose) [Only Yesterday].wav

Pre-gap length 0:00:05.00

Peak level 97.2 %
Extraction speed 4.2 X
Track quality 100.0 %
Test CRC 3BED6598
Copy CRC 3BED6598
Accurately ripped (confidence 2) [FDA2F478] (AR v1)
Copy OK

Track 11

Filename C:\EAC\Nana Hiwatari - Ghibli The Guitar\11 Toki Ni Ha Mukashi No Hanashi Wo [Porco Rosso].wav

Pre-gap length 0:00:04.74

Peak level 97.2 %
Extraction speed 4.4 X
Track quality 100.0 %
Test CRC C36DCF4F
Copy CRC C36DCF4F
Accurately ripped (confidence 2) [0824726C] (AR v1)
Copy OK

Track 12

Filename C:\EAC\Nana Hiwatari - Ghibli The Guitar\12 Itsu Demo Dare Ka Ga [Pom Poko].wav

Pre-gap length 0:00:05.00

Peak level 97.2 %
Extraction speed 4.1 X
Track quality 100.0 %
Test CRC 9263309C
Copy CRC 9263309C
Accurately ripped (confidence 2) [A7DA62E7] (AR v1)
Copy OK

Track 13

Filename C:\EAC\Nana Hiwatari - Ghibli The Guitar\13 Engel's Zimmer (Tenshi No Heya) [Whisper Of The Heart].wav

Pre-gap length 0:00:05.00

Peak level 97.2 %
Extraction speed 4.2 X
Track quality 100.0 %
Test CRC A5CA0985
Copy CRC A5CA0985
Accurately ripped (confidence 2) [2478689F] (AR v1)
Copy OK

Track 14

Filename C:\EAC\Nana Hiwatari - Ghibli The Guitar\14 Country Road (Take Me Home, Country Roads) [Whisper Of The Heart].wav

Pre-gap length 0:00:05.00

Peak level 97.2 %
Extraction speed 4.8 X
Track quality 100.0 %
Test CRC CDFB5D0B
Copy CRC CDFB5D0B
Accurately ripped (confidence 2) [A3AD28F9] (AR v1)
Copy OK

Track 15

Filename C:\EAC\Nana Hiwatari - Ghibli The Guitar\15 Ashitaka Sekki [Princess Mononoke].wav

Pre-gap length 0:00:05.00

Peak level 97.2 %
Extraction speed 4.6 X
Track quality 100.0 %
Test CRC 22AD58A2
Copy CRC 22AD58A2
Accurately ripped (confidence 2) [71E72042] (AR v1)
Copy OK

Track 16

Filename C:\EAC\Nana Hiwatari - Ghibli The Guitar\16 Mononoke No Hime [Princess Mononoke].wav

Pre-gap length 0:00:05.00

Peak level 97.2 %
Extraction speed 5.2 X
Track quality 100.0 %
Test CRC F44F56BB
Copy CRC F44F56BB
Accurately ripped (confidence 2) [EBE6A92C] (AR v1)
Copy OK

Track 17

Filename C:\EAC\Nana Hiwatari - Ghibli The Guitar\17 Hitoribocchi Ha Yameta [My Neighbors The Yamadas].wav

Pre-gap length 0:00:04.74

Peak level 86.7 %
Extraction speed 4.2 X
Track quality 99.9 %
Test CRC 7156AEAA
Copy CRC 7156AEAA
Accurately ripped (confidence 2) [29B0ECA3] (AR v1)
Copy OK

Track 18

Filename C:\EAC\Nana Hiwatari - Ghibli The Guitar\18 Itsumo Nando Demo [Spirited Away].wav

Pre-gap length 0:00:05.00

Peak level 86.7 %
Extraction speed 5.3 X
Track quality 100.0 %
Test CRC E323F2C5
Copy CRC E323F2C5
Accurately ripped (confidence 2) [687A5A8E] (AR v1)
Copy OK

Track 19

Filename C:\EAC\Nana Hiwatari - Ghibli The Guitar\19 Ano Natsu He [Spirited Away].wav

Pre-gap length 0:00:05.00

Peak level 86.7 %
Extraction speed 5.3 X
Track quality 100.0 %
Test CRC C878535E
Copy CRC C878535E
Accurately ripped (confidence 2) [E64E5D15] (AR v1)
Copy OK

Track 20

Filename C:\EAC\Nana Hiwatari - Ghibli The Guitar\20 Kaze Ni Naru [The Cat Returns].wav

Pre-gap length 0:00:05.00

Peak level 86.7 %
Extraction speed 4.0 X
Track quality 99.9 %
Test CRC 34AAA9A0
Copy CRC 34AAA9A0
Accurately ripped (confidence 2) [52311532] (AR v1)
Copy OK

Track 21

Filename C:\EAC\Nana Hiwatari - Ghibli The Guitar\21 Sekai No Yakusoku [Howl's Moving Castle].wav

Pre-gap length 0:00:05.00

Peak level 96.1 %
Extraction speed 4.7 X
Track quality 99.9 %
Test CRC 0C87162F
Copy CRC 0C87162F
Accurately ripped (confidence 2) [61969EF7] (AR v1)
Copy OK

Track 22

Filename C:\EAC\Nana Hiwatari - Ghibli The Guitar\22 Jinsei No Merry-Go-Round [Howl's Moving Castle].wav

Pre-gap length 0:00:05.00

Peak level 90.7 %
Extraction speed 3.6 X
Track quality 99.9 %
Test CRC 1E2E538A
Copy CRC 1E2E538A
Accurately ripped (confidence 2) [0F3697A5] (AR v1)
Copy OK

Track 23

Filename C:\EAC\Nana Hiwatari - Ghibli The Guitar\23 Teruu No Uta [Tales From Earthsea].wav

Pre-gap length 0:00:05.00

Peak level 96.6 %
Extraction speed 6.0 X
Track quality 100.0 %
Test CRC A7E4E946
Copy CRC A7E4E946
Accurately ripped (confidence 2) [8E3EEFD6] (AR v1)
Copy OK

Track 24

Filename C:\EAC\Nana Hiwatari - Ghibli The Guitar\24 Toki No Uta [Tales From Earthsea].wav

Pre-gap length 0:00:05.00

Peak level 86.1 %
Extraction speed 6.1 X
Track quality 100.0 %
Test CRC E528B41C
Copy CRC E528B41C
Accurately ripped (confidence 2) [76BBFC84] (AR v1)
Copy OK


All tracks accurately ripped

No errors occurred

End of status report

–– CUETools DB Plugin V2.1.3

[CTDB TOCID: J.gYuploLDS.54JzmEkDP8YtytE-] found, Submit result: J.gYuploLDS.54JzmEkDP8YtytE- has been confirmed
[1ff0dcf7] (3/4) Accurately ripped
[92152e7f] (1/4) No match


==== Log checksum 5761DB3E28A5F49941F89E39E1DEB13FAC173AB71818B18B46DBB7B20645DE7B ====

foobar2000 1.3.6 / Dynamic Range Meter 1.1.1
log date: 2017-02-04 22:11:43

––––––––––––––––––––––––––––––––––––––––
Analyzed: Nana Hiwatari (日渡奈那) / Ghibli The Guitar (ジブリ・ザ・ギター)
––––––––––––––––––––––––––––––––––––––––

DR Peak RMS Duration Track
––––––––––––––––––––––––––––––––––––––––
DR12 -0.24 dB -14.43 dB 2:35 01-Kaze No Tani No Naushika [Nausicaä Of The Valley Of The Wind] (風の谷のナウシカ (シンボルテーマソング) [風の谷のナウシカ])
DR13 -0.24 dB -15.86 dB 2:45 02-Kaze No Tani No Naushika (Opening) [Nausicaä Of The Valley Of The Wind] (風の谷のナウシカ (オープニング) [風の谷のナウシカ])
DR13 -0.24 dB -15.35 dB 2:46 03-Nausicaä ・ Requiem [Nausicaä Of The Valley Of The Wind] (ナウシカ・レクイエム [風の谷のナウシカ])
DR13 -0.24 dB -15.61 dB 3:50 04-Kimi Wo Nosete [Laputa: Castle In The Sky] (君をのせて [天空の城ラピュタ])
DR12 -0.24 dB -14.43 dB 2:08 05-Sanpo [My Neighbor Totoro] (さんぽ [となりのトトロ])
DR13 -0.24 dB -14.84 dB 3:51 06-Tonari No Totoro [My Neighbor Totoro] (となりのトトロ [となりのトトロ])
DR12 -0.24 dB -14.00 dB 3:42 07-Kaze No Toorimichi [My Neighbor Totoro] (風の通り道 [となりのトトロ])
DR12 -0.24 dB -14.32 dB 2:40 08-Umi No Mieru Machi [Kiki's Delivery Service] (海の見える街 [魔女の宅急便])
DR12 -0.24 dB -14.15 dB 3:08 09-Yasashisa Ni Tsutsumareta Nara [Kiki's Delivery Service] (やさしさに包まれたなら [魔女の宅急便])
DR13 -0.24 dB -16.17 dB 2:42 10-Ai Ha Hana, Kimi Ha Sono Tane (The Rose) [Only Yesterday] (愛は花、君はその種子 (The Rose) [おもひでぽろぽろ])
DR12 -0.24 dB -16.00 dB 2:54 11-Toki Ni Ha Mukashi No Hanashi Wo [Porco Rosso] (時には昔の話を [紅の豚])
DR14 -0.24 dB -16.00 dB 2:02 12-Itsu Demo Dare Ka Ga [Pom Poko] (いつでも誰かが [平成狸合戦ぽんぽこ])
DR14 -0.24 dB -16.04 dB 2:07 13-Engel's Zimmer (Tenshi No Heya) [Whisper Of The Heart] (エンゲルス・ツイマー (天使の部屋) [耳をすませば])
DR12 -0.24 dB -14.18 dB 3:20 14-Country Road (Take Me Home, Country Roads) [Whisper Of The Heart] (カントリー・ロード (Take Me Home, Country Roads) [耳をすませば])
DR12 -0.24 dB -14.10 dB 2:30 15-Ashitaka Sekki [Princess Mononoke] (アシタカせっ記 [もののけ姫])
DR14 -0.24 dB -16.78 dB 3:48 16-Mononoke No Hime [Princess Mononoke] (もののけ姫 [もののけ姫])
DR11 -1.24 dB -14.27 dB 3:31 17-Hitoribocchi Ha Yameta [My Neighbors The Yamadas] (ひとりぼっちはやめた [ホーホケキョ となりの山田くん])
DR10 -1.24 dB -12.53 dB 3:33 18-Itsumo Nando Demo [Spirited Away] (いつも何度でも [千と千尋の神隠し])
DR10 -1.24 dB -14.54 dB 2:58 19-Ano Natsu He [Spirited Away] (あの日の川 [千と千尋の神隠し])
DR11 -1.24 dB -14.14 dB 2:38 20-Kaze Ni Naru [The Cat Returns] (風になる [猫の恩返し])
DR10 -0.34 dB -13.21 dB 4:08 21-Sekai No Yakusoku [Howl's Moving Castle] (世界の約束 [ハウルの動く城])
DR10 -0.84 dB -13.60 dB 1:56 22-Jinsei No Merry-Go-Round [Howl's Moving Castle] (人生のメリーゴーランド [ハウルの動く城])
DR13 -0.30 dB -15.28 dB 4:02 23-Teruu No Uta [Tales From Earthsea] (テルーの唄 [ゲド戦記])
DR12 -1.30 dB -15.92 dB 4:05 24-Toki No Uta [Tales From Earthsea] (時の歌 [ゲド戦記])
––––––––––––––––––––––––––––––––––––––––

Number of tracks: 24
Official DR value: DR12

Samplerate: 44100 Hz
Channels: 2
Bits per sample: 16
Bitrate: 534 kbps
Codec: FLAC
================================================================================

Thanks to the original releaser