Tags
Language
Tags

Nana Mouskouri & Friends - Rendez-Vous (2011)

Posted By: SuniR
Nana Mouskouri & Friends - Rendez-Vous (2011)

Nana Mouskouri & Friends - Rendez-Vous (2011)
EAC | FLAC (log,image+cue) -> 418 Mb (5% Rec.) | Mp3 CBR320 Kbps -> 173 Mb (5% Rec.) | Scans included
Vocal Pop, Folk, Chanson | Label: Universal Music / Mercury Records, #:2788371 | 2011 | 01:04:31

Artiste à la stature internationale, Nana Mouskouri a déjà plus de 50 ans de carrière derrière elle, et plus de 300 millions d'albums vendus dans le monde (dans les 10 premières ventes de tous les temps), en dix langues différentes. Une vie à parcourir le monde, riche de chansons et de rencontres : Quincy Jones, Serge Gainsbourg, Bob Dylan, Leonard Cohen, Michel Legrand . pour ne citer que les musiciens. Nana a réenregistré ses plus grands succès, accompagnée en duo par les artistes qui lui sont chers rencontrés au cours de sa carrière. Alain Delon sur « Pauvre Ruteboeuf », la grande Joan Baez pour une version de « Here's to you » plus contemporaine que jamais, Martno Da Villa sur le mythique « Quand tu chantes », Francis Cabrel pour une version chaloupée de « Guantanamera », mais aussi Alain Souchon, Garou, Dave… Ce nouvel album, « Rendez-vous », réalisé par Pierre Jaconelli, marque le grand retour de Nana sur le devant de la scène française et internationale.

Tracklist:

01. Pauvre Rutebeuf (en duo avec Alain Delon)
02. Here's to You (en duo avec Joan Baez)
03. Adieu Angelina (en duo avec Roch Voisine)
04. Tous les arbres sont en fleur (en duo avec Lenou)
05. Le temps des cerises (en duo avec Dave)
06. Guantanamera (en duo avec Francis Cabrel)
07. Quand tu chantes (en duo avec Martinho Da Vila)
08. Suzanne (en duo avec Graeme Allwright)
09. La Vie, l’Amour, la Mort (en duo avec Lara Fabian)
10. Aux marches du palais (en duo avec Serge Lama)
11. Le ciel est noir (en duo avec Garou)
12. C’est bon la vie (en duo avec Alain Souchon)
13. Je chante pour toi Liberte (en duo avec Herbert Leonard)
14. Grande Grande Grande (en duo avec Julio Iglesias)
15. Plaisir d'amour (Sakel Version)

Exact Audio Copy V1.0 beta 3 from 29. August 2011

EAC extraction logfile from 3. August 2014, 23:43

Nana Mouskouri / Rendez-Vous

Used drive : hp DVDRAM GT31L Adapter: 1 ID: 0

Read mode : Secure
Utilize accurate stream : Yes
Defeat audio cache : Yes
Make use of C2 pointers : No

Read offset correction : 103
Overread into Lead-In and Lead-Out : No
Fill up missing offset samples with silence : Yes
Delete leading and trailing silent blocks : No
Null samples used in CRC calculations : Yes
Used interface : Native Win32 interface for Win NT & 2000

Used output format : User Defined Encoder
Selected bitrate : 768 kBit/s
Quality : High
Add ID3 tag : Yes
Command line compressor : C:\Program Files (x86)\Exact Audio Copy\Flac\flac.exe
Additional command line options : -V -8 -T "Date=%year%" -T "Genre=%genre%" %source%


TOC of the extracted CD

Track | Start | Length | Start sector | End sector
––––––––––––––––––––––––––––-
1 | 0:00.00 | 4:20.58 | 0 | 19557
2 | 4:20.58 | 4:14.26 | 19558 | 38633
3 | 8:35.09 | 3:04.13 | 38634 | 52446
4 | 11:39.22 | 4:05.14 | 52447 | 70835
5 | 15:44.36 | 4:01.06 | 70836 | 88916
6 | 19:45.42 | 4:32.37 | 88917 | 109353
7 | 24:18.04 | 2:56.63 | 109354 | 122616
8 | 27:14.67 | 4:19.55 | 122617 | 142096
9 | 31:34.47 | 4:14.29 | 142097 | 161175
10 | 35:49.01 | 4:51.19 | 161176 | 183019
11 | 40:40.20 | 3:40.40 | 183020 | 199559
12 | 44:20.60 | 3:12.31 | 199560 | 213990
13 | 47:33.16 | 4:50.28 | 213991 | 235768
14 | 52:23.44 | 8:11.05 | 235769 | 272598
15 | 60:34.49 | 3:56.52 | 272599 | 290350


Range status and errors

Selected range

Filename C:\Users\Александр\Desktop\Nana Mouskouri - Rendez-Vous.wav

Peak level 100.0 %
Extraction speed 2.2 X
Range quality 100.0 %
Test CRC 13499221
Copy CRC 13499221
Copy OK

No errors occurred


AccurateRip summary

Track 1 accurately ripped (confidence 1) [DF47B213] (AR v2)
Track 2 accurately ripped (confidence 1) [AD69522E] (AR v2)
Track 3 accurately ripped (confidence 1) [37358B17] (AR v2)
Track 4 accurately ripped (confidence 1) [5ECC6EAF] (AR v2)
Track 5 accurately ripped (confidence 1) [4EF4FC8A] (AR v2)
Track 6 accurately ripped (confidence 1) [3D2EE88F] (AR v2)
Track 7 accurately ripped (confidence 1) [E55CB659] (AR v2)
Track 8 accurately ripped (confidence 1) [C0F3A9FF] (AR v2)
Track 9 accurately ripped (confidence 1) [73047DF5] (AR v2)
Track 10 accurately ripped (confidence 1) [193323F2] (AR v2)
Track 11 accurately ripped (confidence 1) [6EDB45E0] (AR v2)
Track 12 accurately ripped (confidence 1) [0C205830] (AR v2)
Track 13 accurately ripped (confidence 1) [FFB2C845] (AR v2)
Track 14 accurately ripped (confidence 1) [737C4674] (AR v2)
Track 15 accurately ripped (confidence 1) [8F066B22] (AR v2)

All tracks accurately ripped

End of status report

–– CUETools DB Plugin V2.1.3

[CTDB TOCID: xPxHxHwHkD0U.kf5eltrFBka1VM-] found, Submit result: already submitted
[41ca5d86] (4/4) Accurately ripped


==== Log checksum 071B0927216B693D31B5D8426403EE88C6F53A5B0DCCE7BC001838439F393C19 ====

foobar2000 1.3.6 / Dynamic Range Meter 1.1.1
log date: 2017-05-26 23:16:15

––––––––––––––––––––––––––––––––––––––––
Analyzed: Nana Mouskouri Avec Alain Delon / Rendez-Vous (1)
Nana Mouskouri Avec Alain Souchon / Rendez-Vous (2)
Nana Mouskouri Avec Dave / Rendez-Vous (3)
––––––––––––––––––––––––––––––––––––––––

DR Peak RMS Duration Track
––––––––––––––––––––––––––––––––––––––––
DR10 0.00 dB -12.87 dB 4:21 01-Pauvre Rutebeuf
DR7 0.00 dB -8.80 dB 2:57 07-C'Est Bon La Vie
DR9 0.00 dB -11.35 dB 4:50 13-Le Temps Des Cerises
––––––––––––––––––––––––––––––––––––––––

Number of tracks: 3
Official DR value: DR9

Samplerate: 44100 Hz
Channels: 2
Bits per sample: 16
Bitrate: 821 kbps
Codec: FLAC
================================================================================

––––––––––––––––––––––––––––––––––––––––
Analyzed: Nana Mouskouri Avec Francis Cabrel / Rendez-Vous (1)
Nana Mouskouri Avec Garou / Rendez-Vous (2)
––––––––––––––––––––––––––––––––––––––––

DR Peak RMS Duration Track
––––––––––––––––––––––––––––––––––––––––
DR8 0.00 dB -9.38 dB 4:32 06-Guantanamera
DR7 -0.01 dB -10.13 dB 8:11 14-Le Ciel Est Noir
––––––––––––––––––––––––––––––––––––––––

Number of tracks: 2
Official DR value: DR7

Samplerate: 44100 Hz
Channels: 2
Bits per sample: 16
Bitrate: 821 kbps
Codec: FLAC
================================================================================

––––––––––––––––––––––––––––––––––––––––
Analyzed: Nana Mouskouri Avec Graeme Allwright / Rendez-Vous (1)
Nana Mouskouri Avec Herbert Leonard / Rendez-Vous (2)
––––––––––––––––––––––––––––––––––––––––

DR Peak RMS Duration Track
––––––––––––––––––––––––––––––––––––––––
DR10 0.00 dB -11.88 dB 4:51 10-Suzanne
DR7 0.00 dB -9.60 dB 3:41 11-Je Chante Avec Toi Liberte
––––––––––––––––––––––––––––––––––––––––

Number of tracks: 2
Official DR value: DR8

Samplerate: 44100 Hz
Channels: 2
Bits per sample: 16
Bitrate: 821 kbps
Codec: FLAC
================================================================================

––––––––––––––––––––––––––––––––––––––––
Statistics for: 03-Here's To You
Number of samples: 8122044
Duration: 3:04
––––––––––––––––––––––––––––––––––––––––

Left Right

Peak Value: 0.00 dB –- 0.00 dB
Avg RMS: -8.20 dB –- -8.60 dB
DR channel: 6.12 dB –- 6.53 dB
––––––––––––––––––––––––––––––––––––––––

Official DR Value: DR6

Samplerate: 44100 Hz
Channels: 2
Bits per sample: 16
Bitrate: 821 kbps
Codec: FLAC
================================================================================
––––––––––––––––––––––––––––––––––––––––
Analyzed: Nana Mouskouri Avec Julio Iglesias / Rendez-Vous (1)
Nana Mouskouri Avec Lara Fabian / Rendez-Vous (2)
––––––––––––––––––––––––––––––––––––––––

DR Peak RMS Duration Track
––––––––––––––––––––––––––––––––––––––––
DR8 0.00 dB -11.93 dB 4:14 02-Grande, Grande, Grande
DR7 0.00 dB -10.24 dB 4:20 08-La Vie, L'Amour, La Mort
––––––––––––––––––––––––––––––––––––––––

Number of tracks: 2
Official DR value: DR8

Samplerate: 44100 Hz
Channels: 2
Bits per sample: 16
Bitrate: 821 kbps
Codec: FLAC
================================================================================

––––––––––––––––––––––––––––––––––––––––
Analyzed: Nana Mouskouri Avec Lenou / Rendez-Vous (1)
Nana Mouskouri Avec Martinho Da Vila / Rendez-Vous (2)
––––––––––––––––––––––––––––––––––––––––

DR Peak RMS Duration Track
––––––––––––––––––––––––––––––––––––––––
DR8 0.00 dB -9.95 dB 4:01 05-Tous Les Arbres Sont En Fleurs
DR9 0.00 dB -9.48 dB 3:12 12-Quand Tu Chantes
––––––––––––––––––––––––––––––––––––––––

Number of tracks: 2
Official DR value: DR9

Samplerate: 44100 Hz
Channels: 2
Bits per sample: 16
Bitrate: 821 kbps
Codec: FLAC
================================================================================

––––––––––––––––––––––––––––––––––––––––
Analyzed: Nana Mouskouri Avec Roch Voisine / Rendez-Vous (1)
Nana Mouskouri Avec Serge Lama / Rendez-Vous (2)
Nana Mouskouri / Rendez-Vous (3)
––––––––––––––––––––––––––––––––––––––––

DR Peak RMS Duration Track
––––––––––––––––––––––––––––––––––––––––
DR8 0.00 dB -10.38 dB 4:05 04-Adieu Angelina
DR10 0.00 dB -13.06 dB 4:14 09-Aux Marches Du Palais
DR9 0.00 dB -12.27 dB 3:57 15-Plaisir D'Amour
––––––––––––––––––––––––––––––––––––––––

Number of tracks: 3
Official DR value: DR9

Samplerate: 44100 Hz
Channels: 2
Bits per sample: 16
Bitrate: 821 kbps
Codec: FLAC
================================================================================

Thanks to the original releaser