Tags
Language
Tags
May 2024
Su Mo Tu We Th Fr Sa
28 29 30 1 2 3 4
5 6 7 8 9 10 11
12 13 14 15 16 17 18
19 20 21 22 23 24 25
26 27 28 29 30 31 1

Nathaniel Mayer - (I Want) Love and Affection (Not the House of Correction) (2006)

Posted By: Domestos
Nathaniel Mayer - (I Want) Love and Affection (Not the House of Correction) (2006)

Nathaniel Mayer - (I Want) Love and Affection (Not the House of Correction) (2006)
EAC Rip | FLAC (tracks+.cue, log) ~ 248.71 Mb | 58:44 | Covers
Soul, Doo wop, Rhythm & blues, Funk | Label: Vampi Soul - VAMPI 072, VAMPI CD 072

The first, only, complete and definitive anthology of Nathaniel Mayer´s music, with the full story on Michael Hurtt´s massive liner notes. On this double LP (and CD) you can find all the singles Nathaniel released in the 1960s, plus a rare single from 1980. It´s all here!!

From the thumping primitivism of John Lee Hooker’s trance-inducing guitar to Iggy and the Stooges’ desperate wail from the gutter, Detroit, Michigan has always been a city of musical extremes. Dead center between “Boogie Chillun” and “TV Eye” lies the musical netherworld of Fortune Records, the city’s only label with any staying power prior to Motown. Fortune was an extreme among extremes, as was its most successful artist, Nathaniel “Nay Dog” Mayer. Crazy, funny, irreverent and stunningly talented, Mayer scored the label its biggest hit with his 1962 blockbuster “Village Of Love.”His six years with the label, beginning with 1961’s impassioned “My Last Dance With You” and ending with 1966’s proto-funk “(I Want) Love And Affection (Not The House of Correction),” resulted in twenty-one slices of musical brilliance that were unique even in the fertile musical breeding ground from whence they came. Here were records that demanded immediate involvement and total immersion; music so frenetic that it was impossible to take sitting down. A Mayer disc was an instant party. The fact that he recorded for Fortune —an iconic independent label petrified to license their records for wider distribution— certainly kept him from becoming a household name. Then again, Mayer’s over-the-top approach might have been lost on another imprint. Like Andre Williams before him, in Fortune Mayer found a place where he could wreak his sonic havoc, unrestrained.Nay Dog's hard-edged, straightforward music has influenced many of today's up-and-coming garage, punk and soul acts. "Village Of Love" was covered by The Detroit Cobras, “Leave Me Alone" was remade by The Hard Feelings, while Holly Golightly, Eve Monsees and the Exiles and the Gibson Brothers have all recorded "I Had A Dream". Fans and collectors still seek out Mayer's original Fortune-label 45s. As for the man himself, not even a recent stroke slowed him down much, and he remains comfortably ensconced in his home on Detroit’s eastside when he’s not performing. After almost fifty years, he’s found his place in the world, he’s claimed his legacy in the scope of Detroit’s rich musical history…and, as in 1962, a Nathaniel Mayer show is still an electric, mesmerizing experience.Michael Hurtt y S.R. Boland
Detroit, Abril de 2007

===
Wiki | Amazon | Discogs
===


Track List:
01. Nathaniel Mayer & His Fabulous Twilights - My Last Dance with You
02. Nathaniel Mayer & His Fabulous Twilights - My Little Darling
03. Nathaniel Mayer & His Fabulous Twilights - King of Paradise
04. Nathaniel Mayer & His Fabulous Twilights - Village of Love
05. Nathaniel Mayer & His Fabulous Twilights - I Want a Woman
06. Nathaniel Mayer & His Fabulous Twilights - My Lonely Island
07. Nathaniel Mayer & His Fabulous Twilights - Leave Me Alone
08. Nathaniel Mayer & His Fabulous Twilights - Hurting Love
09. Nathaniel Mayer & His Fabulous Twilights - Lover Please
10. Nathaniel Mayer & His Fabulous Twilights - Work It Out
11. Nathaniel Mayer & His Fabulous Twilights - Well, I've Got News (for You)
12. Nathaniel Mayer & His Fabulous Twilights - Mr. Santa Claus (Bring Me My Baby)
13. Nathaniel Mayer & His Fabulous Twilights - I Had a Dream
14. Nathaniel Mayer & His Fabulous Twilights - I'm Not Gonna Cry
15. Nathaniel Mayer & His Fabulous Twilights - Summertime
16. Nathaniel Mayer & His Fabulous Twilights - Going Back to the Village of Love
17. Nathaniel Mayer & His Fabulous Twilights with The Dynamics & The Crescendals - A Place I Know
18. Nathaniel Mayer & His Fabulous Twilights with The Dynamics & The Crescendals - Don't Come Back
19. Nathaniel Mayer With The Fortune Braves - From Now On
20. Nathaniel Mayer With The Fortune Braves - (I Want) Love and Affection (Not the House of Correction)
21. Nathaniel Mayer & His Fabulous Twilights - Where Will You Be
22. Nathaniel Mayer & The Filthy McNasty Group Plus Freestyle - Super Boogie
23. Nathaniel Mayer & The Filthy McNasty Group Plus Freestyle - Raise the Curtain High

Nathaniel Mayer - (I Want) Love and Affection (Not the House of Correction) (2006)

Exact Audio Copy V1.3 from 2. September 2016

EAC extraction logfile from 29. March 2019, 20:33

Nathaniel Mayer / (I Want) Love and Affection (Not the House of Correction)

Used drive : PLEXTOR DVDR PX-891SA Adapter: 1 ID: 0

Read mode : Secure
Utilize accurate stream : Yes
Defeat audio cache : Yes
Make use of C2 pointers : No

Read offset correction : 6
Overread into Lead-In and Lead-Out : No
Fill up missing offset samples with silence : Yes
Delete leading and trailing silent blocks : No
Null samples used in CRC calculations : Yes
Used interface : Native Win32 interface for Win NT & 2000
Gap handling : Appended to previous track

Used output format : User Defined Encoder
Selected bitrate : 1024 kBit/s
Quality : High
Add ID3 tag : No
Command line compressor : C:\Program Files (x86)\Exact Audio Copy\FLAC\FLAC.EXE
Additional command line options : -8 -V -T "ARTIST=%artist%" -T "TITLE=%title%" -T "ALBUM=%albumtitle%" -T "DATE=%year%" -T "TRACKNUMBER=%tracknr%" -T "GENRE=%genre%" -T "COMMENT=%comment%" -T "BAND=%albuminterpret%" -T "ALBUMARTIST=%albuminterpret%" -T "COMPOSER=%composer%" %haslyrics%–tag-from-file=LYRICS="%lyricsfile%"%haslyrics% -T "DISCNUMBER=%cdnumber%" -T "TOTALDISCS=%totalcds%" -T "TOTALTRACKS=%numtracks%" %hascover%–picture="%coverfile%"%hascover% %source% -o %dest%


TOC of the extracted CD

Track | Start | Length | Start sector | End sector
––––––––––––––––––––––––––––-
1 | 0:00.00 | 2:27.44 | 0 | 11068
2 | 2:27.44 | 2:49.42 | 11069 | 23785
3 | 5:17.11 | 1:57.09 | 23786 | 32569
4 | 7:14.20 | 2:03.31 | 32570 | 41825
5 | 9:17.51 | 2:25.36 | 41826 | 52736
6 | 11:43.12 | 2:31.21 | 52737 | 64082
7 | 14:14.33 | 2:15.27 | 64083 | 74234
8 | 16:29.60 | 2:50.31 | 74235 | 87015
9 | 19:20.16 | 1:45.08 | 87016 | 94898
10 | 21:05.24 | 2:18.04 | 94899 | 105252
11 | 23:23.28 | 1:59.37 | 105253 | 114214
12 | 25:22.65 | 2:25.08 | 114215 | 125097
13 | 27:47.73 | 2:15.05 | 125098 | 135227
14 | 30:03.03 | 2:36.09 | 135228 | 146936
15 | 32:39.12 | 2:43.25 | 146937 | 159186
16 | 35:22.37 | 2:26.21 | 159187 | 170157
17 | 37:48.58 | 2:23.24 | 170158 | 180906
18 | 40:12.07 | 2:12.20 | 180907 | 190826
19 | 42:24.27 | 2:24.03 | 190827 | 201629
20 | 44:48.30 | 2:35.31 | 201630 | 213285
21 | 47:23.61 | 2:42.52 | 213286 | 225487
22 | 50:06.38 | 4:30.43 | 225488 | 245780
23 | 54:37.06 | 4:07.58 | 245781 | 264363


Track 1

Filename H:\Torrents\Mayer, Nathaniel\Nathaniel Mayer (2006) [VAMPI CD 072] (I Want) Love and Affection (Not the House of Correction)\01. Nathaniel Mayer & His Fabulous Twilights - My Last Dance with You.wav

Pre-gap length 0:00:02.00

Peak level 99.9 %
Extraction speed 3.8 X
Track quality 99.9 %
Test CRC 45F232A7
Copy CRC 45F232A7
Accurately ripped (confidence 2) [DEBA788B] (AR v2)
Copy OK

Track 2

Filename H:\Torrents\Mayer, Nathaniel\Nathaniel Mayer (2006) [VAMPI CD 072] (I Want) Love and Affection (Not the House of Correction)\02. Nathaniel Mayer & His Fabulous Twilights - My Little Darling.wav

Pre-gap length 0:00:01.00

Peak level 100.0 %
Extraction speed 5.4 X
Track quality 100.0 %
Test CRC 33730E11
Copy CRC 33730E11
Accurately ripped (confidence 2) [74A4B2AE] (AR v2)
Copy OK

Track 3

Filename H:\Torrents\Mayer, Nathaniel\Nathaniel Mayer (2006) [VAMPI CD 072] (I Want) Love and Affection (Not the House of Correction)\03. Nathaniel Mayer & His Fabulous Twilights - King of Paradise.wav

Pre-gap length 0:00:01.00

Peak level 100.0 %
Extraction speed 5.3 X
Track quality 100.0 %
Test CRC F34E4E8D
Copy CRC F34E4E8D
Accurately ripped (confidence 2) [56A48480] (AR v2)
Copy OK

Track 4

Filename H:\Torrents\Mayer, Nathaniel\Nathaniel Mayer (2006) [VAMPI CD 072] (I Want) Love and Affection (Not the House of Correction)\04. Nathaniel Mayer & His Fabulous Twilights - Village of Love.wav

Pre-gap length 0:00:02.00

Peak level 99.9 %
Extraction speed 5.6 X
Track quality 100.0 %
Test CRC B3CDFD83
Copy CRC B3CDFD83
Accurately ripped (confidence 2) [D6D06406] (AR v2)
Copy OK

Track 5

Filename H:\Torrents\Mayer, Nathaniel\Nathaniel Mayer (2006) [VAMPI CD 072] (I Want) Love and Affection (Not the House of Correction)\05. Nathaniel Mayer & His Fabulous Twilights - I Want a Woman.wav

Pre-gap length 0:00:02.00

Peak level 100.0 %
Extraction speed 6.1 X
Track quality 100.0 %
Test CRC C4FC9252
Copy CRC C4FC9252
Accurately ripped (confidence 2) [552D20A2] (AR v2)
Copy OK

Track 6

Filename H:\Torrents\Mayer, Nathaniel\Nathaniel Mayer (2006) [VAMPI CD 072] (I Want) Love and Affection (Not the House of Correction)\06. Nathaniel Mayer & His Fabulous Twilights - My Lonely Island.wav

Pre-gap length 0:00:01.00

Peak level 100.0 %
Extraction speed 6.4 X
Track quality 100.0 %
Test CRC 5159E7E0
Copy CRC 5159E7E0
Accurately ripped (confidence 2) [F157CD6C] (AR v2)
Copy OK

Track 7

Filename H:\Torrents\Mayer, Nathaniel\Nathaniel Mayer (2006) [VAMPI CD 072] (I Want) Love and Affection (Not the House of Correction)\07. Nathaniel Mayer & His Fabulous Twilights - Leave Me Alone.wav

Pre-gap length 0:00:02.00

Peak level 99.9 %
Extraction speed 6.5 X
Track quality 100.0 %
Test CRC F546BEC3
Copy CRC F546BEC3
Accurately ripped (confidence 2) [CF702A99] (AR v2)
Copy OK

Track 8

Filename H:\Torrents\Mayer, Nathaniel\Nathaniel Mayer (2006) [VAMPI CD 072] (I Want) Love and Affection (Not the House of Correction)\08. Nathaniel Mayer & His Fabulous Twilights - Hurting Love.wav

Pre-gap length 0:00:02.00

Peak level 100.0 %
Extraction speed 7.1 X
Track quality 100.0 %
Test CRC 8838723B
Copy CRC 8838723B
Accurately ripped (confidence 2) [5AAD4A7E] (AR v2)
Copy OK

Track 9

Filename H:\Torrents\Mayer, Nathaniel\Nathaniel Mayer (2006) [VAMPI CD 072] (I Want) Love and Affection (Not the House of Correction)\09. Nathaniel Mayer & His Fabulous Twilights - Lover Please.wav

Pre-gap length 0:00:02.00

Peak level 100.0 %
Extraction speed 6.6 X
Track quality 100.0 %
Test CRC 70217EB3
Copy CRC 70217EB3
Accurately ripped (confidence 2) [B78A2869] (AR v2)
Copy OK

Track 10

Filename H:\Torrents\Mayer, Nathaniel\Nathaniel Mayer (2006) [VAMPI CD 072] (I Want) Love and Affection (Not the House of Correction)\10. Nathaniel Mayer & His Fabulous Twilights - Work It Out.wav

Pre-gap length 0:00:01.00

Peak level 100.0 %
Extraction speed 7.2 X
Track quality 100.0 %
Test CRC 9A237C9A
Copy CRC 9A237C9A
Accurately ripped (confidence 2) [87E74747] (AR v2)
Copy OK

Track 11

Filename H:\Torrents\Mayer, Nathaniel\Nathaniel Mayer (2006) [VAMPI CD 072] (I Want) Love and Affection (Not the House of Correction)\11. Nathaniel Mayer & His Fabulous Twilights - Well, I've Got News (for You).wav

Pre-gap length 0:00:02.00

Peak level 100.0 %
Extraction speed 5.2 X
Track quality 99.9 %
Test CRC F139D869
Copy CRC F139D869
Accurately ripped (confidence 2) [2F1D4016] (AR v2)
Copy OK

Track 12

Filename H:\Torrents\Mayer, Nathaniel\Nathaniel Mayer (2006) [VAMPI CD 072] (I Want) Love and Affection (Not the House of Correction)\12. Nathaniel Mayer & His Fabulous Twilights - Mr. Santa Claus (Bring Me My Baby).wav

Pre-gap length 0:00:01.00

Peak level 100.0 %
Extraction speed 5.8 X
Track quality 99.9 %
Test CRC 93233CC6
Copy CRC 93233CC6
Accurately ripped (confidence 2) [055EF40A] (AR v2)
Copy OK

Track 13

Filename H:\Torrents\Mayer, Nathaniel\Nathaniel Mayer (2006) [VAMPI CD 072] (I Want) Love and Affection (Not the House of Correction)\13. Nathaniel Mayer & His Fabulous Twilights - I Had a Dream.wav

Pre-gap length 0:00:01.00

Peak level 100.0 %
Extraction speed 7.7 X
Track quality 100.0 %
Test CRC B50B79CE
Copy CRC B50B79CE
Accurately ripped (confidence 2) [E4965462] (AR v2)
Copy OK

Track 14

Filename H:\Torrents\Mayer, Nathaniel\Nathaniel Mayer (2006) [VAMPI CD 072] (I Want) Love and Affection (Not the House of Correction)\14. Nathaniel Mayer & His Fabulous Twilights - I'm Not Gonna Cry.wav

Pre-gap length 0:00:01.00

Peak level 100.0 %
Extraction speed 8.2 X
Track quality 100.0 %
Test CRC 397306B0
Copy CRC 397306B0
Accurately ripped (confidence 2) [00EC9E6D] (AR v2)
Copy OK

Track 15

Filename H:\Torrents\Mayer, Nathaniel\Nathaniel Mayer (2006) [VAMPI CD 072] (I Want) Love and Affection (Not the House of Correction)\15. Nathaniel Mayer & His Fabulous Twilights - Summertime.wav

Pre-gap length 0:00:02.00

Peak level 100.0 %
Extraction speed 6.5 X
Track quality 99.9 %
Test CRC F1652194
Copy CRC F1652194
Accurately ripped (confidence 2) [BF63C363] (AR v2)
Copy OK

Track 16

Filename H:\Torrents\Mayer, Nathaniel\Nathaniel Mayer (2006) [VAMPI CD 072] (I Want) Love and Affection (Not the House of Correction)\16. Nathaniel Mayer & His Fabulous Twilights - Going Back to the Village of Love.wav

Pre-gap length 0:00:02.00

Peak level 100.0 %
Extraction speed 8.5 X
Track quality 100.0 %
Test CRC 220C3304
Copy CRC 220C3304
Accurately ripped (confidence 2) [6DC0AD48] (AR v2)
Copy OK

Track 17

Filename H:\Torrents\Mayer, Nathaniel\Nathaniel Mayer (2006) [VAMPI CD 072] (I Want) Love and Affection (Not the House of Correction)\17. Nathaniel Mayer & His Fabulous Twilights - A Place I Know.wav

Pre-gap length 0:00:02.00

Peak level 100.0 %
Extraction speed 8.7 X
Track quality 100.0 %
Test CRC 17D58E55
Copy CRC 17D58E55
Accurately ripped (confidence 2) [9D193522] (AR v2)
Copy OK

Track 18

Filename H:\Torrents\Mayer, Nathaniel\Nathaniel Mayer (2006) [VAMPI CD 072] (I Want) Love and Affection (Not the House of Correction)\18. Nathaniel Mayer & His Fabulous Twilights - Don't Come Back.wav

Pre-gap length 0:00:02.00

Peak level 100.0 %
Extraction speed 8.7 X
Track quality 100.0 %
Test CRC 44D46787
Copy CRC 44D46787
Accurately ripped (confidence 2) [60522F3D] (AR v2)
Copy OK

Track 19

Filename H:\Torrents\Mayer, Nathaniel\Nathaniel Mayer (2006) [VAMPI CD 072] (I Want) Love and Affection (Not the House of Correction)\19. Nathaniel Mayer With The Fortune Braves - From Now On.wav

Pre-gap length 0:00:02.00

Peak level 100.0 %
Extraction speed 9.0 X
Track quality 100.0 %
Test CRC 9E08E700
Copy CRC 9E08E700
Accurately ripped (confidence 2) [0AF4B2AE] (AR v2)
Copy OK

Track 20

Filename H:\Torrents\Mayer, Nathaniel\Nathaniel Mayer (2006) [VAMPI CD 072] (I Want) Love and Affection (Not the House of Correction)\20. Nathaniel Mayer With The Fortune Braves - (I Want) Love and Affection (Not the House of Correction).wav

Pre-gap length 0:00:01.00

Peak level 100.0 %
Extraction speed 9.3 X
Track quality 100.0 %
Test CRC 1BD2371E
Copy CRC 1BD2371E
Accurately ripped (confidence 2) [250E489E] (AR v2)
Copy OK

Track 21

Filename H:\Torrents\Mayer, Nathaniel\Nathaniel Mayer (2006) [VAMPI CD 072] (I Want) Love and Affection (Not the House of Correction)\21. Nathaniel Mayer & His Fabulous Twilights - Where Will You Be.wav

Pre-gap length 0:00:02.00

Peak level 100.0 %
Extraction speed 7.3 X
Track quality 99.9 %
Test CRC 844C7943
Copy CRC 844C7943
Accurately ripped (confidence 2) [549174BF] (AR v2)
Copy OK

Track 22

Filename H:\Torrents\Mayer, Nathaniel\Nathaniel Mayer (2006) [VAMPI CD 072] (I Want) Love and Affection (Not the House of Correction)\22. Nathaniel Mayer & The Filthy McNasty Group Plus Freestyle - Super Boogie.wav

Pre-gap length 0:00:01.00

Peak level 100.0 %
Extraction speed 8.8 X
Track quality 99.9 %
Test CRC FD362B96
Copy CRC FD362B96
Accurately ripped (confidence 2) [84518F5D] (AR v2)
Copy OK

Track 23

Filename H:\Torrents\Mayer, Nathaniel\Nathaniel Mayer (2006) [VAMPI CD 072] (I Want) Love and Affection (Not the House of Correction)\23. Nathaniel Mayer & The Filthy McNasty Group Plus Freestyle - Raise the Curtain High.wav

Pre-gap length 0:00:01.00

Peak level 99.9 %
Extraction speed 10.8 X
Track quality 100.0 %
Test CRC BBBAD69B
Copy CRC BBBAD69B
Accurately ripped (confidence 2) [AA14C594] (AR v2)
Copy OK


All tracks accurately ripped

No errors occurred

End of status report

==== Log checksum 825A9EA6C8FB1311646D698602FDEF5C05BB2509AB95B59FE0C54FE7A9B1C069 ====

All thanks go to the Poupsicot88

More Music in My Blog
Follow My RSS Channel