Subcategories
Tags
Language
Tags

Neil Diamond - Hot August Night III (2018)

Posted By: delpotro
Neil Diamond - Hot August Night III (2018)

Neil Diamond - Hot August Night III (2018)
EAC Rip | FLAC (tracks+log+.cue) - 1 Gb | Scans - 228 Mb | 02:22:38
Soft Rock | Label: Capitol Records, Universal Music

‘Hot August Night III’ chronicles Neil Diamond’s triumphant return to the Greek Theater, in 2012, for a compelling performance that ranks among his greatest.

Since its first show, in June 1931, The Greek Theatre, a gorgeous 6,000-seater in Griffith Park, Los Angeles, has played host to some of music’s greats. Frank Sinatra, Elton John and Bruce Springsteen are among those who have graced its temple-like stage, but the venue will be forever associated with Neil Diamond, whose Hot August Night III is the third electrifying live album he has made at the venue. It chronicles Diamond’s triumphant return to the Greek, in August 2012, on the 40th-anniversary celebration of the multi-platinum Hot August Night album of 1972.

When Diamond recorded the original Hot August Night, it was at the end of six years on the road establishing himself. “So we pulled out all the stops and let it all hang out,” Diamond said. “I didn’t know fans would remember it for 40 years.” The album made him a superstar, and Diamond described his 2012 return as “an opportunity to pay back a debt I feel I owe to the audience in southern California for being so loyal and supportive. It’s a chance for them to hear the music done as well as we can ever do it.”

The energy and affection of the audience is palpable, as Diamond delivers 33 songs, including some of his most celebrated hits. Hot August Night III, released on 17 August, through Capitol/UMe, comes as a live double-CD or a deluxe version with a DVD of the concert. The original album’s title was taken from the opening line to Diamond’s 1969 song ‘Brother Love’s Travelling Salvation Show’ – a moving track later covered by both Peggy Lee and Dolly Parton.

The follow-up to the 1972 record came 15 years later, and Hot August Night III was recorded after a special week for Diamond, who was 71 at the time. He had recently received a Kennedy Center honour and, on 12 August 2012, a week before the concert series at The Greek Theatre started, he had received a star on the Hollywood Walk Of Fame.

New York-born Diamond seems visibly moved during the introduction to ‘Cherry, Cherry’ when he acknowledges that the Greek Theatre “made my day, made my year, made my professional life” and asks for the house to lights to be turned up so he can “take in” the crowd. “I love you,” he says to the adoring fans. “This is a beautiful sight for me.”

Diamond, dressed casually and featuring on acoustic guitar, is centre stage and backed by an exceptional 14-piece band, which includes singer Linda Press, guitarist Doug Rhone (who played on the Bellamy Brothers hit ‘Let Your Love Flow’), conga player King Errisson (who worked with jazz legend Cannonball Adderley) and Ron Tutt on drums. There is also a full orchestra.

Tutt, who turned 80 this year, worked with numerous legends, including Elvis Presley, Carpenters and Roy Orbison, and has been a longstanding part of Diamond’s musical sound. Tutt said: “The two greatest music influences on my life would be Elvis Presley and Neil Diamond. Elvis for the flashy, explosive, slightly out of control style of playing that he brought out in me that mirrored his performance and personality. Neil has influenced me to be a disciplined team player. He leaves little to chance. He makes sure we are all well-rehearsed and fundamentally prepared.”

That slick professionalism infuses an album which opens with a joyous version of ‘Sooliamon’ and rises to several emotional peaks. Diamond introduces his immigrant anthem, ‘America’ – which was originally on the 1980 soundtrack to The Jazz Singer – by paying tribute to his grandmother, who emigrated to the US from Russia in the early 1900s. “She and her daughter, Rose, inspired me to achieve everything that I’ve achieved in my life,” Diamond says, holding up a photograph of her to the crowd. “Her courage will never be forgotten.” Ever the showman, Diamond sings to a backdrop of digital fireworks and red, white and blue imagery.

There are show-stopping tunes throughout Hot August Night III, including the singalong reprisals of ‘Red, Red Wine’, a rousing version of ‘Sweet Caroline’ that brings the audience to its feet and a sweetly nostalgic interpretation of ‘Brother Love’s Travelling Salvation Show’. There is also a fine rendition of the deceptively heavyweight song ‘I Am… I Said’. The hits – including ‘Cracklin’ Rosie’, ‘Love On the Rocks’ and ‘You Don’t Bring Me Flowers’ – flow like wine.

Throughout his illustrious career, Diamond has sold more than 130 million albums and had 38 Top 40 singles, and it is no surprise that he exudes confidence and class throughout this special show. But what makes Hot August Night III special is the deep connection Diamond has with one of the most devoted fanbases in music. This compelling album is an extended serenade to them.
Tracklist:
CD 1
01. Overture
02. Soolaimon
03. Beautiful noise
04. Forever in blue jeans
05. Love on the rocks
06. Hello again
07. September morn
08. Play me
09. Shilo
10. Red red wine
11. You got to me
12. Girl you'll be a woman soon
13. Thank the Lord for the night time
14. Cherry Cherry
15. Kentucky woman
16. Solitary man
17. Glory road
18. Chelsea morning
19. I'm a believer
20. Happy birthday Rose
21. Cracklin' Rosie

CD 2
01. And the grass won't pay no mind
02. Pretty amazing Grace
03. We
04. Stones
05. You don't bring me flowers
06. Holly holy
07. Morningside
08. Crunchy granola suite
09. Sweet Caroline
10. Sweet Caroline [reprise]
11. I am… I said
12. Walk off
13. America
14. Brother love's travelling salvation show
15. I've been this way before
16. Walk off
17. Band bows
18. Audience exit

Exact Audio Copy V1.3 from 2. September 2016

EAC extraction logfile from 9. October 2018, 11:58

Neil Diamond / Hot August Night III (Disc 1)

Used drive : PLEXTOR PX-891SAF Adapter: 1 ID: 0

Read mode : Secure
Utilize accurate stream : Yes
Defeat audio cache : Yes
Make use of C2 pointers : No

Read offset correction : 6
Overread into Lead-In and Lead-Out : No
Fill up missing offset samples with silence : Yes
Delete leading and trailing silent blocks : No
Null samples used in CRC calculations : Yes
Used interface : Native Win32 interface for Win NT & 2000
Gap handling : Appended to previous track

Used output format : User Defined Encoder
Selected bitrate : 1024 kBit/s
Quality : High
Add ID3 tag : No
Command line compressor : C:\Program Files (x86)\Exact Audio Copy\Flac\flac.exe
Additional command line options : -8 -V -T "ARTIST=%artist%" -T "TITLE=%title%" -T "ALBUM=%albumtitle%" -T "DATE=%year%" -T "TRACKNUMBER=%tracknr%" -T "GENRE=%genre%" -T "PERFORMER=%albuminterpret%" -T "COMPOSER=%composer%" %haslyrics%–tag-from-file=LYRICS="%lyricsfile%"%haslyrics% -T "ALBUMARTIST=%albumartist%" -T "DISCNUMBER=%cdnumber%" -T "TOTALDISCS=%totalcds%" -T "TOTALTRACKS=%numtracks%" -T "COMMENT=%comment%" %source% -o %dest%


TOC of the extracted CD

Track | Start | Length | Start sector | End sector
––––––––––––––––––––––––––––-
1 | 0:00.18 | 2:13.54 | 18 | 10046
2 | 2:13.72 | 3:03.38 | 10047 | 23809
3 | 5:17.35 | 3:26.57 | 23810 | 39316
4 | 8:44.17 | 3:40.50 | 39317 | 55866
5 | 12:24.67 | 3:31.22 | 55867 | 71713
6 | 15:56.14 | 3:40.64 | 71714 | 88277
7 | 19:37.03 | 3:51.23 | 88278 | 105625
8 | 23:28.26 | 3:56.37 | 105626 | 123362
9 | 27:24.63 | 3:50.00 | 123363 | 140612
10 | 31:14.63 | 2:30.05 | 140613 | 151867
11 | 33:44.68 | 2:51.42 | 151868 | 164734
12 | 36:36.35 | 3:19.52 | 164735 | 179711
13 | 39:56.12 | 4:39.07 | 179712 | 200643
14 | 44:35.19 | 7:34.44 | 200644 | 234737
15 | 52:09.63 | 2:05.01 | 234738 | 244113
16 | 54:14.64 | 3:06.57 | 244114 | 258120
17 | 57:21.46 | 6:37.60 | 258121 | 287955
18 | 63:59.31 | 2:40.28 | 287956 | 299983
19 | 66:39.59 | 7:15.16 | 299984 | 332624
20 | 73:55.00 | 1:04.52 | 332625 | 337476
21 | 74:59.52 | 2:53.48 | 337477 | 350499


Track 1

Filename D:\Rotterdam 5\Neil Diamond - Hot August Night III\cd 1\01. Neil Diamond - Overture - Soolaimon.wav

Pre-gap length 0:00:02.24

Peak level 95.8 %
Extraction speed 5.0 X
Track quality 100.0 %
Test CRC E96B2EF6
Copy CRC E96B2EF6
Accurately ripped (confidence 7) [8A1CB118] (AR v2)
Copy OK

Track 2

Filename D:\Rotterdam 5\Neil Diamond - Hot August Night III\cd 1\02. Neil Diamond - Soolaimon.wav

Peak level 96.2 %
Extraction speed 5.7 X
Track quality 100.0 %
Test CRC 799079FB
Copy CRC 799079FB
Accurately ripped (confidence 7) [2893D692] (AR v2)
Copy OK

Track 3

Filename D:\Rotterdam 5\Neil Diamond - Hot August Night III\cd 1\03. Neil Diamond - Beautiful Noise.wav

Peak level 96.2 %
Extraction speed 6.2 X
Track quality 100.0 %
Test CRC 7F0DC0D2
Copy CRC 7F0DC0D2
Accurately ripped (confidence 7) [0A3C5B4E] (AR v2)
Copy OK

Track 4

Filename D:\Rotterdam 5\Neil Diamond - Hot August Night III\cd 1\04. Neil Diamond - Forever In Blue Jeans.wav

Peak level 96.3 %
Extraction speed 6.5 X
Track quality 100.0 %
Test CRC 9CE583C5
Copy CRC 9CE583C5
Accurately ripped (confidence 7) [8DB60113] (AR v2)
Copy OK

Track 5

Filename D:\Rotterdam 5\Neil Diamond - Hot August Night III\cd 1\05. Neil Diamond - Love On The Rocks.wav

Peak level 95.9 %
Extraction speed 7.0 X
Track quality 100.0 %
Test CRC EDF9488C
Copy CRC EDF9488C
Accurately ripped (confidence 7) [A82A2DFA] (AR v2)
Copy OK

Track 6

Filename D:\Rotterdam 5\Neil Diamond - Hot August Night III\cd 1\06. Neil Diamond - Hello Again.wav

Peak level 96.1 %
Extraction speed 7.3 X
Track quality 100.0 %
Test CRC AA49D63A
Copy CRC AA49D63A
Accurately ripped (confidence 7) [8E07EBBC] (AR v2)
Copy OK

Track 7

Filename D:\Rotterdam 5\Neil Diamond - Hot August Night III\cd 1\07. Neil Diamond - September Morn.wav

Peak level 95.7 %
Extraction speed 7.8 X
Track quality 100.0 %
Test CRC A54B6FEC
Copy CRC A54B6FEC
Accurately ripped (confidence 7) [3C116D5A] (AR v2)
Copy OK

Track 8

Filename D:\Rotterdam 5\Neil Diamond - Hot August Night III\cd 1\08. Neil Diamond - Play Me.wav

Peak level 95.9 %
Extraction speed 8.1 X
Track quality 100.0 %
Test CRC 3C96528E
Copy CRC 3C96528E
Accurately ripped (confidence 7) [6393FECE] (AR v2)
Copy OK

Track 9

Filename D:\Rotterdam 5\Neil Diamond - Hot August Night III\cd 1\09. Neil Diamond - Shilo.wav

Peak level 96.2 %
Extraction speed 8.3 X
Track quality 100.0 %
Test CRC A3A4B3B0
Copy CRC A3A4B3B0
Accurately ripped (confidence 7) [4373E94D] (AR v2)
Copy OK

Track 10

Filename D:\Rotterdam 5\Neil Diamond - Hot August Night III\cd 1\10. Neil Diamond - Red Red Wine.wav

Peak level 96.0 %
Extraction speed 6.3 X
Track quality 99.9 %
Test CRC 304452F6
Copy CRC 304452F6
Accurately ripped (confidence 7) [2D69B533] (AR v2)
Copy OK

Track 11

Filename D:\Rotterdam 5\Neil Diamond - Hot August Night III\cd 1\11. Neil Diamond - You Got To Me.wav

Peak level 96.4 %
Extraction speed 8.4 X
Track quality 100.0 %
Test CRC 062A4A2E
Copy CRC 062A4A2E
Accurately ripped (confidence 7) [932D8BD5] (AR v2)
Copy OK

Track 12

Filename D:\Rotterdam 5\Neil Diamond - Hot August Night III\cd 1\12. Neil Diamond - Girl You'll Be A Woman Soon.wav

Peak level 96.0 %
Extraction speed 8.8 X
Track quality 100.0 %
Test CRC 635347DC
Copy CRC 635347DC
Accurately ripped (confidence 7) [A37155FB] (AR v2)
Copy OK

Track 13

Filename D:\Rotterdam 5\Neil Diamond - Hot August Night III\cd 1\13. Neil Diamond - Thank The Lord For The Night Time.wav

Peak level 96.1 %
Extraction speed 9.7 X
Track quality 100.0 %
Test CRC 19D6461A
Copy CRC 19D6461A
Accurately ripped (confidence 7) [35E6DE4D] (AR v2)
Copy OK

Track 14

Filename D:\Rotterdam 5\Neil Diamond - Hot August Night III\cd 1\14. Neil Diamond - Cherry, Cherry.wav

Peak level 96.3 %
Extraction speed 11.0 X
Track quality 100.0 %
Test CRC 6CC4F763
Copy CRC 6CC4F763
Accurately ripped (confidence 7) [4E3D6CAC] (AR v2)
Copy OK

Track 15

Filename D:\Rotterdam 5\Neil Diamond - Hot August Night III\cd 1\15. Neil Diamond - Kentucky Woman.wav

Peak level 96.2 %
Extraction speed 9.5 X
Track quality 100.0 %
Test CRC EEA8D1F1
Copy CRC EEA8D1F1
Accurately ripped (confidence 7) [8DC4A921] (AR v2)
Copy OK

Track 16

Filename D:\Rotterdam 5\Neil Diamond - Hot August Night III\cd 1\16. Neil Diamond - Solitary Man.wav

Peak level 96.5 %
Extraction speed 10.3 X
Track quality 100.0 %
Test CRC 8DA3828D
Copy CRC 8DA3828D
Accurately ripped (confidence 7) [698B87E1] (AR v2)
Copy OK

Track 17

Filename D:\Rotterdam 5\Neil Diamond - Hot August Night III\cd 1\17. Neil Diamond - Glory Road.wav

Peak level 95.9 %
Extraction speed 11.8 X
Track quality 100.0 %
Test CRC C3399A36
Copy CRC C3399A36
Accurately ripped (confidence 7) [DA40B1C5] (AR v2)
Copy OK

Track 18

Filename D:\Rotterdam 5\Neil Diamond - Hot August Night III\cd 1\18. Neil Diamond - Chelsea Morning.wav

Peak level 95.9 %
Extraction speed 10.5 X
Track quality 100.0 %
Test CRC 5EE0D6DA
Copy CRC 5EE0D6DA
Accurately ripped (confidence 7) [80712F03] (AR v2)
Copy OK

Track 19

Filename D:\Rotterdam 5\Neil Diamond - Hot August Night III\cd 1\19. Neil Diamond - I'm A Believer.wav

Peak level 96.3 %
Extraction speed 11.1 X
Track quality 99.9 %
Test CRC F0DB9B01
Copy CRC F0DB9B01
Accurately ripped (confidence 7) [53C89C8B] (AR v2)
Copy OK

Track 20

Filename D:\Rotterdam 5\Neil Diamond - Hot August Night III\cd 1\20. Neil Diamond - Happy Birthday Rose.wav

Peak level 95.7 %
Extraction speed 8.8 X
Track quality 100.0 %
Test CRC 785126C6
Copy CRC 785126C6
Accurately ripped (confidence 7) [81FA3557] (AR v2)
Copy OK

Track 21

Filename D:\Rotterdam 5\Neil Diamond - Hot August Night III\cd 1\21. Neil Diamond - Cracklin' Rosie.wav

Peak level 96.1 %
Extraction speed 8.9 X
Track quality 99.9 %
Test CRC E0F594AF
Copy CRC E0F594AF
Accurately ripped (confidence 7) [A04D97A9] (AR v2)
Copy OK


All tracks accurately ripped

No errors occurred

End of status report

–– CUETools DB Plugin V2.1.6

[CTDB TOCID: 3em0Q6Qp.2AsquWT2wYO0va3LMM-] found
Submit result: 3em0Q6Qp.2AsquWT2wYO0va3LMM- has been confirmed
Track | CTDB Status
1 | (16/16) Accurately ripped
2 | (16/16) Accurately ripped
3 | (16/16) Accurately ripped
4 | (16/16) Accurately ripped
5 | (16/16) Accurately ripped
6 | (16/16) Accurately ripped
7 | (16/16) Accurately ripped
8 | (16/16) Accurately ripped
9 | (16/16) Accurately ripped
10 | (16/16) Accurately ripped
11 | (16/16) Accurately ripped
12 | (16/16) Accurately ripped
13 | (16/16) Accurately ripped
14 | (16/16) Accurately ripped
15 | (16/16) Accurately ripped
16 | (16/16) Accurately ripped
17 | (16/16) Accurately ripped
18 | (16/16) Accurately ripped
19 | (16/16) Accurately ripped
20 | (16/16) Accurately ripped
21 | (16/16) Accurately ripped


==== Log checksum D02F74C543F9A23B52FB6457B2910BB3323E8159942D5119F91B57A8F7186D0B ====

––––––––––––––––––––––––––––––

Exact Audio Copy V1.3 from 2. September 2016

EAC extraction logfile from 9. October 2018, 11:58

Neil Diamond / Hot August Night III (Disc 1)

Used drive : PLEXTOR PX-891SAF Adapter: 1 ID: 0

Read mode : Secure
Utilize accurate stream : Yes
Defeat audio cache : Yes
Make use of C2 pointers : No

Read offset correction : 6
Overread into Lead-In and Lead-Out : No
Fill up missing offset samples with silence : Yes
Delete leading and trailing silent blocks : No
Null samples used in CRC calculations : Yes
Used interface : Native Win32 interface for Win NT & 2000
Gap handling : Appended to previous track

Used output format : User Defined Encoder
Selected bitrate : 1024 kBit/s
Quality : High
Add ID3 tag : No
Command line compressor : C:\Program Files (x86)\Exact Audio Copy\Flac\flac.exe
Additional command line options : -8 -V -T "ARTIST=%artist%" -T "TITLE=%title%" -T "ALBUM=%albumtitle%" -T "DATE=%year%" -T "TRACKNUMBER=%tracknr%" -T "GENRE=%genre%" -T "PERFORMER=%albuminterpret%" -T "COMPOSER=%composer%" %haslyrics%–tag-from-file=LYRICS="%lyricsfile%"%haslyrics% -T "ALBUMARTIST=%albumartist%" -T "DISCNUMBER=%cdnumber%" -T "TOTALDISCS=%totalcds%" -T "TOTALTRACKS=%numtracks%" -T "COMMENT=%comment%" %source% -o %dest%


TOC of the extracted CD

Track | Start | Length | Start sector | End sector
––––––––––––––––––––––––––––-
1 | 0:00.18 | 2:13.54 | 18 | 10046
2 | 2:13.72 | 3:03.38 | 10047 | 23809
3 | 5:17.35 | 3:26.57 | 23810 | 39316
4 | 8:44.17 | 3:40.50 | 39317 | 55866
5 | 12:24.67 | 3:31.22 | 55867 | 71713
6 | 15:56.14 | 3:40.64 | 71714 | 88277
7 | 19:37.03 | 3:51.23 | 88278 | 105625
8 | 23:28.26 | 3:56.37 | 105626 | 123362
9 | 27:24.63 | 3:50.00 | 123363 | 140612
10 | 31:14.63 | 2:30.05 | 140613 | 151867
11 | 33:44.68 | 2:51.42 | 151868 | 164734
12 | 36:36.35 | 3:19.52 | 164735 | 179711
13 | 39:56.12 | 4:39.07 | 179712 | 200643
14 | 44:35.19 | 7:34.44 | 200644 | 234737
15 | 52:09.63 | 2:05.01 | 234738 | 244113
16 | 54:14.64 | 3:06.57 | 244114 | 258120
17 | 57:21.46 | 6:37.60 | 258121 | 287955
18 | 63:59.31 | 2:40.28 | 287956 | 299983
19 | 66:39.59 | 7:15.16 | 299984 | 332624
20 | 73:55.00 | 1:04.52 | 332625 | 337476
21 | 74:59.52 | 2:53.48 | 337477 | 350499


Track 1

Filename D:\Rotterdam 5\Neil Diamond - Hot August Night III\cd 1\01. Neil Diamond - Overture - Soolaimon.wav

Pre-gap length 0:00:02.24

Peak level 95.8 %
Extraction speed 5.0 X
Track quality 100.0 %
Test CRC E96B2EF6
Copy CRC E96B2EF6
Accurately ripped (confidence 7) [8A1CB118] (AR v2)
Copy OK

Track 2

Filename D:\Rotterdam 5\Neil Diamond - Hot August Night III\cd 1\02. Neil Diamond - Soolaimon.wav

Peak level 96.2 %
Extraction speed 5.7 X
Track quality 100.0 %
Test CRC 799079FB
Copy CRC 799079FB
Accurately ripped (confidence 7) [2893D692] (AR v2)
Copy OK

Track 3

Filename D:\Rotterdam 5\Neil Diamond - Hot August Night III\cd 1\03. Neil Diamond - Beautiful Noise.wav

Peak level 96.2 %
Extraction speed 6.2 X
Track quality 100.0 %
Test CRC 7F0DC0D2
Copy CRC 7F0DC0D2
Accurately ripped (confidence 7) [0A3C5B4E] (AR v2)
Copy OK

Track 4

Filename D:\Rotterdam 5\Neil Diamond - Hot August Night III\cd 1\04. Neil Diamond - Forever In Blue Jeans.wav

Peak level 96.3 %
Extraction speed 6.5 X
Track quality 100.0 %
Test CRC 9CE583C5
Copy CRC 9CE583C5
Accurately ripped (confidence 7) [8DB60113] (AR v2)
Copy OK

Track 5

Filename D:\Rotterdam 5\Neil Diamond - Hot August Night III\cd 1\05. Neil Diamond - Love On The Rocks.wav

Peak level 95.9 %
Extraction speed 7.0 X
Track quality 100.0 %
Test CRC EDF9488C
Copy CRC EDF9488C
Accurately ripped (confidence 7) [A82A2DFA] (AR v2)
Copy OK

Track 6

Filename D:\Rotterdam 5\Neil Diamond - Hot August Night III\cd 1\06. Neil Diamond - Hello Again.wav

Peak level 96.1 %
Extraction speed 7.3 X
Track quality 100.0 %
Test CRC AA49D63A
Copy CRC AA49D63A
Accurately ripped (confidence 7) [8E07EBBC] (AR v2)
Copy OK

Track 7

Filename D:\Rotterdam 5\Neil Diamond - Hot August Night III\cd 1\07. Neil Diamond - September Morn.wav

Peak level 95.7 %
Extraction speed 7.8 X
Track quality 100.0 %
Test CRC A54B6FEC
Copy CRC A54B6FEC
Accurately ripped (confidence 7) [3C116D5A] (AR v2)
Copy OK

Track 8

Filename D:\Rotterdam 5\Neil Diamond - Hot August Night III\cd 1\08. Neil Diamond - Play Me.wav

Peak level 95.9 %
Extraction speed 8.1 X
Track quality 100.0 %
Test CRC 3C96528E
Copy CRC 3C96528E
Accurately ripped (confidence 7) [6393FECE] (AR v2)
Copy OK

Track 9

Filename D:\Rotterdam 5\Neil Diamond - Hot August Night III\cd 1\09. Neil Diamond - Shilo.wav

Peak level 96.2 %
Extraction speed 8.3 X
Track quality 100.0 %
Test CRC A3A4B3B0
Copy CRC A3A4B3B0
Accurately ripped (confidence 7) [4373E94D] (AR v2)
Copy OK

Track 10

Filename D:\Rotterdam 5\Neil Diamond - Hot August Night III\cd 1\10. Neil Diamond - Red Red Wine.wav

Peak level 96.0 %
Extraction speed 6.3 X
Track quality 99.9 %
Test CRC 304452F6
Copy CRC 304452F6
Accurately ripped (confidence 7) [2D69B533] (AR v2)
Copy OK

Track 11

Filename D:\Rotterdam 5\Neil Diamond - Hot August Night III\cd 1\11. Neil Diamond - You Got To Me.wav

Peak level 96.4 %
Extraction speed 8.4 X
Track quality 100.0 %
Test CRC 062A4A2E
Copy CRC 062A4A2E
Accurately ripped (confidence 7) [932D8BD5] (AR v2)
Copy OK

Track 12

Filename D:\Rotterdam 5\Neil Diamond - Hot August Night III\cd 1\12. Neil Diamond - Girl You'll Be A Woman Soon.wav

Peak level 96.0 %
Extraction speed 8.8 X
Track quality 100.0 %
Test CRC 635347DC
Copy CRC 635347DC
Accurately ripped (confidence 7) [A37155FB] (AR v2)
Copy OK

Track 13

Filename D:\Rotterdam 5\Neil Diamond - Hot August Night III\cd 1\13. Neil Diamond - Thank The Lord For The Night Time.wav

Peak level 96.1 %
Extraction speed 9.7 X
Track quality 100.0 %
Test CRC 19D6461A
Copy CRC 19D6461A
Accurately ripped (confidence 7) [35E6DE4D] (AR v2)
Copy OK

Track 14

Filename D:\Rotterdam 5\Neil Diamond - Hot August Night III\cd 1\14. Neil Diamond - Cherry, Cherry.wav

Peak level 96.3 %
Extraction speed 11.0 X
Track quality 100.0 %
Test CRC 6CC4F763
Copy CRC 6CC4F763
Accurately ripped (confidence 7) [4E3D6CAC] (AR v2)
Copy OK

Track 15

Filename D:\Rotterdam 5\Neil Diamond - Hot August Night III\cd 1\15. Neil Diamond - Kentucky Woman.wav

Peak level 96.2 %
Extraction speed 9.5 X
Track quality 100.0 %
Test CRC EEA8D1F1
Copy CRC EEA8D1F1
Accurately ripped (confidence 7) [8DC4A921] (AR v2)
Copy OK

Track 16

Filename D:\Rotterdam 5\Neil Diamond - Hot August Night III\cd 1\16. Neil Diamond - Solitary Man.wav

Peak level 96.5 %
Extraction speed 10.3 X
Track quality 100.0 %
Test CRC 8DA3828D
Copy CRC 8DA3828D
Accurately ripped (confidence 7) [698B87E1] (AR v2)
Copy OK

Track 17

Filename D:\Rotterdam 5\Neil Diamond - Hot August Night III\cd 1\17. Neil Diamond - Glory Road.wav

Peak level 95.9 %
Extraction speed 11.8 X
Track quality 100.0 %
Test CRC C3399A36
Copy CRC C3399A36
Accurately ripped (confidence 7) [DA40B1C5] (AR v2)
Copy OK

Track 18

Filename D:\Rotterdam 5\Neil Diamond - Hot August Night III\cd 1\18. Neil Diamond - Chelsea Morning.wav

Peak level 95.9 %
Extraction speed 10.5 X
Track quality 100.0 %
Test CRC 5EE0D6DA
Copy CRC 5EE0D6DA
Accurately ripped (confidence 7) [80712F03] (AR v2)
Copy OK

Track 19

Filename D:\Rotterdam 5\Neil Diamond - Hot August Night III\cd 1\19. Neil Diamond - I'm A Believer.wav

Peak level 96.3 %
Extraction speed 11.1 X
Track quality 99.9 %
Test CRC F0DB9B01
Copy CRC F0DB9B01
Accurately ripped (confidence 7) [53C89C8B] (AR v2)
Copy OK

Track 20

Filename D:\Rotterdam 5\Neil Diamond - Hot August Night III\cd 1\20. Neil Diamond - Happy Birthday Rose.wav

Peak level 95.7 %
Extraction speed 8.8 X
Track quality 100.0 %
Test CRC 785126C6
Copy CRC 785126C6
Accurately ripped (confidence 7) [81FA3557] (AR v2)
Copy OK

Track 21

Filename D:\Rotterdam 5\Neil Diamond - Hot August Night III\cd 1\21. Neil Diamond - Cracklin' Rosie.wav

Peak level 96.1 %
Extraction speed 8.9 X
Track quality 99.9 %
Test CRC E0F594AF
Copy CRC E0F594AF
Accurately ripped (confidence 7) [A04D97A9] (AR v2)
Copy OK


All tracks accurately ripped

No errors occurred

End of status report

–– CUETools DB Plugin V2.1.6

[CTDB TOCID: 3em0Q6Qp.2AsquWT2wYO0va3LMM-] found
Submit result: 3em0Q6Qp.2AsquWT2wYO0va3LMM- has been confirmed
Track | CTDB Status
1 | (16/16) Accurately ripped
2 | (16/16) Accurately ripped
3 | (16/16) Accurately ripped
4 | (16/16) Accurately ripped
5 | (16/16) Accurately ripped
6 | (16/16) Accurately ripped
7 | (16/16) Accurately ripped
8 | (16/16) Accurately ripped
9 | (16/16) Accurately ripped
10 | (16/16) Accurately ripped
11 | (16/16) Accurately ripped
12 | (16/16) Accurately ripped
13 | (16/16) Accurately ripped
14 | (16/16) Accurately ripped
15 | (16/16) Accurately ripped
16 | (16/16) Accurately ripped
17 | (16/16) Accurately ripped
18 | (16/16) Accurately ripped
19 | (16/16) Accurately ripped
20 | (16/16) Accurately ripped
21 | (16/16) Accurately ripped


==== Log checksum D02F74C543F9A23B52FB6457B2910BB3323E8159942D5119F91B57A8F7186D0B ====

Exact Audio Copy V1.3 from 2. September 2016

EAC extraction logfile from 9. October 2018, 12:19

Neil Diamond / Hot August Night III (Disc 2)

Used drive : PLEXTOR PX-891SAF Adapter: 1 ID: 0

Read mode : Secure
Utilize accurate stream : Yes
Defeat audio cache : Yes
Make use of C2 pointers : No

Read offset correction : 6
Overread into Lead-In and Lead-Out : No
Fill up missing offset samples with silence : Yes
Delete leading and trailing silent blocks : No
Null samples used in CRC calculations : Yes
Used interface : Native Win32 interface for Win NT & 2000
Gap handling : Appended to previous track

Used output format : User Defined Encoder
Selected bitrate : 1024 kBit/s
Quality : High
Add ID3 tag : No
Command line compressor : C:\Program Files (x86)\Exact Audio Copy\Flac\flac.exe
Additional command line options : -8 -V -T "ARTIST=%artist%" -T "TITLE=%title%" -T "ALBUM=%albumtitle%" -T "DATE=%year%" -T "TRACKNUMBER=%tracknr%" -T "GENRE=%genre%" -T "PERFORMER=%albuminterpret%" -T "COMPOSER=%composer%" %haslyrics%–tag-from-file=LYRICS="%lyricsfile%"%haslyrics% -T "ALBUMARTIST=%albumartist%" -T "DISCNUMBER=%cdnumber%" -T "TOTALDISCS=%totalcds%" -T "TOTALTRACKS=%numtracks%" -T "COMMENT=%comment%" %source% -o %dest%


TOC of the extracted CD

Track | Start | Length | Start sector | End sector
––––––––––––––––––––––––––––-
1 | 0:00.00 | 4:06.39 | 0 | 18488
2 | 4:06.39 | 3:28.23 | 18489 | 34111
3 | 7:34.62 | 4:26.47 | 34112 | 54108
4 | 12:01.34 | 2:58.44 | 54109 | 67502
5 | 15:00.03 | 4:34.60 | 67503 | 88112
6 | 19:34.63 | 5:11.16 | 88113 | 111453
7 | 24:46.04 | 4:57.24 | 111454 | 133752
8 | 29:43.28 | 5:13.68 | 133753 | 157295
9 | 34:57.21 | 4:48.01 | 157296 | 178896
10 | 39:45.22 | 1:50.23 | 178897 | 187169
11 | 41:35.45 | 4:22.71 | 187170 | 206890
12 | 45:58.41 | 1:23.24 | 206891 | 213139
13 | 47:21.65 | 5:16.34 | 213140 | 236873
14 | 52:38.24 | 5:28.57 | 236874 | 261530
15 | 58:07.06 | 3:28.07 | 261531 | 277137
16 | 61:35.13 | 1:19.13 | 277138 | 283075
17 | 62:54.26 | 1:00.16 | 283076 | 287591
18 | 63:54.42 | 0:51.12 | 287592 | 291428


Track 1

Filename D:\Rotterdam 5\Neil Diamond - Hot August Night III\cd 2\01. Neil Diamond - And The Grass Won't Pay No Mind.wav

Pre-gap length 0:00:02.00

Peak level 95.6 %
Extraction speed 5.3 X
Track quality 100.0 %
Test CRC F4F82559
Copy CRC F4F82559
Accurately ripped (confidence 6) [3FD0C59E] (AR v2)
Copy OK

Track 2

Filename D:\Rotterdam 5\Neil Diamond - Hot August Night III\cd 2\02. Neil Diamond - Pretty Amazing Grace.wav

Peak level 95.9 %
Extraction speed 5.7 X
Track quality 100.0 %
Test CRC 667695F4
Copy CRC 667695F4
Accurately ripped (confidence 6) [B04EF370] (AR v2)
Copy OK

Track 3

Filename D:\Rotterdam 5\Neil Diamond - Hot August Night III\cd 2\03. Neil Diamond - We.wav

Peak level 96.2 %
Extraction speed 6.3 X
Track quality 100.0 %
Test CRC 1E55FE03
Copy CRC 1E55FE03
Accurately ripped (confidence 6) [440A1D93] (AR v2)
Copy OK

Track 4

Filename D:\Rotterdam 5\Neil Diamond - Hot August Night III\cd 2\04. Neil Diamond - Stones.wav

Peak level 95.7 %
Extraction speed 5.2 X
Track quality 99.9 %
Test CRC 35AEDFD7
Copy CRC 35AEDFD7
Accurately ripped (confidence 6) [EB565906] (AR v2)
Copy OK

Track 5

Filename D:\Rotterdam 5\Neil Diamond - Hot August Night III\cd 2\05. Neil Diamond - You Don't Bring Me Flowers.wav

Peak level 96.0 %
Extraction speed 7.2 X
Track quality 100.0 %
Test CRC 30263789
Copy CRC 30263789
Accurately ripped (confidence 6) [C28B0A73] (AR v2)
Copy OK

Track 6

Filename D:\Rotterdam 5\Neil Diamond - Hot August Night III\cd 2\06. Neil Diamond - Holly Holy.wav

Peak level 96.3 %
Extraction speed 7.8 X
Track quality 100.0 %
Test CRC BD3623B2
Copy CRC BD3623B2
Accurately ripped (confidence 6) [7C5C83F8] (AR v2)
Copy OK

Track 7

Filename D:\Rotterdam 5\Neil Diamond - Hot August Night III\cd 2\07. Neil Diamond - Morningside.wav

Peak level 95.7 %
Extraction speed 8.2 X
Track quality 100.0 %
Test CRC 456D988B
Copy CRC 456D988B
Accurately ripped (confidence 6) [92881260] (AR v2)
Copy OK

Track 8

Filename D:\Rotterdam 5\Neil Diamond - Hot August Night III\cd 2\08. Neil Diamond - Crunchy Granola Suite.wav

Peak level 96.2 %
Extraction speed 8.6 X
Track quality 100.0 %
Test CRC 1B4E1565
Copy CRC 1B4E1565
Accurately ripped (confidence 6) [842E9C60] (AR v2)
Copy OK

Track 9

Filename D:\Rotterdam 5\Neil Diamond - Hot August Night III\cd 2\09. Neil Diamond - Sweet Caroline.wav

Peak level 96.2 %
Extraction speed 8.9 X
Track quality 100.0 %
Test CRC AF5D8A28
Copy CRC AF5D8A28
Accurately ripped (confidence 6) [3B101CC9] (AR v2)
Copy OK

Track 10

Filename D:\Rotterdam 5\Neil Diamond - Hot August Night III\cd 2\10. Neil Diamond - Sweet Caroline - Reprise.wav

Peak level 96.4 %
Extraction speed 7.8 X
Track quality 100.0 %
Test CRC 81C2AB74
Copy CRC 81C2AB74
Accurately ripped (confidence 6) [85A99195] (AR v2)
Copy OK

Track 11

Filename D:\Rotterdam 5\Neil Diamond - Hot August Night III\cd 2\11. Neil Diamond - I Am… I Said.wav

Peak level 95.8 %
Extraction speed 7.9 X
Track quality 99.9 %
Test CRC 863C9A27
Copy CRC 863C9A27
Accurately ripped (confidence 6) [761AA33B] (AR v2)
Copy OK

Track 12

Filename D:\Rotterdam 5\Neil Diamond - Hot August Night III\cd 2\12. Neil Diamond - Walk Off #1.wav

Peak level 96.0 %
Extraction speed 5.2 X
Track quality 99.8 %
Test CRC E263CAED
Copy CRC E263CAED
Accurately ripped (confidence 6) [FCE6B53E] (AR v2)
Copy OK

Track 13

Filename D:\Rotterdam 5\Neil Diamond - Hot August Night III\cd 2\13. Neil Diamond - America.wav

Peak level 97.1 %
Extraction speed 9.9 X
Track quality 100.0 %
Test CRC 0C911599
Copy CRC 0C911599
Accurately ripped (confidence 6) [5E553E5F] (AR v2)
Copy OK

Track 14

Filename D:\Rotterdam 5\Neil Diamond - Hot August Night III\cd 2\14. Neil Diamond - Brother Love's Travelling Salvation Show.wav

Peak level 96.5 %
Extraction speed 10.2 X
Track quality 100.0 %
Test CRC 644C37BC
Copy CRC 644C37BC
Accurately ripped (confidence 6) [AD382FD9] (AR v2)
Copy OK

Track 15

Filename D:\Rotterdam 5\Neil Diamond - Hot August Night III\cd 2\15. Neil Diamond - I've Been This Way Before.wav

Peak level 95.8 %
Extraction speed 10.0 X
Track quality 100.0 %
Test CRC 3D462CDD
Copy CRC 3D462CDD
Accurately ripped (confidence 6) [7965EAEF] (AR v2)
Copy OK

Track 16

Filename D:\Rotterdam 5\Neil Diamond - Hot August Night III\cd 2\16. Neil Diamond - Walk Off #2.wav

Peak level 96.2 %
Extraction speed 8.2 X
Track quality 100.0 %
Test CRC 692489CF
Copy CRC 692489CF
Accurately ripped (confidence 6) [A6D786EE] (AR v2)
Copy OK

Track 17

Filename D:\Rotterdam 5\Neil Diamond - Hot August Night III\cd 2\17. Neil Diamond - Band Bows.wav

Peak level 95.7 %
Extraction speed 7.5 X
Track quality 100.0 %
Test CRC 47792E78
Copy CRC 47792E78
Accurately ripped (confidence 6) [93CCD193] (AR v2)
Copy OK

Track 18

Filename D:\Rotterdam 5\Neil Diamond - Hot August Night III\cd 2\18. Neil Diamond - Audience Exit.wav

Peak level 73.8 %
Extraction speed 4.2 X
Track quality 99.7 %
Test CRC 76FE2D67
Copy CRC 76FE2D67
Accurately ripped (confidence 6) [0DE0785D] (AR v2)
Copy OK


All tracks accurately ripped

No errors occurred

End of status report

–– CUETools DB Plugin V2.1.6

[CTDB TOCID: 86GRzNapU9Q0ZeVeympuMYEycSM-] found
Submit result: 86GRzNapU9Q0ZeVeympuMYEycSM- has been confirmed
Track | CTDB Status
1 | (18/18) Accurately ripped
2 | (18/18) Accurately ripped
3 | (18/18) Accurately ripped
4 | (18/18) Accurately ripped
5 | (18/18) Accurately ripped
6 | (18/18) Accurately ripped
7 | (18/18) Accurately ripped
8 | (18/18) Accurately ripped
9 | (18/18) Accurately ripped
10 | (18/18) Accurately ripped
11 | (18/18) Accurately ripped
12 | (18/18) Accurately ripped
13 | (18/18) Accurately ripped
14 | (18/18) Accurately ripped
15 | (18/18) Accurately ripped
16 | (18/18) Accurately ripped
17 | (18/18) Accurately ripped
18 | (18/18) Accurately ripped


==== Log checksum B07510BF66576826DEBEDE26BE8FF2E81905FF59B219DA33674E3C46DA8CBABF ====

––––––––––––––––––––––––––––––

Exact Audio Copy V1.3 from 2. September 2016

EAC extraction logfile from 9. October 2018, 12:19

Neil Diamond / Hot August Night III (Disc 2)

Used drive : PLEXTOR PX-891SAF Adapter: 1 ID: 0

Read mode : Secure
Utilize accurate stream : Yes
Defeat audio cache : Yes
Make use of C2 pointers : No

Read offset correction : 6
Overread into Lead-In and Lead-Out : No
Fill up missing offset samples with silence : Yes
Delete leading and trailing silent blocks : No
Null samples used in CRC calculations : Yes
Used interface : Native Win32 interface for Win NT & 2000
Gap handling : Appended to previous track

Used output format : User Defined Encoder
Selected bitrate : 1024 kBit/s
Quality : High
Add ID3 tag : No
Command line compressor : C:\Program Files (x86)\Exact Audio Copy\Flac\flac.exe
Additional command line options : -8 -V -T "ARTIST=%artist%" -T "TITLE=%title%" -T "ALBUM=%albumtitle%" -T "DATE=%year%" -T "TRACKNUMBER=%tracknr%" -T "GENRE=%genre%" -T "PERFORMER=%albuminterpret%" -T "COMPOSER=%composer%" %haslyrics%–tag-from-file=LYRICS="%lyricsfile%"%haslyrics% -T "ALBUMARTIST=%albumartist%" -T "DISCNUMBER=%cdnumber%" -T "TOTALDISCS=%totalcds%" -T "TOTALTRACKS=%numtracks%" -T "COMMENT=%comment%" %source% -o %dest%


TOC of the extracted CD

Track | Start | Length | Start sector | End sector
––––––––––––––––––––––––––––-
1 | 0:00.00 | 4:06.39 | 0 | 18488
2 | 4:06.39 | 3:28.23 | 18489 | 34111
3 | 7:34.62 | 4:26.47 | 34112 | 54108
4 | 12:01.34 | 2:58.44 | 54109 | 67502
5 | 15:00.03 | 4:34.60 | 67503 | 88112
6 | 19:34.63 | 5:11.16 | 88113 | 111453
7 | 24:46.04 | 4:57.24 | 111454 | 133752
8 | 29:43.28 | 5:13.68 | 133753 | 157295
9 | 34:57.21 | 4:48.01 | 157296 | 178896
10 | 39:45.22 | 1:50.23 | 178897 | 187169
11 | 41:35.45 | 4:22.71 | 187170 | 206890
12 | 45:58.41 | 1:23.24 | 206891 | 213139
13 | 47:21.65 | 5:16.34 | 213140 | 236873
14 | 52:38.24 | 5:28.57 | 236874 | 261530
15 | 58:07.06 | 3:28.07 | 261531 | 277137
16 | 61:35.13 | 1:19.13 | 277138 | 283075
17 | 62:54.26 | 1:00.16 | 283076 | 287591
18 | 63:54.42 | 0:51.12 | 287592 | 291428


Track 1

Filename D:\Rotterdam 5\Neil Diamond - Hot August Night III\cd 2\01. Neil Diamond - And The Grass Won't Pay No Mind.wav

Pre-gap length 0:00:02.00

Peak level 95.6 %
Extraction speed 5.3 X
Track quality 100.0 %
Test CRC F4F82559
Copy CRC F4F82559
Accurately ripped (confidence 6) [3FD0C59E] (AR v2)
Copy OK

Track 2

Filename D:\Rotterdam 5\Neil Diamond - Hot August Night III\cd 2\02. Neil Diamond - Pretty Amazing Grace.wav

Peak level 95.9 %
Extraction speed 5.7 X
Track quality 100.0 %
Test CRC 667695F4
Copy CRC 667695F4
Accurately ripped (confidence 6) [B04EF370] (AR v2)
Copy OK

Track 3

Filename D:\Rotterdam 5\Neil Diamond - Hot August Night III\cd 2\03. Neil Diamond - We.wav

Peak level 96.2 %
Extraction speed 6.3 X
Track quality 100.0 %
Test CRC 1E55FE03
Copy CRC 1E55FE03
Accurately ripped (confidence 6) [440A1D93] (AR v2)
Copy OK

Track 4

Filename D:\Rotterdam 5\Neil Diamond - Hot August Night III\cd 2\04. Neil Diamond - Stones.wav

Peak level 95.7 %
Extraction speed 5.2 X
Track quality 99.9 %
Test CRC 35AEDFD7
Copy CRC 35AEDFD7
Accurately ripped (confidence 6) [EB565906] (AR v2)
Copy OK

Track 5

Filename D:\Rotterdam 5\Neil Diamond - Hot August Night III\cd 2\05. Neil Diamond - You Don't Bring Me Flowers.wav

Peak level 96.0 %
Extraction speed 7.2 X
Track quality 100.0 %
Test CRC 30263789
Copy CRC 30263789
Accurately ripped (confidence 6) [C28B0A73] (AR v2)
Copy OK

Track 6

Filename D:\Rotterdam 5\Neil Diamond - Hot August Night III\cd 2\06. Neil Diamond - Holly Holy.wav

Peak level 96.3 %
Extraction speed 7.8 X
Track quality 100.0 %
Test CRC BD3623B2
Copy CRC BD3623B2
Accurately ripped (confidence 6) [7C5C83F8] (AR v2)
Copy OK

Track 7

Filename D:\Rotterdam 5\Neil Diamond - Hot August Night III\cd 2\07. Neil Diamond - Morningside.wav

Peak level 95.7 %
Extraction speed 8.2 X
Track quality 100.0 %
Test CRC 456D988B
Copy CRC 456D988B
Accurately ripped (confidence 6) [92881260] (AR v2)
Copy OK

Track 8

Filename D:\Rotterdam 5\Neil Diamond - Hot August Night III\cd 2\08. Neil Diamond - Crunchy Granola Suite.wav

Peak level 96.2 %
Extraction speed 8.6 X
Track quality 100.0 %
Test CRC 1B4E1565
Copy CRC 1B4E1565
Accurately ripped (confidence 6) [842E9C60] (AR v2)
Copy OK

Track 9

Filename D:\Rotterdam 5\Neil Diamond - Hot August Night III\cd 2\09. Neil Diamond - Sweet Caroline.wav

Peak level 96.2 %
Extraction speed 8.9 X
Track quality 100.0 %
Test CRC AF5D8A28
Copy CRC AF5D8A28
Accurately ripped (confidence 6) [3B101CC9] (AR v2)
Copy OK

Track 10

Filename D:\Rotterdam 5\Neil Diamond - Hot August Night III\cd 2\10. Neil Diamond - Sweet Caroline - Reprise.wav

Peak level 96.4 %
Extraction speed 7.8 X
Track quality 100.0 %
Test CRC 81C2AB74
Copy CRC 81C2AB74
Accurately ripped (confidence 6) [85A99195] (AR v2)
Copy OK

Track 11

Filename D:\Rotterdam 5\Neil Diamond - Hot August Night III\cd 2\11. Neil Diamond - I Am… I Said.wav

Peak level 95.8 %
Extraction speed 7.9 X
Track quality 99.9 %
Test CRC 863C9A27
Copy CRC 863C9A27
Accurately ripped (confidence 6) [761AA33B] (AR v2)
Copy OK

Track 12

Filename D:\Rotterdam 5\Neil Diamond - Hot August Night III\cd 2\12. Neil Diamond - Walk Off #1.wav

Peak level 96.0 %
Extraction speed 5.2 X
Track quality 99.8 %
Test CRC E263CAED
Copy CRC E263CAED
Accurately ripped (confidence 6) [FCE6B53E] (AR v2)
Copy OK

Track 13

Filename D:\Rotterdam 5\Neil Diamond - Hot August Night III\cd 2\13. Neil Diamond - America.wav

Peak level 97.1 %
Extraction speed 9.9 X
Track quality 100.0 %
Test CRC 0C911599
Copy CRC 0C911599
Accurately ripped (confidence 6) [5E553E5F] (AR v2)
Copy OK

Track 14

Filename D:\Rotterdam 5\Neil Diamond - Hot August Night III\cd 2\14. Neil Diamond - Brother Love's Travelling Salvation Show.wav

Peak level 96.5 %
Extraction speed 10.2 X
Track quality 100.0 %
Test CRC 644C37BC
Copy CRC 644C37BC
Accurately ripped (confidence 6) [AD382FD9] (AR v2)
Copy OK

Track 15

Filename D:\Rotterdam 5\Neil Diamond - Hot August Night III\cd 2\15. Neil Diamond - I've Been This Way Before.wav

Peak level 95.8 %
Extraction speed 10.0 X
Track quality 100.0 %
Test CRC 3D462CDD
Copy CRC 3D462CDD
Accurately ripped (confidence 6) [7965EAEF] (AR v2)
Copy OK

Track 16

Filename D:\Rotterdam 5\Neil Diamond - Hot August Night III\cd 2\16. Neil Diamond - Walk Off #2.wav

Peak level 96.2 %
Extraction speed 8.2 X
Track quality 100.0 %
Test CRC 692489CF
Copy CRC 692489CF
Accurately ripped (confidence 6) [A6D786EE] (AR v2)
Copy OK

Track 17

Filename D:\Rotterdam 5\Neil Diamond - Hot August Night III\cd 2\17. Neil Diamond - Band Bows.wav

Peak level 95.7 %
Extraction speed 7.5 X
Track quality 100.0 %
Test CRC 47792E78
Copy CRC 47792E78
Accurately ripped (confidence 6) [93CCD193] (AR v2)
Copy OK

Track 18

Filename D:\Rotterdam 5\Neil Diamond - Hot August Night III\cd 2\18. Neil Diamond - Audience Exit.wav

Peak level 73.8 %
Extraction speed 4.2 X
Track quality 99.7 %
Test CRC 76FE2D67
Copy CRC 76FE2D67
Accurately ripped (confidence 6) [0DE0785D] (AR v2)
Copy OK


All tracks accurately ripped

No errors occurred

End of status report

–– CUETools DB Plugin V2.1.6

[CTDB TOCID: 86GRzNapU9Q0ZeVeympuMYEycSM-] found
Submit result: 86GRzNapU9Q0ZeVeympuMYEycSM- has been confirmed
Track | CTDB Status
1 | (18/18) Accurately ripped
2 | (18/18) Accurately ripped
3 | (18/18) Accurately ripped
4 | (18/18) Accurately ripped
5 | (18/18) Accurately ripped
6 | (18/18) Accurately ripped
7 | (18/18) Accurately ripped
8 | (18/18) Accurately ripped
9 | (18/18) Accurately ripped
10 | (18/18) Accurately ripped
11 | (18/18) Accurately ripped
12 | (18/18) Accurately ripped
13 | (18/18) Accurately ripped
14 | (18/18) Accurately ripped
15 | (18/18) Accurately ripped
16 | (18/18) Accurately ripped
17 | (18/18) Accurately ripped
18 | (18/18) Accurately ripped


==== Log checksum B07510BF66576826DEBEDE26BE8FF2E81905FF59B219DA33674E3C46DA8CBABF ====

Thanks to the Original ripper (Unknown)