Subcategories

Neil Young - Bottom Line 1974: The New York Broadcast (2017) [Bootleg]

Posted By: delpotro
Neil Young - Bottom Line 1974: The New York Broadcast (2017) [Bootleg]

Neil Young - Bottom Line 1974: The New York Broadcast (2017)
EAC Rip | FLAC (tracks+log+.cue) | Scans included | 01:10:34 | 429 Mb
Folk Rock, Singer-Songwriter | Label: Goldfish

Rare 1974 perfomance from New York's Bottom Line Club. Deeply affected by the narcotic-induced deaths of Crazy Horse guitarist Danny Whitten in 1972 and roadie Bruce Berry the following year,Neil Young became somewhat adrift and lost in a haze of drugs and drink following these tragic events.

e went on to record the brooding “Ditch trilogy”, starting with the live Time Fades Away in 1973, followed by Tonight’s The Night (which commemorated Berry in its title track) recorded in ’73 but not released until 1975, and On The Beach in 1974.

By mid ‘74 Young was reaching the end his dark period and on May 16th that year he performed the show now released on this CD for the first time.

A wholly unplanned and spontaneous event, Young had been an audience member at a Ry Cooder gig that evening, played at the Bottom Line in New York, and so inspired was he by what he’d witnessed that at Cooder’s conclusion he took to the stage and performed this quite extraordinary set.

In typical Neil Young fashion, much of the material featured is from then unreleased albums, including numbers to come on Tonight’s The Night, On The Beach and 1975’s Zuma.

All captured live on FM radio, Young’s entire performance was a fascinating rare collection of such songs as ‘Ambulance Blues’, ‘Pardon My Heart’ and ‘Revolution Blues’, presented here in a seldom-heard solo acoustic format.
Tracklist:
1 Citizen Kane Junior Blues (a.k.a. Pushed It Over The Edge) 7:02
2 Long May You Run 5:02
3 Greensleeves 2:57
4 Ambulance Blues 10:16
5 Helpless 5:36
6 Revolution Blues 3:45
7 On The Beach 6:52
8 Roll Another Number For The Road 2:57
9 Motion Pictures 10:12
10 Pardon My Heart 4:41
11 Dance, Dance, Dance 2:46
12 For The Turnstiles 3:48
13 Flying On The Ground Is Wrong 4:37

Exact Audio Copy V1.3 from 2. September 2016

EAC extraction logfile from 12. September 2017, 18:30

Neil Young / Bottom Line 1974: The New York Broadcast

Used drive : SONY DVD RW AD-7280S Adapter: 1 ID: 1

Read mode : Secure
Utilize accurate stream : Yes
Defeat audio cache : Yes
Make use of C2 pointers : No

Read offset correction : 48
Overread into Lead-In and Lead-Out : No
Fill up missing offset samples with silence : Yes
Delete leading and trailing silent blocks : No
Null samples used in CRC calculations : Yes
Used interface : Native Win32 interface for Win NT & 2000
Gap handling : Appended to previous track

Used output format : User Defined Encoder
Selected bitrate : 1024 kBit/s
Quality : High
Add ID3 tag : No
Command line compressor : C:\Program Files (x86)\Exact Audio Copy\FLAC\FLAC.EXE
Additional command line options : -8 -e -p -V -T "ARTIST=%artist%" -T "TITLE=%title%" -T "ALBUM=%albumtitle%" -T "DATE=%year%" -T "TRACKNUMBER=%tracknr%" -T "GENRE=%genre%" -T "PERFORMER=%albuminterpret%" -T "COMPOSER=%composer%" %haslyrics%–tag-from-file=LYRICS="%lyricsfile%"%haslyrics% -T "ALBUMARTIST=%albumartist%" -T "DISCNUMBER=%cdnumber%" -T "TOTALDISCS=%totalcds%" -T "TOTALTRACKS=%numtracks%" -T "COMMENT=%comment%" %source% -o %dest%


TOC of the extracted CD

Track | Start | Length | Start sector | End sector
––––––––––––––––––––––––––––-
1 | 0:00.00 | 7:02.47 | 0 | 31696
2 | 7:02.47 | 5:02.05 | 31697 | 54351
3 | 12:04.52 | 2:57.28 | 54352 | 67654
4 | 15:02.05 | 10:16.25 | 67655 | 113879
5 | 25:18.30 | 5:36.02 | 113880 | 139081
6 | 30:54.32 | 3:44.70 | 139082 | 155951
7 | 34:39.27 | 6:52.00 | 155952 | 186851
8 | 41:31.27 | 2:57.18 | 186852 | 200144
9 | 44:28.45 | 10:12.05 | 200145 | 246049
10 | 54:40.50 | 4:41.17 | 246050 | 267141
11 | 59:21.67 | 2:45.63 | 267142 | 279579
12 | 62:07.55 | 3:47.72 | 279580 | 296676
13 | 65:55.52 | 4:38.23 | 296677 | 317549


Track 1

Filename G:\__New\_EAC rips\Neil Young - Bottom Line 1974 [boot] (2017) flac\01 - Pushed It Over the End.wav

Pre-gap length 0:00:02.00

Peak level 97.8 %
Extraction speed 2.4 X
Track quality 99.9 %
Test CRC E37B482C
Copy CRC E37B482C
Accurately ripped (confidence 1) [C8873646] (AR v2)
Copy OK

Track 2

Filename G:\__New\_EAC rips\Neil Young - Bottom Line 1974 [boot] (2017) flac\02 - Long May You Run.wav

Peak level 88.2 %
Extraction speed 2.9 X
Track quality 100.0 %
Test CRC F30D2E66
Copy CRC F30D2E66
Accurately ripped (confidence 1) [CBEB20D9] (AR v2)
Copy OK

Track 3

Filename G:\__New\_EAC rips\Neil Young - Bottom Line 1974 [boot] (2017) flac\03 - Greensleeves.wav

Peak level 92.7 %
Extraction speed 2.9 X
Track quality 100.0 %
Test CRC 7C8E0432
Copy CRC 7C8E0432
Accurately ripped (confidence 1) [D0F5F073] (AR v2)
Copy OK

Track 4

Filename G:\__New\_EAC rips\Neil Young - Bottom Line 1974 [boot] (2017) flac\04 - Ambulance Blues.wav

Peak level 97.0 %
Extraction speed 3.7 X
Track quality 100.0 %
Test CRC 233BDB1C
Copy CRC 233BDB1C
Accurately ripped (confidence 1) [67AA68D5] (AR v2)
Copy OK

Track 5

Filename G:\__New\_EAC rips\Neil Young - Bottom Line 1974 [boot] (2017) flac\05 - Helpless.wav

Peak level 96.1 %
Extraction speed 3.8 X
Track quality 100.0 %
Test CRC 28BB3D2A
Copy CRC 28BB3D2A
Accurately ripped (confidence 1) [C0577109] (AR v2)
Copy OK

Track 6

Filename G:\__New\_EAC rips\Neil Young - Bottom Line 1974 [boot] (2017) flac\06 - Revolution Blues.wav

Peak level 97.8 %
Extraction speed 3.9 X
Track quality 100.0 %
Test CRC 14DEF0BF
Copy CRC 14DEF0BF
Accurately ripped (confidence 1) [BF2AA94D] (AR v2)
Copy OK

Track 7

Filename G:\__New\_EAC rips\Neil Young - Bottom Line 1974 [boot] (2017) flac\07 - On the Beach.wav

Peak level 96.4 %
Extraction speed 4.0 X
Track quality 99.9 %
Test CRC 85C07B3C
Copy CRC 85C07B3C
Accurately ripped (confidence 1) [19FAF6C1] (AR v2)
Copy OK

Track 8

Filename G:\__New\_EAC rips\Neil Young - Bottom Line 1974 [boot] (2017) flac\08 - Roll Another Number for the Road.wav

Peak level 100.0 %
Extraction speed 4.1 X
Track quality 100.0 %
Test CRC 9F4AD92D
Copy CRC 9F4AD92D
Accurately ripped (confidence 1) [89E503CA] (AR v2)
Copy OK

Track 9

Filename G:\__New\_EAC rips\Neil Young - Bottom Line 1974 [boot] (2017) flac\09 - Motion Pictures.wav

Peak level 99.5 %
Extraction speed 4.9 X
Track quality 100.0 %
Test CRC E6888AC5
Copy CRC E6888AC5
Accurately ripped (confidence 1) [5F5A6450] (AR v2)
Copy OK

Track 10

Filename G:\__New\_EAC rips\Neil Young - Bottom Line 1974 [boot] (2017) flac\10 - Pardon My Heart.wav

Peak level 94.8 %
Extraction speed 4.2 X
Track quality 100.0 %
Test CRC C4F24E39
Copy CRC C4F24E39
Accurately ripped (confidence 1) [D31179D0] (AR v2)
Copy OK

Track 11

Filename G:\__New\_EAC rips\Neil Young - Bottom Line 1974 [boot] (2017) flac\11 - Dance, Dance, Dance.wav

Peak level 100.0 %
Extraction speed 4.6 X
Track quality 100.0 %
Test CRC 2BEE42E7
Copy CRC 2BEE42E7
Accurately ripped (confidence 1) [4698253D] (AR v2)
Copy OK

Track 12

Filename G:\__New\_EAC rips\Neil Young - Bottom Line 1974 [boot] (2017) flac\12 - For the Turnstiles (1973, Unknown Venue).wav

Peak level 74.4 %
Extraction speed 4.9 X
Track quality 100.0 %
Test CRC 0469988E
Copy CRC 0469988E
Accurately ripped (confidence 1) [858969DC] (AR v2)
Copy OK

Track 13

Filename G:\__New\_EAC rips\Neil Young - Bottom Line 1974 [boot] (2017) flac\13 - Flying on the Ground Is Wrong (70-12-05 Carnegie).wav

Peak level 72.3 %
Extraction speed 5.1 X
Track quality 100.0 %
Test CRC 937A68C8
Copy CRC 937A68C8
Accurately ripped (confidence 1) [B75D0198] (AR v2)
Copy OK


All tracks accurately ripped

No errors occurred

End of status report

–– CUETools DB Plugin V2.1.6

[CTDB TOCID: VJmFCuN55mTyQ791STJ5z2dxiBk-] found
Submit result: VJmFCuN55mTyQ791STJ5z2dxiBk- has been confirmed
Track | CTDB Status
1 | (2/2) Accurately ripped
2 | (2/2) Accurately ripped
3 | (2/2) Accurately ripped
4 | (2/2) Accurately ripped
5 | (2/2) Accurately ripped
6 | (2/2) Accurately ripped
7 | (2/2) Accurately ripped
8 | (2/2) Accurately ripped
9 | (2/2) Accurately ripped
10 | (2/2) Accurately ripped
11 | (2/2) Accurately ripped
12 | (2/2) Accurately ripped
13 | (2/2) Accurately ripped


==== Log checksum 65D89D64DED1B5CFAC8661486A726091B25D36CAEB4469DCD86AC5A2835BF8C5 ====



Neil Young - Bottom Line 1974: The New York Broadcast (2017) [Bootleg]

Thanks to the Original ripper Ohreally !