Subcategories

Nelly van Ree Bernard - Psaltery: Spanish Music 12th, 13th, 14th century (1998) {Eurosound NvRB-66.CD rec 1980}

Posted By: ruskaval
Nelly van Ree Bernard - Psaltery: Spanish Music 12th, 13th, 14th century (1998) {Eurosound NvRB-66.CD rec 1980}

Nelly van Ree Bernard - Psaltery: Spanish Music 12th, 13th, 14th century (1998) {Eurosound NvRB-66.CD rec 1980}
XLD rip (secure mode) | FLAC (tracks)+CUE+LOG -> 183 Mb | MP3 @320 -> 88 Mb
Full Artwork @ 600 dpi (jpg) -> 20 Mb | 5% repair rar
© 1980, 1998 Eurosound | NvRB-66.CD
Classical / Early Music / Medieval / Psaltery

Nelly van Ree Bernard (as a stage name without a dash), born as Nellij Bernard (Teteringen, November 24, 1923 - Bennebroek, February 2, 2010), was an artist, musician and musicologist. At the beginning of her life, she designed furniture and was an interior designer; in the latter days she designed art with the computer. She became internationally known for her reconstruction of old musical instruments. She was a pioneer in scientific research into the clavichord.

Personnel
Nelly van Ree Bernard - psaltery

Canon entero (01-05)
Medio canon (06-09)

Recording: Ernest Scheerder, Eurosound, Herveld-Holland, June 1980, Hervormde Kerk, Bennebroek, Holland


Works on This Recording

Theobald I of Navarre
01 Canción a la Virgen

[Codex Calixtinus]
02 Nostra Phalans

Alfonso X el Sabio
03 Cantiga de Santa Maria 80
04 Cantiga de Santa Maria 353
05 Cantiga de Santa Maria 103

[Codex Huelgas] - Alfonso X el Sabio
06 Prosa [XIII] - Cantiga de Santa Maria 50 & 176

Alfonso X el Sabio
07 Cantiga de Santa Maria 368
08 Cantiga de Santa Maria 144

[Llibre Vermell]
09 Polorum Regina

X Lossless Decoder version 20181019 (151.1)

XLD extraction logfile from 2019-10-27 15:35:06 +0100

Nelly van Ree Bernard / Psaltery - Spanish Music 12th, 13th, 14th century - Nelly van Ree Bernard [Eurosound NvRB-66.CD]

Used drive : PLEXTOR DVDR PX-755A (revision 1.06)
Media type : CD-Recordable

Ripper mode : XLD Secure Ripper
Disable audio cache : OK for the drive with a cache less than 1375KiB
Make use of C2 pointers : NO
Read offset correction : 30
Max retry count : 100
Gap status : Analyzed, Appended (except HTOA)

TOC of the extracted CD
Track | Start | Length | Start sector | End sector
––––––––––––––––––––––––––––-
1 | 00:00:00 | 02:32:27 | 0 | 11426
2 | 02:32:27 | 02:09:00 | 11427 | 21101
3 | 04:41:27 | 01:49:25 | 21102 | 29301
4 | 06:30:52 | 06:44:27 | 29302 | 59628
5 | 13:15:04 | 04:46:73 | 59629 | 81151
6 | 18:02:02 | 12:11:64 | 81152 | 136040
7 | 30:13:66 | 03:45:67 | 136041 | 152982
8 | 33:59:58 | 02:03:36 | 152983 | 162243
9 | 36:03:19 | 01:36:34 | 162244 | 169477

AccurateRip Summary
Disc not found in AccurateRip DB.

All Tracks
Album gain : 6.19 dB
Peak : 0.782104
Statistics
Read error : 0
Jitter error (maybe fixed) : 0
Retry sector count : 0
Damaged sector count : 0

Track 01
Filename : /Psaltery - Spanish Music 12th, 13th, 14th century - Nelly van Ree Bernard [Eurosound NvRB-66.CD]/01 Cancion a la Virgen.flac
Pre-gap length : 00:02:00

Track gain : 7.34 dB
Peak : 0.466492
CRC32 hash (test run) : 6D597049
CRC32 hash : 6D597049
CRC32 hash (skip zero) : E26F02E8
AccurateRip v1 signature : C8570C8A
AccurateRip v2 signature : BB1B591F
->Track not present in AccurateRip database.
Statistics
Read error : 0
Jitter error (maybe fixed) : 0
Retry sector count : 0
Damaged sector count : 0

Track 02
Filename : /Psaltery - Spanish Music 12th, 13th, 14th century - Nelly van Ree Bernard [Eurosound NvRB-66.CD]/02 Nostra Phalans.flac

Track gain : 13.70 dB
Peak : 0.332428
CRC32 hash (test run) : 364AEC50
CRC32 hash : 364AEC50
CRC32 hash (skip zero) : 42D17CE5
AccurateRip v1 signature : 6E317307
AccurateRip v2 signature : CC0B6D8E
->Track not present in AccurateRip database.
Statistics
Read error : 0
Jitter error (maybe fixed) : 0
Retry sector count : 0
Damaged sector count : 0

Track 03
Filename : /Psaltery - Spanish Music 12th, 13th, 14th century - Nelly van Ree Bernard [Eurosound NvRB-66.CD]/03 Cantiga de Santa Maria 80.flac

Track gain : 7.30 dB
Peak : 0.485992
CRC32 hash (test run) : 5E066FCC
CRC32 hash : 5E066FCC
CRC32 hash (skip zero) : 774A74DF
AccurateRip v1 signature : 299272FD
AccurateRip v2 signature : 1F09A42B
->Track not present in AccurateRip database.
Statistics
Read error : 0
Jitter error (maybe fixed) : 0
Retry sector count : 0
Damaged sector count : 0

Track 04
Filename : /Psaltery - Spanish Music 12th, 13th, 14th century - Nelly van Ree Bernard [Eurosound NvRB-66.CD]/04 Cantiga de Santa Maria 353.flac

Track gain : 3.02 dB
Peak : 0.782104
CRC32 hash (test run) : BF1B81D9
CRC32 hash : BF1B81D9
CRC32 hash (skip zero) : 7D8CE2A4
AccurateRip v1 signature : F8671DF3
AccurateRip v2 signature : 350CEED0
->Track not present in AccurateRip database.
Statistics
Read error : 0
Jitter error (maybe fixed) : 0
Retry sector count : 0
Damaged sector count : 0

Track 05
Filename : /Psaltery - Spanish Music 12th, 13th, 14th century - Nelly van Ree Bernard [Eurosound NvRB-66.CD]/05 Cantiga de Santa Maria 103.flac

Track gain : 7.27 dB
Peak : 0.562134
CRC32 hash (test run) : FA3B29C5
CRC32 hash : FA3B29C5
CRC32 hash (skip zero) : 881A8ECD
AccurateRip v1 signature : 863B7D98
AccurateRip v2 signature : 7EE2907A
->Track not present in AccurateRip database.
Statistics
Read error : 0
Jitter error (maybe fixed) : 0
Retry sector count : 0
Damaged sector count : 0

Track 06
Filename : /Psaltery - Spanish Music 12th, 13th, 14th century - Nelly van Ree Bernard [Eurosound NvRB-66.CD]/06 Prosa [XIII] - Cantiga de Santa Maria 50 & 176.flac

Track gain : 6.98 dB
Peak : 0.552429
CRC32 hash (test run) : 690392CC
CRC32 hash : 690392CC
CRC32 hash (skip zero) : 8AB16310
AccurateRip v1 signature : 9973D1C1
AccurateRip v2 signature : 5EC9C8DA
->Track not present in AccurateRip database.
Statistics
Read error : 0
Jitter error (maybe fixed) : 0
Retry sector count : 0
Damaged sector count : 0

Track 07
Filename : /Psaltery - Spanish Music 12th, 13th, 14th century - Nelly van Ree Bernard [Eurosound NvRB-66.CD]/07 Cantiga de Santa Maria 368.flac

Track gain : 6.28 dB
Peak : 0.548035
CRC32 hash (test run) : 485141E9
CRC32 hash : 485141E9
CRC32 hash (skip zero) : 28F16A58
AccurateRip v1 signature : C16950AD
AccurateRip v2 signature : D8269E6F
->Track not present in AccurateRip database.
Statistics
Read error : 0
Jitter error (maybe fixed) : 0
Retry sector count : 0
Damaged sector count : 0

Track 08
Filename : /Psaltery - Spanish Music 12th, 13th, 14th century - Nelly van Ree Bernard [Eurosound NvRB-66.CD]/08 Cantiga de Santa Maria 144.flac

Track gain : 11.67 dB
Peak : 0.285431
CRC32 hash (test run) : E2752D45
CRC32 hash : E2752D45
CRC32 hash (skip zero) : A6D841A6
AccurateRip v1 signature : F2D07EC4
AccurateRip v2 signature : 69217746
->Track not present in AccurateRip database.
Statistics
Read error : 0
Jitter error (maybe fixed) : 0
Retry sector count : 0
Damaged sector count : 0

Track 09
Filename : /Psaltery - Spanish Music 12th, 13th, 14th century - Nelly van Ree Bernard [Eurosound NvRB-66.CD]/09 Polorum Regina.flac

Track gain : 5.25 dB
Peak : 0.717224
CRC32 hash (test run) : FD3C7EB1
CRC32 hash : FD3C7EB1
CRC32 hash (skip zero) : 4EC0FE8E
AccurateRip v1 signature : 670DCDDB
AccurateRip v2 signature : 7E915F60
->Track not present in AccurateRip database.
Statistics
Read error : 0
Jitter error (maybe fixed) : 0
Retry sector count : 0
Damaged sector count : 0

No errors occurred

End of status report

––-BEGIN XLD SIGNATURE––-
qiPQ4OYSdjqExNkxxcZtEzbE01Xnt7Vg7TeUUklG4LNhdzSkjC7dfXQV_3hf2MEd6mknyvkZOfooPA6q3BZsZdVl3A8SXKrHVs_Edym
––-END XLD SIGNATURE––-


Nelly van Ree Bernard - Psaltery: Spanish Music 12th, 13th, 14th century (1998) {Eurosound NvRB-66.CD rec 1980}

Nelly van Ree Bernard - Psaltery: Spanish Music 12th, 13th, 14th century (1998) {Eurosound NvRB-66.CD rec 1980}



===