Tags
Language
Tags
June 2024
Su Mo Tu We Th Fr Sa
26 27 28 29 30 31 1
2 3 4 5 6 7 8
9 10 11 12 13 14 15
16 17 18 19 20 21 22
23 24 25 26 27 28 29
30 1 2 3 4 5 6

Orchestra of Spheres - Brothers And Sisters Of The Black Lagoon (2016)

Posted By: delpotro
Orchestra of Spheres - Brothers And Sisters Of The Black Lagoon (2016)

Orchestra of Spheres - Brothers And Sisters Of The Black Lagoon (2016)
EAC Rip | FLAC (tracks+log+.cue) - 252 Mb | MP3 CBR 320 kbps - 99 Mb | 00:42:55
Psychedelic Rock | Label: Fire Records

Orchestra of Spheres is a wide-ranging collective from Wellington, New Zealand whose music is a hybrid of global sounds and cultures, from disco and electro to kuduro and mbalax, from neo-psych to no wave, from kosmiche to prog, on instruments both formal and homemade.

The group’s members adopt outlandish pseudonyms and don equally far-out costumes, and their performances and recordings consist of communal love jams and peaceful, playful dance mantras. Making their full-length debut with ‘Nonagonic Now’ in 2010, the Orchestra continued to shift styles and group members on subsequent releases, including 2016’s ‘Brothers and Sisters of the Black Lagoon’ and 2018’s ‘Mirror’.

The group formed in the early, heady days of Wellington’s artist collective, the Frederick Street Sound and Light Exploration Society, in 2009. Early members included Baba Rossa (biscuit-tin guitar and sexomouse marimba), Zye Sosceles (electric carillon), Jemi Hemi Mandala (drums), and Mos Iocoss (keyboards and gamelan).

Their self-released debut EP, ‘Space Art Music’, appeared that same year, followed by the full-length ‘Nonagonic Now’ in 2010. ‘The Bad Spheres’ single appeared in March of 2011, and the ‘Numbers‘ EP in June. Meanwhile, the U.K.’s Fire Records signed the group and re-released ‘Nonagonic Now’ later in the year. An intense and prolonged period of touring and recording ensued, during which time EtonalE joined on bass carillon and percussion. Fire released ‘Vibration Animal Sex Brain Music’ in December of 2013.

The group returned with its third album, ‘Brothers and Sisters of the Black Lagoon’, in 2016. The album introduced featured drumming by Tooth, and Woild Boin also mixed and contributed to the recording. Along with percussionist Farmerboy and several guest musicians, Orchestra of Spheres recorded their fourth full-length, ‘Mirror’, and Fire released it in 2018.
Tracklist:
1. Bells (00:42)
2. Trapdoors (04:10)
3. Walking Through Walls (06:23)
4. Day At the Beach (00:42)
5. Anklung Song (04:13)
6. In the Face of Love (04:20)
7. The Reel World (02:17)
8. Cluster (05:50)
9. Rocket #9 (04:31)
10. Let Us Not Forget (03:12)
11. Divine Horses (06:29)

Exact Audio Copy V1.0 beta 3 from 29. August 2011

EAC extraction logfile from 15. August 2016, 16:32

Orchestra of Spheres / Brothers and Sisters of the Black Lagoon

Used drive : HL-DT-STBDDVDRW CH12NS30 Adapter: 0 ID: 0

Read mode : Secure
Utilize accurate stream : Yes
Defeat audio cache : Yes
Make use of C2 pointers : No

Read offset correction : 6
Overread into Lead-In and Lead-Out : No
Fill up missing offset samples with silence : Yes
Delete leading and trailing silent blocks : No
Null samples used in CRC calculations : Yes
Used interface : Native Win32 interface for Win NT & 2000
Gap handling : Appended to previous track

Used output format : User Defined Encoder
Selected bitrate : 1024 kBit/s
Quality : High
Add ID3 tag : No
Command line compressor : C:\Program Files (x86)\Exact Audio Copy\Flac\flac.exe
Additional command line options : -8 -V -T "ARTIST=%artist%" -T "TITLE=%title%" -T "ALBUM=%albumtitle%" -T "DATE=%year%" -T "TRACKNUMBER=%tracknr%" -T "GENRE=%genre%" -T "PERFORMER=%albuminterpret%" -T "COMPOSER=%composer%" %haslyrics%–tag-from-file=LYRICS="%lyricsfile%"%haslyrics% -T "ALBUMARTIST=%albumartist%" -T "DISCNUMBER=%cdnumber%" -T "TOTALDISCS=%totalcds%" -T "TOTALTRACKS=%numtracks%" -T "COMMENT=%comment%" %source% -o %dest%


TOC of the extracted CD

Track | Start | Length | Start sector | End sector
––––––––––––––––––––––––––––-
1 | 0:00.00 | 0:42.45 | 0 | 3194
2 | 0:42.45 | 4:10.52 | 3195 | 21996
3 | 4:53.22 | 6:23.60 | 21997 | 50781
4 | 11:17.07 | 0:42.07 | 50782 | 53938
5 | 11:59.14 | 4:13.45 | 53939 | 72958
6 | 16:12.59 | 4:20.49 | 72959 | 92507
7 | 20:33.33 | 2:17.67 | 92508 | 102849
8 | 22:51.25 | 5:50.44 | 102850 | 129143
9 | 28:41.69 | 4:31.72 | 129144 | 149540
10 | 33:13.66 | 3:12.72 | 149541 | 164012
11 | 36:26.63 | 6:29.04 | 164013 | 193191


Track 1

Filename G:\EAC Files\01 - Bells.wav

Pre-gap length 0:00:02.00

Peak level 52.5 %
Extraction speed 0.6 X
Track quality 100.0 %
Test CRC F7473566
Copy CRC F7473566
Accurately ripped (confidence 1) [EDF1FAEF] (AR v2)
Copy OK

Track 2

Filename G:\EAC Files\02 - Trapdoors.wav

Peak level 96.5 %
Extraction speed 1.1 X
Track quality 100.0 %
Test CRC 899B23FF
Copy CRC 899B23FF
Accurately ripped (confidence 1) [07299C3A] (AR v2)
Copy OK

Track 3

Filename G:\EAC Files\03 - Walking Through Walls.wav

Peak level 96.5 %
Extraction speed 1.2 X
Track quality 99.9 %
Test CRC 380DFAD0
Copy CRC 380DFAD0
Accurately ripped (confidence 1) [7B50AE27] (AR v2)
Copy OK

Track 4

Filename G:\EAC Files\04 - Day at the Beach.wav

Peak level 11.0 %
Extraction speed 0.8 X
Track quality 100.0 %
Test CRC 4A23B007
Copy CRC 4A23B007
Accurately ripped (confidence 1) [12AF73DD] (AR v2)
Copy OK

Track 5

Filename G:\EAC Files\05 - Anklung Song.wav

Peak level 96.5 %
Extraction speed 1.2 X
Track quality 99.9 %
Test CRC CAB6EED8
Copy CRC CAB6EED8
Accurately ripped (confidence 1) [FE1FC034] (AR v2)
Copy OK

Track 6

Filename G:\EAC Files\06 - In the Face of Love.wav

Peak level 96.5 %
Extraction speed 1.5 X
Track quality 100.0 %
Test CRC FF4B3D2A
Copy CRC FF4B3D2A
Accurately ripped (confidence 1) [3636E7BA] (AR v2)
Copy OK

Track 7

Filename G:\EAC Files\07 - The Reel World.wav

Peak level 96.5 %
Extraction speed 1.4 X
Track quality 100.0 %
Test CRC 94CB874C
Copy CRC 94CB874C
Accurately ripped (confidence 1) [D1093F72] (AR v2)
Copy OK

Track 8

Filename G:\EAC Files\08 - Cluster.wav

Peak level 96.5 %
Extraction speed 1.5 X
Track quality 99.9 %
Test CRC 03EB43B4
Copy CRC 03EB43B4
Accurately ripped (confidence 1) [B5729481] (AR v2)
Copy OK

Track 9

Filename G:\EAC Files\09 - Rocket #9.wav

Peak level 96.5 %
Extraction speed 1.8 X
Track quality 100.0 %
Test CRC 3F95A8F2
Copy CRC 3F95A8F2
Accurately ripped (confidence 1) [041FF23E] (AR v2)
Copy OK

Track 10

Filename G:\EAC Files\10 - Let Us Not Forget.wav

Peak level 77.3 %
Extraction speed 1.7 X
Track quality 100.0 %
Test CRC F971D2A8
Copy CRC F971D2A8
Accurately ripped (confidence 1) [32E3B003] (AR v2)
Copy OK

Track 11

Filename G:\EAC Files\11 - Divine Horses.wav

Peak level 96.5 %
Extraction speed 2.0 X
Track quality 100.0 %
Test CRC 01CE71F3
Copy CRC 01CE71F3
Accurately ripped (confidence 1) [9C8251E0] (AR v2)
Copy OK


All tracks accurately ripped

No errors occurred

End of status report

==== Log checksum 0F99BD8E44CEA417AEB1BDCB11296DD6B390825C5E7BE86A34CA8E01DF6716D1 ====

Thanks to the Original ripper !