Tags
Language
Tags

Øresund Space Collective - Hallucinations Inside The Oracle (2017)

Posted By: delpotro
Øresund Space Collective - Hallucinations Inside The Oracle (2017)

Øresund Space Collective - Hallucinations Inside The Oracle (2017)
WEB FLAC (tracks) - 555 Mb | MP3 CBR 320 kbps - 190 Mb | 01:22:17
Space Rock, Psychedelic Rock, Progressive Rock | Label: Space Rock Productions

Øresund Space Collective is a space rock collective that over 50 different musicians have played in from primarily Denmark and Sweden. The band started out jamming in the rehearsal rooms in Copenhagen and Malmö back in 2004 and since then has created 25 records and played all over Europe and even Las Vegas (2016). This album was created in November 2016 and features the following musicians: Magnus (guitar, synths), Hasse (doun douns, bass, talking drum), Dr Space (synths), Jiri (bass), Tim (drums), KG (sitar, guitar, synths), and Jonathan (violin, guitar, bass, farfisa, and others). ‘Reflections…’ is an album side track featuring sitar and violin. ‘ESP’ is a more electronic synth based track to start and later has some heavy guitar. ‘The Oracle’ is the main track of the album, a 40min adventure starting with a synth drone and eastern vibe but then it takes off into space. Features some of the most amazing sitar and very cool violin.
Trackslist:
1. Reflections in the Mind's Eye (21:50)
2. ESP (Extreme Spatial Perspective) (19:35)
3. The Oracle (Pt.1) (22:24)
4. The Oracle (Pt.2) (18:27)

–––––––––––-

DON'T MODIFY THIS FILE

–––––––––––-

PERFORMER: auCDtect Task Manager, ver. 1.6.0 RC1 build 1.6.0.1
Copyright © 2008-2010 y-soft. All rights reserved

ANALYZER: options:


FILE: 02. ESP (Extreme Spatial Perspective).flac
Size: 143768353 Hash: 98126E6ADDC2D8E7403A0E2E0ECC9726 Accuracy: -m0
Conclusion: CDDA 100%
Signature: C8F3CB39C7A5C17447534FBFCF0F201BF54E1C84
FILE: 01. Reflections in the Minds Eye.flac
Size: 160349419 Hash: AF7AB25378DDD20BD0D33B85E5C9CA95 Accuracy: -m0
Conclusion: CDDA 100%
Signature: A7DCE462C4E81FDBA49F98CCFC2EABADE541CCEC
FILE: 03. The Oracle Pt 1.flac
Size: 145119836 Hash: 5B702F5C7DF6AA0C7CE531095C1FA7E0 Accuracy: -m0
Conclusion: CDDA 92%
Signature: 8A21412F153903F6B80E92E2F7D0C67A2ADF3AC1
FILE: 04. The Oracle Pt 2.flac
Size: 131373440 Hash: 52BE037C3D70F247A22E8952AADBF625 Accuracy: -m0
Conclusion: CDDA 100%
Signature: C73E37C592ABCA7350346E74D5539B4AF9F7D412

foobar2000 1.3.16 / Замер динамического диапазона (DR) 1.1.1
Дата отчёта: 2017-09-18 22:22:26

––––––––––––––––––––––––––––––––––––––––
Анализ: resund Space Collective / Hallucinations inside the Oracle
––––––––––––––––––––––––––––––––––––––––

DR Пики RMS Продолжительность трека
––––––––––––––––––––––––––––––––––––––––
DR7 -0.40 дБ -9.73 дБ 21:51 01-Reflections in the Minds Eye
DR8 -0.33 дБ -10.28 дБ 19:35 02-ESP (Extreme Spatial Perspective)
DR9 0.00 дБ -12.23 дБ 22:24 03-The Oracle Pt 1
DR9 0.00 дБ -11.78 дБ 18:27 04-The Oracle Pt 2
––––––––––––––––––––––––––––––––––––––––

Количество треков: 4
Реальные значения DR: DR8

Частота: 48000 Гц
Каналов: 2
Разрядность: 16
Битрейт: 948 кбит/с
Кодек: FLAC
================================================================================

Thanks to the Original ripper tpace !