Tags
Language
Tags

Frankfurt Radio Symphony Orchestra & Paavo Järvi - Franz Schmidt: Complete Symphonies (2020)

Posted By: delpotro
Frankfurt Radio Symphony Orchestra & Paavo Järvi - Franz Schmidt: Complete Symphonies (2020)

Frankfurt Radio Symphony Orchestra & Paavo Järvi - Franz Schmidt: Complete Symphonies (2020)
XLD Rip | FLAC (tracks+log+.cue) - 852 Mb | MP3 CBR 320 kbps - 427 Mb | 03:00:38
Classical | Label: Deutsche Grammophon

At a time when many of his contemporaries were exploring more fluid structures, Franz Schmidt while perhaps stretching tonal harmony to its limits, continued to embrace 19th-century form and achieved a highly personal synthesis of the diverse traditions of the Austro-German symphony. His language, rather than being wedded to a narrative of dissolution and tragedy is radiant and belligerently optimistic and reveals this scion of largely Hungarian forebears as the last great exponent of the style hongrois after Schubert, Liszt and Brahms.

His work having fallen from prominence, Paavo Järvi and the Frankfurt Radio Symphony's dazzling live performances of all four of his symphonies, and the famous Notre Dame Intermezzo, shine a new light on this fascinating oeuvre and also on an affable and genial soul, and reminds us of the constant need to reappraise and enrich our account of music during the first half of the 20th century.
Tracklist:
1. Frankfurt Radio Symphony & Paavo Järvi – Symphony No. 1 in E Major: I. Sehr langsam - Sehr lebhaft (12:41)
2. Frankfurt Radio Symphony & Paavo Järvi – Symphony No. 1 in E Major: II. Langsam (11:22)
3. Frankfurt Radio Symphony & Paavo Järvi – Symphony No. 1 in E Major: III. Schnell und leicht (10:46)
4. Frankfurt Radio Symphony & Paavo Järvi – Symphony No. 1 in E Major: IV. Lebhaft, doch nicht zu schnell (10:28)
5. Frankfurt Radio Symphony & Paavo Järvi – Symphony No. 2 in E-Flat Major: I. Lebhaft (14:33)
6. Frankfurt Radio Symphony & Paavo Järvi – Symphony No. 2 in E-Flat Major: II. Allegretto con variazioni. Einfach und zart (17:40)
7. Frankfurt Radio Symphony & Paavo Järvi – Symphony No. 2 in E-Flat Major: III. Finale. Langsam (13:22)
8. Frankfurt Radio Symphony & Paavo Järvi – Notre Dame: Intermezzo (04:40)
9. Frankfurt Radio Symphony & Paavo Järvi – Symphony No. 3 in A Major: I. Allegro molto moderato (12:53)
10. Frankfurt Radio Symphony & Paavo Järvi – Symphony No. 3 in A Major: II. Adagio (07:35)
11. Frankfurt Radio Symphony & Paavo Järvi – Symphony No. 3 in A Major: III. Scherzo. Allegro vivace (07:58)
12. Frankfurt Radio Symphony & Paavo Järvi – Symphony No. 3 in A Major: IV. Lento - Allegro vivace (12:01)
13. Balázs Nemes, Frankfurt Radio Symphony & Paavo Järvi – Symphony No. 4 in C Major: I. Allegro molto moderato - Passionato (14:27)
14. Ulrich Edelmann, Peter-Philipp Staemmler, Frankfurt Radio Symphony & Paavo Järvi – Symphony No. 4 in C Major: II. Adagio - Piu lento - Adagio (12:33)
15. Frankfurt Radio Symphony & Paavo Järvi – Symphony No. 4 in C Major: III. Molto Vivace (07:12)
16. Balázs Nemes, Frankfurt Radio Symphony & Paavo Järvi – Symphony No. 4 in C Major: IV. Tempo primo un poco sostenuto - Passionato - Tempo primo. Allegro molto moderato (10:20)

X Lossless Decoder version 20201123 (153.0)

XLD extraction logfile from 2020-12-04 20:20:05 +0100

Paavo Järvi / Hr Sinfonieorchester (Frankfurt Radio Symphony) / F.Schmidt: Complete Symphonies -[CD 1]

Used drive : HL-DT-ST DVDRW GX50N (revision RR06)
Media type : Pressed CD

Ripper mode : XLD Secure Ripper
Disable audio cache : OK for the drive with a cache less than 1375KiB
Make use of C2 pointers : NO
Read offset correction : 6
Max retry count : 100
Gap status : Analyzed, Appended (except HTOA)

TOC of the extracted CD
Track | Start | Length | Start sector | End sector
––––––––––––––––––––––––––––-
1 | 00:00:00 | 12:41:24 | 0 | 57098
2 | 12:41:24 | 11:23:00 | 57099 | 108323
3 | 24:04:24 | 10:46:09 | 108324 | 156782
4 | 34:50:33 | 10:28:07 | 156783 | 203889

AccurateRip Summary (DiscID: 00080710-001fd379-2e0a9e04)
Track 01 : OK (v2, confidence 2/2)
Track 02 : OK (v2, confidence 2/2)
Track 03 : OK (v2, confidence 2/2)
Track 04 : OK (v2, confidence 2/2)
->All tracks accurately ripped.

All Tracks
Album gain : 0.60 dB
Peak : 0.960663
Statistics
Read error : 0
Jitter error (maybe fixed) : 0
Retry sector count : 0
Damaged sector count : 0

Track 01
Filename : /Users/imac/Desktop/Paavo Järvi - Hr Sinfonieorchester (Frankfurt Radio Symphony) - F.Schmidt- Complete Symphonies -[CD 1] (2020) [FLAC]/01 Symphonie Nr.1 E-dur - I. Sehr Langsam - Sehr Lebhaft.flac
Pre-gap length : 00:02:00

Track gain : 0.38 dB
Peak : 0.957825
CRC32 hash (test run) : 95B95A32
CRC32 hash : 95B95A32
CRC32 hash (skip zero) : D4AE503C
AccurateRip v1 signature : 56002952
AccurateRip v2 signature : DB601F63
->Accurately ripped (v2, confidence 2/2)
Statistics
Read error : 0
Jitter error (maybe fixed) : 0
Retry sector count : 0
Damaged sector count : 0

Track 02
Filename : /Users/imac/Desktop/Paavo Järvi - Hr Sinfonieorchester (Frankfurt Radio Symphony) - F.Schmidt- Complete Symphonies -[CD 1] (2020) [FLAC]/02 Symphonie Nr.1 E-dur - II. Langsam.flac

Track gain : 1.61 dB
Peak : 0.958679
CRC32 hash (test run) : 882A8422
CRC32 hash : 882A8422
CRC32 hash (skip zero) : 234C252E
AccurateRip v1 signature : B935C4AB
AccurateRip v2 signature : FC3A9E5E
->Accurately ripped (v2, confidence 2/2)
Statistics
Read error : 0
Jitter error (maybe fixed) : 0
Retry sector count : 0
Damaged sector count : 0

Track 03
Filename : /Users/imac/Desktop/Paavo Järvi - Hr Sinfonieorchester (Frankfurt Radio Symphony) - F.Schmidt- Complete Symphonies -[CD 1] (2020) [FLAC]/03 Symphonie Nr.1 E-dur - III. Schnell Und Leicht.flac

Track gain : 5.93 dB
Peak : 0.560089
CRC32 hash (test run) : C18E4F11
CRC32 hash : C18E4F11
CRC32 hash (skip zero) : D26A3360
AccurateRip v1 signature : FA4DCD14
AccurateRip v2 signature : AD03BF54
->Accurately ripped (v2, confidence 2/2)
Statistics
Read error : 0
Jitter error (maybe fixed) : 0
Retry sector count : 0
Damaged sector count : 0

Track 04
Filename : /Users/imac/Desktop/Paavo Järvi - Hr Sinfonieorchester (Frankfurt Radio Symphony) - F.Schmidt- Complete Symphonies -[CD 1] (2020) [FLAC]/04 Symphonie Nr.1 E-dur - IV. Lebhaft, Doch Nicht Zu Schnell.flac

Track gain : -2.13 dB
Peak : 0.960663
CRC32 hash (test run) : FC94D6D0
CRC32 hash : FC94D6D0
CRC32 hash (skip zero) : 7DF88A9D
AccurateRip v1 signature : BC193835
AccurateRip v2 signature : 92CB41C1
->Accurately ripped (v2, confidence 2/2)
Statistics
Read error : 0
Jitter error (maybe fixed) : 0
Retry sector count : 0
Damaged sector count : 0

No errors occurred

End of status report

––-BEGIN XLD SIGNATURE––-
9yKcj2piNnE4akFbV_QujuU4vCxU9UL1R3QW.riowcFI1DG3Fo2GV7KBtfOEIW.ftRfhpPs72sVUfVS9GFLIVUM5xW1ouPqo7NnZplS
––-END XLD SIGNATURE––-
X Lossless Decoder version 20201123 (153.0)

XLD extraction logfile from 2020-12-04 20:57:22 +0100

Paavo Järvi: Frankfurt Radio Symphony Orchestra / F. Schmidt: Complete Symphonies [Disc 2]: Symphony #2 In E-Flat Major, [Tracks 1-3]; Notre Dame, Intermezzo, [Track 4]

Used drive : HL-DT-ST DVDRW GX50N (revision RR06)
Media type : Pressed CD

Ripper mode : XLD Secure Ripper
Disable audio cache : OK for the drive with a cache less than 1375KiB
Make use of C2 pointers : NO
Read offset correction : 6
Max retry count : 100
Gap status : Analyzed, Appended (except HTOA)

TOC of the extracted CD
Track | Start | Length | Start sector | End sector
––––––––––––––––––––––––––––-
1 | 00:00:00 | 14:33:35 | 0 | 65509
2 | 14:33:35 | 17:40:05 | 65510 | 145014
3 | 32:13:40 | 13:22:37 | 145015 | 205201
4 | 45:36:02 | 04:40:12 | 205202 | 226213

AccurateRip Summary (DiscID: 0009cb95-00266bb8-3c0bc804)
Track 01 : OK (v2, confidence 1/1)
Track 02 : OK (v2, confidence 1/1)
Track 03 : OK (v2, confidence 1/1)
Track 04 : OK (v2, confidence 1/1)
->All tracks accurately ripped.

All Tracks
Album gain : -0.77 dB
Peak : 0.999969
Statistics
Read error : 0
Jitter error (maybe fixed) : 0
Retry sector count : 0
Damaged sector count : 0

Track 01
Filename : /Users/imac/Desktop/Paavo Järvi- Frankfurt Radio Symphony Orchestra - F. Schmidt- Complete Symphonies [Disc 2]- Symphony #2 In E-Flat Major, [Tracks 1-3]; Notre Dame, Intermezzo, [Track 4] (2020) [FLAC]/01 F. Schmidt- Symphony #2 In E-Flat Major, 1. Lebhaft.flac
Pre-gap length : 00:02:00

Track gain : -1.53 dB
Peak : 0.972260
CRC32 hash (test run) : ED858450
CRC32 hash : ED858450
CRC32 hash (skip zero) : ABB6466C
AccurateRip v1 signature : 5E6AEE5A
AccurateRip v2 signature : 2F77EA64
->Accurately ripped (v2, confidence 1/1)
Statistics
Read error : 0
Jitter error (maybe fixed) : 0
Retry sector count : 0
Damaged sector count : 0

Track 02
Filename : /Users/imac/Desktop/Paavo Järvi- Frankfurt Radio Symphony Orchestra - F. Schmidt- Complete Symphonies [Disc 2]- Symphony #2 In E-Flat Major, [Tracks 1-3]; Notre Dame, Intermezzo, [Track 4] (2020) [FLAC]/02 F. Schmidt- Symphony #2 In E-Flat Major, 2. Allegretto Con Variazioni.flac

Track gain : 0.81 dB
Peak : 0.960388
CRC32 hash (test run) : D1EF214B
CRC32 hash : D1EF214B
CRC32 hash (skip zero) : 2C0FE6B5
AccurateRip v1 signature : 52C106AF
AccurateRip v2 signature : 9E4C0D08
->Accurately ripped (v2, confidence 1/1)
Statistics
Read error : 0
Jitter error (maybe fixed) : 0
Retry sector count : 0
Damaged sector count : 0

Track 03
Filename : /Users/imac/Desktop/Paavo Järvi- Frankfurt Radio Symphony Orchestra - F. Schmidt- Complete Symphonies [Disc 2]- Symphony #2 In E-Flat Major, [Tracks 1-3]; Notre Dame, Intermezzo, [Track 4] (2020) [FLAC]/03 F. Schmidt- Symphony #2 In E-Flat Major, 3. Finale; Langsam.flac

Track gain : -0.58 dB
Peak : 0.968445
CRC32 hash (test run) : D571F614
CRC32 hash : D571F614
CRC32 hash (skip zero) : EFF62007
AccurateRip v1 signature : 5D4AF491
AccurateRip v2 signature : 042C5A1D
->Accurately ripped (v2, confidence 1/1)
Statistics
Read error : 0
Jitter error (maybe fixed) : 0
Retry sector count : 0
Damaged sector count : 0

Track 04
Filename : /Users/imac/Desktop/Paavo Järvi- Frankfurt Radio Symphony Orchestra - F. Schmidt- Complete Symphonies [Disc 2]- Symphony #2 In E-Flat Major, [Tracks 1-3]; Notre Dame, Intermezzo, [Track 4] (2020) [FLAC]/04 F. Schmidt- Notre Dame, Intermezzo.flac
Pre-gap length : 00:04:74

Track gain : -2.35 dB
Peak : 0.999969
CRC32 hash (test run) : 60C34787
CRC32 hash : 60C34787
CRC32 hash (skip zero) : 544F2FEE
AccurateRip v1 signature : 189CCAB7
AccurateRip v2 signature : 34B28498
->Accurately ripped (v2, confidence 1/1)
Statistics
Read error : 0
Jitter error (maybe fixed) : 0
Retry sector count : 0
Damaged sector count : 0

No errors occurred

End of status report

––-BEGIN XLD SIGNATURE––-
hdMTUJK2QwcvN8v6WQ2NoItr6hbfJDDP458MqUXFFTIbakAj2UVq0nCVrKuO7hZVKBbKaJTZPFLuNF9wOtI9GOfitXO5LfMD7iITc1e
––-END XLD SIGNATURE––-
X Lossless Decoder version 20201123 (153.0)

XLD extraction logfile from 2020-12-04 21:51:46 +0100

Paavo Järvi: Frankfort Radio Symphony Orchestra / F. Schmidt: Complete Symphonies [Disc 3] Symphony #3 In A Major, Symphony #4 In C Major

Used drive : HL-DT-ST DVDRW GX50N (revision RR06)
Media type : Pressed CD

Ripper mode : XLD Secure Ripper
Disable audio cache : OK for the drive with a cache less than 1375KiB
Make use of C2 pointers : NO
Read offset correction : 6
Max retry count : 100
Gap status : Analyzed, Appended (except HTOA)

TOC of the extracted CD
Track | Start | Length | Start sector | End sector
––––––––––––––––––––––––––––-
1 | 00:00:00 | 12:53:65 | 0 | 58039
2 | 12:53:65 | 07:35:47 | 58040 | 92211
3 | 20:29:37 | 07:58:42 | 92212 | 128103
4 | 28:28:04 | 12:01:58 | 128104 | 182236
5 | 40:29:62 | 14:27:01 | 182237 | 247262
6 | 54:56:63 | 12:33:49 | 247263 | 303786
7 | 67:30:37 | 07:12:32 | 303787 | 336218
8 | 74:42:69 | 10:20:43 | 336219 | 382761

AccurateRip Summary (DiscID: 001a6840-00b06837-6413ef08)
Track 01 : OK (v2, confidence 1/1)
Track 02 : OK (v2, confidence 1/1)
Track 03 : OK (v2, confidence 1/1)
Track 04 : OK (v2, confidence 1/1)
Track 05 : OK (v2, confidence 1/1)
Track 06 : OK (v2, confidence 1/1)
Track 07 : OK (v2, confidence 1/1)
Track 08 : OK (v2, confidence 1/1)
->All tracks accurately ripped.

All Tracks
Album gain : 1.00 dB
Peak : 0.974701
Statistics
Read error : 0
Jitter error (maybe fixed) : 0
Retry sector count : 0
Damaged sector count : 0

Track 01
Filename : /Users/imac/Desktop/Paavo Järvi- Frankfort Radio Symphony Orchestra - F. Schmidt- Complete Symphonies [Disc 3] Symphony #3 In A Major, Symphony #4 In C Major (2020) [FLAC]/01 F. Schmidt- Symphony #3 In A Major, 1. Allegro Molto Moderato.flac
Pre-gap length : 00:02:00

Track gain : 1.06 dB
Peak : 0.963409
CRC32 hash (test run) : 582EA21D
CRC32 hash : 582EA21D
CRC32 hash (skip zero) : AB7D6C55
AccurateRip v1 signature : 49C93EA4
AccurateRip v2 signature : 0B65C81B
->Accurately ripped (v2, confidence 1/1)
Statistics
Read error : 0
Jitter error (maybe fixed) : 0
Retry sector count : 0
Damaged sector count : 0

Track 02
Filename : /Users/imac/Desktop/Paavo Järvi- Frankfort Radio Symphony Orchestra - F. Schmidt- Complete Symphonies [Disc 3] Symphony #3 In A Major, Symphony #4 In C Major (2020) [FLAC]/02 F. Schmidt- Symphony #3 In A Major, 2. Adagio.flac

Track gain : 4.94 dB
Peak : 0.754364
CRC32 hash (test run) : FA6124AB
CRC32 hash : FA6124AB
CRC32 hash (skip zero) : EA1FE4C7
AccurateRip v1 signature : C8A93191
AccurateRip v2 signature : BA7299E9
->Accurately ripped (v2, confidence 1/1)
Statistics
Read error : 0
Jitter error (maybe fixed) : 0
Retry sector count : 0
Damaged sector count : 0

Track 03
Filename : /Users/imac/Desktop/Paavo Järvi- Frankfort Radio Symphony Orchestra - F. Schmidt- Complete Symphonies [Disc 3] Symphony #3 In A Major, Symphony #4 In C Major (2020) [FLAC]/03 F. Schmidt- Symphony #3 In A Major, 3. Sherzo- Allegro Vivace. Trio- Molto Più Tranquillo.flac

Track gain : 1.58 dB
Peak : 0.972870
CRC32 hash (test run) : D526223F
CRC32 hash : D526223F
CRC32 hash (skip zero) : FEF50A45
AccurateRip v1 signature : A0CB16F5
AccurateRip v2 signature : C4F16948
->Accurately ripped (v2, confidence 1/1)
Statistics
Read error : 0
Jitter error (maybe fixed) : 0
Retry sector count : 0
Damaged sector count : 0

Track 04
Filename : /Users/imac/Desktop/Paavo Järvi- Frankfort Radio Symphony Orchestra - F. Schmidt- Complete Symphonies [Disc 3] Symphony #3 In A Major, Symphony #4 In C Major (2020) [FLAC]/04 F. Schmidt- Symphony #3 In A Major, 4. Lento - Allegro Vivace.flac

Track gain : 1.03 dB
Peak : 0.958832
CRC32 hash (test run) : FED4E55D
CRC32 hash : FED4E55D
CRC32 hash (skip zero) : 5478CA3D
AccurateRip v1 signature : 4CEE271E
AccurateRip v2 signature : FDB915F6
->Accurately ripped (v2, confidence 1/1)
Statistics
Read error : 0
Jitter error (maybe fixed) : 0
Retry sector count : 0
Damaged sector count : 0

Track 05
Filename : /Users/imac/Desktop/Paavo Järvi- Frankfort Radio Symphony Orchestra - F. Schmidt- Complete Symphonies [Disc 3] Symphony #3 In A Major, Symphony #4 In C Major (2020) [FLAC]/05 F. Schmidt- Symphony #4 In C Major, 1. Allegro Molto Moderato; Passionato.flac
Pre-gap length : 00:04:74

Track gain : -1.38 dB
Peak : 0.960571
CRC32 hash (test run) : 544EB452
CRC32 hash : 544EB452
CRC32 hash (skip zero) : 2DD7A603
AccurateRip v1 signature : BF156384
AccurateRip v2 signature : 2E817625
->Accurately ripped (v2, confidence 1/1)
Statistics
Read error : 0
Jitter error (maybe fixed) : 0
Retry sector count : 0
Damaged sector count : 0

Track 06
Filename : /Users/imac/Desktop/Paavo Järvi- Frankfort Radio Symphony Orchestra - F. Schmidt- Complete Symphonies [Disc 3] Symphony #3 In A Major, Symphony #4 In C Major (2020) [FLAC]/06 F. Schmidt- Symphony #4 In C Major, 2. Adagio; Piu Lento; Adagio.flac

Track gain : 1.59 dB
Peak : 0.974701
CRC32 hash (test run) : B72FE36F
CRC32 hash : B72FE36F
CRC32 hash (skip zero) : B89903A6
AccurateRip v1 signature : 4C1A17D1
AccurateRip v2 signature : 43B55468
->Accurately ripped (v2, confidence 1/1)
Statistics
Read error : 0
Jitter error (maybe fixed) : 0
Retry sector count : 0
Damaged sector count : 0

Track 07
Filename : /Users/imac/Desktop/Paavo Järvi- Frankfort Radio Symphony Orchestra - F. Schmidt- Complete Symphonies [Disc 3] Symphony #3 In A Major, Symphony #4 In C Major (2020) [FLAC]/07 F. Schmidt- Symphony #4 In C Major, 3. Molto Vivace.flac

Track gain : 1.53 dB
Peak : 0.958862
CRC32 hash (test run) : BBDC9209
CRC32 hash : BBDC9209
CRC32 hash (skip zero) : 8D997C0F
AccurateRip v1 signature : 6CB800C5
AccurateRip v2 signature : D328839F
->Accurately ripped (v2, confidence 1/1)
Statistics
Read error : 0
Jitter error (maybe fixed) : 0
Retry sector count : 0
Damaged sector count : 0

Track 08
Filename : /Users/imac/Desktop/Paavo Järvi- Frankfort Radio Symphony Orchestra - F. Schmidt- Complete Symphonies [Disc 3] Symphony #3 In A Major, Symphony #4 In C Major (2020) [FLAC]/08 F. Schmidt- Symphony #4 In C Major, 4. Tempo Primo Un Poco Sostenuto; Passionato. Tempo Primo; Allegro Molto Moderato.flac

Track gain : 1.31 dB
Peak : 0.964050
CRC32 hash (test run) : 2DA19295
CRC32 hash : 2DA19295
CRC32 hash (skip zero) : E808B299
AccurateRip v1 signature : 71EDF513
AccurateRip v2 signature : 4D50FF50
->Accurately ripped (v2, confidence 1/1)
Statistics
Read error : 0
Jitter error (maybe fixed) : 0
Retry sector count : 0
Damaged sector count : 0

No errors occurred

End of status report

––-BEGIN XLD SIGNATURE––-
BMW0gMQpAPjq3eAK1.N3yllvgIi6FEu3_ogiP9MWoBZ24VeBODeEw03Dtauu9j9gO13EPsMIINZP81UDWT.uITW8WzU1wqdJd0e5cXO
––-END XLD SIGNATURE––-

Thanks to the Original ripper !