Tags
Language
Tags

Parasol Caravan - Nemesis (2019)

Posted By: delpotro
Parasol Caravan - Nemesis (2019)

Parasol Caravan - Nemesis (2019)
XLD Rip | FLAC (tracks+log+.cue) - 241 Mb | MP3 CBR 320 kbps - 82 Mb | 00:35:00
Stoner Rock | Label: töchtersöhne records

Ready for take-off? Buckle up and hold on tight when the “fuzztronauts” of PARASOL CARAVAN start their spaceship and speed across the stage with the riff force of a supernova. The Linz-based band counts on calm psychedelic moments merged with heavy fuzz and driving guitar riffs, a fusion epitomizing the right amount of progressiveness and beaming the listener directly into orbit.
Tracklist:
1. Nemesis (03:18)
2. Perception (04:32)
3. Reason (05:18)
4. Acceptance (02:36)
5. Serpent of Time (04:07)
6. Transformation (05:08)
7. Blackstar (03:57)
8. Transition (06:04)

X Lossless Decoder version 20170729 (150.3)

XLD extraction logfile from 2020-03-01 14:56:59 +0100

Parasol Caravan / Nemesis

Used drive : HL-DT-ST BD-RE BP55EB40 (revision 1.00)
Media type : Pressed CD

Ripper mode : XLD Secure Ripper
Disable audio cache : OK for the drive with a cache less than 1375KiB
Make use of C2 pointers : NO
Read offset correction : 6
Max retry count : 20
Gap status : Analyzed, Appended (except HTOA)

TOC of the extracted CD
Track | Start | Length | Start sector | End sector
––––––––––––––––––––––––––––-
1 | 00:00:00 | 03:18:14 | 0 | 14863
2 | 03:18:14 | 04:31:41 | 14864 | 35229
3 | 07:49:55 | 05:18:34 | 35230 | 59113
4 | 13:08:14 | 02:36:31 | 59114 | 70844
5 | 15:44:45 | 04:07:16 | 70845 | 89385
6 | 19:51:61 | 05:07:47 | 89386 | 112457
7 | 24:59:33 | 03:56:43 | 112458 | 130200
8 | 28:56:01 | 06:04:05 | 130201 | 157505

AccurateRip Summary
Disc not found in AccurateRip DB.

All Tracks
Album gain : -10.06 dB
Peak : 0.966583
Statistics
Read error : 0
Jitter error (maybe fixed) : 0
Retry sector count : 0
Damaged sector count : 0

Track 01
Filename : /Users/stefan/Music/Parasol Caravan {2019} Nemesis [FLAC]/01 - Nemesis.flac
/Users/stefan/Music/Parasol Caravan {2019} Nemesis [MP3-V0]/01 - Nemesis.mp3
Pre-gap length : 00:02:00

Track gain : -10.52 dB
Peak : 0.965179
CRC32 hash (test run) : A687D1C4
CRC32 hash : A687D1C4
CRC32 hash (skip zero) : 132F4B97
AccurateRip v1 signature : 9176B3BC
AccurateRip v2 signature : D10FA25D
->Track not present in AccurateRip database.
Statistics
Read error : 0
Jitter error (maybe fixed) : 0
Retry sector count : 0
Damaged sector count : 0

Track 02
Filename : /Users/stefan/Music/Parasol Caravan {2019} Nemesis [FLAC]/02 - Perception.flac
/Users/stefan/Music/Parasol Caravan {2019} Nemesis [MP3-V0]/02 - Perception.mp3
Pre-gap length : 00:00:42

Track gain : -10.83 dB
Peak : 0.966583
CRC32 hash (test run) : 3ABBDB44
CRC32 hash : 3ABBDB44
CRC32 hash (skip zero) : B7EB5438
AccurateRip v1 signature : D7BC5662
AccurateRip v2 signature : EC8CCAA7
->Track not present in AccurateRip database.
Statistics
Read error : 0
Jitter error (maybe fixed) : 0
Retry sector count : 0
Damaged sector count : 0

Track 03
Filename : /Users/stefan/Music/Parasol Caravan {2019} Nemesis [FLAC]/03 - Reason.flac
/Users/stefan/Music/Parasol Caravan {2019} Nemesis [MP3-V0]/03 - Reason.mp3
Pre-gap length : 00:01:04

Track gain : -10.08 dB
Peak : 0.966583
CRC32 hash (test run) : 3AAD0697
CRC32 hash : 3AAD0697
CRC32 hash (skip zero) : 15BD0A6A
AccurateRip v1 signature : 30AC14A0
AccurateRip v2 signature : AB085D74
->Track not present in AccurateRip database.
Statistics
Read error : 0
Jitter error (maybe fixed) : 0
Retry sector count : 0
Damaged sector count : 0

Track 04
Filename : /Users/stefan/Music/Parasol Caravan {2019} Nemesis [FLAC]/04 - Acceptance.flac
/Users/stefan/Music/Parasol Caravan {2019} Nemesis [MP3-V0]/04 - Acceptance.mp3
Pre-gap length : 00:00:58

Track gain : -8.23 dB
Peak : 0.966492
CRC32 hash (test run) : A674F3B3
CRC32 hash : A674F3B3
CRC32 hash (skip zero) : 9AF08140
AccurateRip v1 signature : 9E5E79F9
AccurateRip v2 signature : 2886C8EC
->Track not present in AccurateRip database.
Statistics
Read error : 0
Jitter error (maybe fixed) : 0
Retry sector count : 0
Damaged sector count : 0

Track 05
Filename : /Users/stefan/Music/Parasol Caravan {2019} Nemesis [FLAC]/05 - Serpent of Time.flac
/Users/stefan/Music/Parasol Caravan {2019} Nemesis [MP3-V0]/05 - Serpent of Time.mp3

Track gain : -9.73 dB
Peak : 0.966583
CRC32 hash (test run) : C7C81D67
CRC32 hash : C7C81D67
CRC32 hash (skip zero) : 14CD6422
AccurateRip v1 signature : 2CF76014
AccurateRip v2 signature : 9DB45D14
->Track not present in AccurateRip database.
Statistics
Read error : 0
Jitter error (maybe fixed) : 0
Retry sector count : 0
Damaged sector count : 0

Track 06
Filename : /Users/stefan/Music/Parasol Caravan {2019} Nemesis [FLAC]/06 - Transformation.flac
/Users/stefan/Music/Parasol Caravan {2019} Nemesis [MP3-V0]/06 - Transformation.mp3
Pre-gap length : 00:01:07

Track gain : -8.90 dB
Peak : 0.966553
CRC32 hash (test run) : 4893FD75
CRC32 hash : 4893FD75
CRC32 hash (skip zero) : 86D33B5B
AccurateRip v1 signature : FAE8207C
AccurateRip v2 signature : E5AE1EC3
->Track not present in AccurateRip database.
Statistics
Read error : 0
Jitter error (maybe fixed) : 0
Retry sector count : 0
Damaged sector count : 0

Track 07
Filename : /Users/stefan/Music/Parasol Caravan {2019} Nemesis [FLAC]/07 - Blackstar.flac
/Users/stefan/Music/Parasol Caravan {2019} Nemesis [MP3-V0]/07 - Blackstar.mp3
Pre-gap length : 00:00:71

Track gain : -10.64 dB
Peak : 0.963989
CRC32 hash (test run) : 1D7DA197
CRC32 hash : 1D7DA197
CRC32 hash (skip zero) : 286790C8
AccurateRip v1 signature : C5895192
AccurateRip v2 signature : B03DB342
->Track not present in AccurateRip database.
Statistics
Read error : 0
Jitter error (maybe fixed) : 0
Retry sector count : 0
Damaged sector count : 0

Track 08
Filename : /Users/stefan/Music/Parasol Caravan {2019} Nemesis [FLAC]/08 - Transition.flac
/Users/stefan/Music/Parasol Caravan {2019} Nemesis [MP3-V0]/08 - Transition.mp3
Pre-gap length : 00:01:48

Track gain : -9.11 dB
Peak : 0.966522
CRC32 hash (test run) : D76E789E
CRC32 hash : D76E789E
CRC32 hash (skip zero) : 44191BB8
AccurateRip v1 signature : 1D4679E1
AccurateRip v2 signature : 4CD184F4
->Track not present in AccurateRip database.
Statistics
Read error : 0
Jitter error (maybe fixed) : 0
Retry sector count : 0
Damaged sector count : 0

No errors occurred

End of status report

––-BEGIN XLD SIGNATURE––-
yaminYdGBGZDLYu5GJOOUCjlh_.Hfs80da3CAni3ltHU6B_e_dUkObd8sTn6IiAj9sEVU3U6iMsEMqr3di7bTIfabVB_ylUWbcQu58i
––-END XLD SIGNATURE––-

Thanks to the Original ripper !