Subcategories

Patsy Cline - Sweet Dreams: The Complete Decca Studio Masters (1960-63) {2CD Hip-O Select Limited Edition rel 2010}

Posted By: ruskaval
Patsy Cline - Sweet Dreams: The Complete Decca Studio Masters (1960-63) {2CD Hip-O Select Limited Edition rel 2010}

Patsy Cline - Sweet Dreams: The Complete Decca Studio Masters (1960-63) {2CD Hip-O Select Limited Edition rel 2010}
EAC rip (secure mode) | FLAC (tracks)+CUE+LOG -> 764 Mb | MP3 @320 -> 304 Mb
Full Artwork @ 300 dpi (png) -> 88 Mb | 5% repair rar
© 1960-63, 2010 Geffen / Hip-O Select / Universal | B0013793-02
Country / Country Pop / Nashville Sound / Country Boogie / Traditional Country / Rockabilly

Hip-O Select’s 2010 double-disc set Sweet Dreams: The Complete Decca Masters (1960-1963) gathers all of the 51 master takes Patsy Cline recorded with Owen Bradley after she left 4 Star Records for Decca in 1960, running right until her tragic death in 1963. This is the first time all these master takes have been issued in a complete set, which is hard to believe because they form the core of Cline’s legacy. Patsy had been recording frequently since 1954 when she first signed a deal with 4 Star, but the label’s president, Bill McCall, insisted that she only recorded songs for which he owned the publishing rights, a restrictive deal that resulted in only one hit, the classic career-making “Walkin’ After Midnight.”
Patsy Cline - Sweet Dreams: The Complete Decca Studio Masters (1960-63) {2CD Hip-O Select Limited Edition rel 2010}

This was a fluke not due to Cline’s talent, but to the dross she had at 4-Star, material that couldn’t be saved even with her increasing partnership with producer Owen Bradley. Once at Decca, Cline continued to work with Bradley and the pair soon hit upon what became Cline’s signature sound: a lush, gorgeous, string-laden setting, equally indebted to Nashville and classic big-band pop, one that pushed her supple vocals to the forefront. It was a sound that wasn’t classically country, at least in the honky tonk sense, but it pushed country closer to pop, providing the blueprint for generations of crossover country singers. This lasting legacy gives the impression that Cline was more popular – and recorded more music – during her prime than she actually was, when she really had about two years of popularity, highlighted by the singles “Crazy,” “I Fall to Pieces,” “She’s Got You,” and “Sweet Dreams (Of You).” All these are here, along with a 1961 remake of “Walkin’ After Midnight,” sitting alongside a bunch of big band (“The Wayward Wind,” “You Belong to Me,” “South of the Border (Down Mexico Way,” “Bill Bailey, Won’t You Please Come Home”) and country standards (“San Antonio Rose,” “Blue Moon of Kentucky,” “Faded Love,” “Crazy Arms”), with the former slightly outweighing the latter, sometimes overshadowing the newer country originals by Harlan Howard, Mel Tillis, and Don Gibson, among others. As a whole, these master takes surprisingly favor the big band over country, paying enough of a debt to her influences (particularly Jo Stafford) to suggest a talent in ascendance, not full-fight, but in away that only makes Cline’s legacy resonate more deeply. Given time, she would surely have achieved more, but what she did in the 28 months documented here is create the sound and style of the modern country-pop singer, an achievement that resonates strongly throughout the big-band echoes here.
Patsy Cline - Sweet Dreams: The Complete Decca Studio Masters (1960-63) {2CD Hip-O Select Limited Edition rel 2010}


tracklist:
CD1

01 - I Fall To Pieces
02 - Shoes
03 - Lovin' In Vain
04 - True Love
05 - San Antonio Rose
06 - The Wayward Wind
07 - A Poor Man's Roses (Or A Rich Man's Gold)
08 - Crazy
09 - Who Can I Count On
10 - Seven Lonely Days
11 - I Love You So Much It Hurts
12 - Foolin' 'Round
13 - Have You Ever Been Lonely (Have You Ever Been Blue)
14 - South Of The Border (Down Mexico Way)
15 - Walkin' After Midnight
16 - Strange
17 - You're Stronger Than Me
18 - She's Got You
19 - You Made Me Love You (I Didn't Want To Do It)
20 - You Belong To Me
21 - Heartaches
22 - Your Cheatin' Heart
23 - That's My Desire
24 - Half As Much
25 - Lonely Street
26 - Anytime

Patsy Cline - Sweet Dreams: The Complete Decca Studio Masters (1960-63) {2CD Hip-O Select Limited Edition rel 2010}


CD2
01 - You Were Only Fooling (While I Was Falling In Love)
02 - I Can't Help It (If I'm Still In Love With You)
03 - You're Stronger Than Me
04 - When I Get Thru With You (You'll Love Me Too)
05 - Imagine That
06 - So Wrong
07 - Why Can't He Be You
08 - Your Kinda Love
09 - When You Need A Laugh
10 - Leavin' On Your Mind
11 - Back In Baby's Arms
12 - Tra Le La Le La Triangle
13 - That's How A Heartache Begins
14 - Faded Love
15 - Someday (You'll Want Me To Want You)
16 - Love Letters In The Sand
17 - Blue Moon Of Kentucky
18 - Sweet Dreams
19 - Always
20 - Does Your Heart Beat For Me
21 - Bill Bailey, Won't You Please Come Home
22 - He Called Me Baby
23 - Crazy Arms
24 - You Took Him Off My Hands
25 - I'll Sail My Ship Alone

Patsy Cline - Sweet Dreams: The Complete Decca Studio Masters (1960-63) {2CD Hip-O Select Limited Edition rel 2010}


Exact Audio Copy V1.0 beta 1 from 15. November 2010

EAC extraction logfile from 25. April 2011, 12:47

Patsy Cline / Sweet Dreams - The Complete Decca Studio Masters (1960-1963) - Disc 1

Used drive : LITE-ON CD-RW SOHR-5238S Adapter: 6 ID: 3

Read mode : Secure
Utilize accurate stream : Yes
Defeat audio cache : Yes
Make use of C2 pointers : No

Read offset correction : 6
Overread into Lead-In and Lead-Out : No
Fill up missing offset samples with silence : Yes
Delete leading and trailing silent blocks : No
Null samples used in CRC calculations : Yes
Used interface : Installed external ASPI interface
Gap handling : Appended to previous track

Used output format : Internal WAV Routines
Sample format : 44.100 Hz; 16 Bit; Stereo


TOC of the extracted CD

Track | Start | Length | Start sector | End sector
––––––––––––––––––––––––––––-
1 | 0:00.00 | 2:49.14 | 0 | 12688
2 | 2:49.14 | 2:26.74 | 12689 | 23712
3 | 5:16.13 | 2:11.64 | 23713 | 33601
4 | 7:28.02 | 2:07.55 | 33602 | 43181
5 | 9:35.57 | 2:20.72 | 43182 | 53753
6 | 11:56.54 | 3:21.28 | 53754 | 68856
7 | 15:18.07 | 2:37.66 | 68857 | 80697
8 | 17:55.73 | 2:43.58 | 80698 | 92980
9 | 20:39.56 | 2:16.27 | 92981 | 103207
10 | 22:56.08 | 2:12.10 | 103208 | 113117
11 | 25:08.18 | 2:14.67 | 113118 | 123234
12 | 27:23.10 | 2:13.25 | 123235 | 133234
13 | 29:36.35 | 2:12.48 | 133235 | 143182
14 | 31:49.08 | 2:26.03 | 143183 | 154135
15 | 34:15.11 | 2:00.33 | 154136 | 163168
16 | 36:15.44 | 2:12.51 | 163169 | 173119
17 | 38:28.20 | 2:53.56 | 173120 | 186150
18 | 41:22.01 | 3:00.51 | 186151 | 199701
19 | 44:22.52 | 2:47.49 | 199702 | 212275
20 | 47:10.26 | 3:04.12 | 212276 | 226087
21 | 50:14.38 | 2:12.08 | 226088 | 235995
22 | 52:26.46 | 2:22.02 | 235996 | 246647
23 | 54:48.48 | 3:03.01 | 246648 | 260373
24 | 57:51.49 | 2:29.33 | 260374 | 271581
25 | 60:21.07 | 2:34.05 | 271582 | 283136
26 | 62:55.12 | 1:57.36 | 283137 | 291947


Track 1

Filename F:\eac\Patsy Cline - Decca\Disc 1\01 - I Fall To Pieces.wav

Pre-gap length 0:00:02.00

Peak level 94.9 %
Extraction speed 5.7 X
Track quality 100.0 %
Test CRC E9A074EE
Copy CRC E9A074EE
Accurately ripped (confidence 2) [828DA93D]
Copy OK

Track 2

Filename F:\eac\Patsy Cline - Decca\Disc 1\02 - Shoes.wav

Pre-gap length 0:00:01.37

Peak level 100.0 %
Extraction speed 5.9 X
Track quality 100.0 %
Test CRC 2D054268
Copy CRC 2D054268
Accurately ripped (confidence 2) [7FC41ED1]
Copy OK

Track 3

Filename F:\eac\Patsy Cline - Decca\Disc 1\03 - Lovin' In Vain.wav

Pre-gap length 0:00:01.35

Peak level 91.5 %
Extraction speed 5.0 X
Track quality 99.9 %
Test CRC 4B689106
Copy CRC 4B689106
Accurately ripped (confidence 2) [7A6CA514]
Copy OK

Track 4

Filename F:\eac\Patsy Cline - Decca\Disc 1\04 - True Love.wav

Pre-gap length 0:00:01.32

Peak level 96.0 %
Extraction speed 6.3 X
Track quality 100.0 %
Test CRC 25F0DF75
Copy CRC 25F0DF75
Accurately ripped (confidence 2) [42E10036]
Copy OK

Track 5

Filename F:\eac\Patsy Cline - Decca\Disc 1\05 - San Antonio Rose.wav

Pre-gap length 0:00:01.71

Peak level 99.9 %
Extraction speed 6.6 X
Track quality 100.0 %
Test CRC D5D25E4A
Copy CRC D5D25E4A
Accurately ripped (confidence 2) [196469D7]
Copy OK

Track 6

Filename F:\eac\Patsy Cline - Decca\Disc 1\06 - The Wayward Wind.wav

Pre-gap length 0:00:01.67

Peak level 78.2 %
Extraction speed 7.4 X
Track quality 100.0 %
Test CRC 07753D9D
Copy CRC 07753D9D
Accurately ripped (confidence 2) [E6200018]
Copy OK

Track 7

Filename F:\eac\Patsy Cline - Decca\Disc 1\07 - A Poor Man's Roses (Or A Rich Man's Gold).wav

Pre-gap length 0:00:01.19

Peak level 89.0 %
Extraction speed 7.5 X
Track quality 100.0 %
Test CRC CCD5E659
Copy CRC CCD5E659
Accurately ripped (confidence 2) [FE6529EF]
Copy OK

Track 8

Filename F:\eac\Patsy Cline - Decca\Disc 1\08 - Crazy.wav

Pre-gap length 0:00:02.01

Peak level 99.9 %
Extraction speed 7.8 X
Track quality 100.0 %
Test CRC F1D7EBE2
Copy CRC F1D7EBE2
Accurately ripped (confidence 2) [5E0DE60A]
Copy OK

Track 9

Filename F:\eac\Patsy Cline - Decca\Disc 1\09 - Who Can I Count On.wav

Pre-gap length 0:00:01.49

Peak level 96.4 %
Extraction speed 7.8 X
Track quality 100.0 %
Test CRC 5B41ED37
Copy CRC 5B41ED37
Accurately ripped (confidence 2) [2DF5BA62]
Copy OK

Track 10

Filename F:\eac\Patsy Cline - Decca\Disc 1\10 - Seven Lonely Days.wav

Pre-gap length 0:00:01.34

Peak level 99.9 %
Extraction speed 7.9 X
Track quality 100.0 %
Test CRC 687ACA80
Copy CRC 687ACA80
Accurately ripped (confidence 2) [53BF5C15]
Copy OK

Track 11

Filename F:\eac\Patsy Cline - Decca\Disc 1\11 - I Love You So Much It Hurts.wav

Pre-gap length 0:00:01.41

Peak level 100.0 %
Extraction speed 8.2 X
Track quality 100.0 %
Test CRC CF6129B7
Copy CRC CF6129B7
Accurately ripped (confidence 2) [0D296BDF]
Copy OK

Track 12

Filename F:\eac\Patsy Cline - Decca\Disc 1\12 - Foolin' 'Round.wav

Pre-gap length 0:00:01.58

Peak level 100.0 %
Extraction speed 8.2 X
Track quality 100.0 %
Test CRC 1F519550
Copy CRC 1F519550
Accurately ripped (confidence 2) [1EC123A9]
Copy OK

Track 13

Filename F:\eac\Patsy Cline - Decca\Disc 1\13 - Have You Ever Been Lonely (Have You Ever Been Blue).wav

Pre-gap length 0:00:02.00

Peak level 100.0 %
Extraction speed 8.5 X
Track quality 100.0 %
Test CRC BA5FF72C
Copy CRC BA5FF72C
Accurately ripped (confidence 2) [AA67C28F]
Copy OK

Track 14

Filename F:\eac\Patsy Cline - Decca\Disc 1\14 - South Of The Border (Down Mexico Way).wav

Pre-gap length 0:00:02.02

Peak level 96.3 %
Extraction speed 8.9 X
Track quality 100.0 %
Test CRC C5315BE2
Copy CRC C5315BE2
Accurately ripped (confidence 2) [2B3F5B4A]
Copy OK

Track 15

Filename F:\eac\Patsy Cline - Decca\Disc 1\15 - Walkin' After Midnight.wav

Pre-gap length 0:00:01.08

Peak level 73.4 %
Extraction speed 8.6 X
Track quality 100.0 %
Test CRC FD51CD2C
Copy CRC FD51CD2C
Accurately ripped (confidence 2) [6B284062]
Copy OK

Track 16

Filename F:\eac\Patsy Cline - Decca\Disc 1\16 - Strange.wav

Pre-gap length 0:00:01.52

Peak level 96.1 %
Extraction speed 9.1 X
Track quality 100.0 %
Test CRC 5DE25064
Copy CRC 5DE25064
Accurately ripped (confidence 2) [E4C8B443]
Copy OK

Track 17

Filename F:\eac\Patsy Cline - Decca\Disc 1\17 - You're Stronger Than Me.wav

Pre-gap length 0:00:01.44

Peak level 99.9 %
Extraction speed 9.7 X
Track quality 100.0 %
Test CRC 912DEE29
Copy CRC 912DEE29
Accurately ripped (confidence 2) [2D1A866E]
Copy OK

Track 18

Filename F:\eac\Patsy Cline - Decca\Disc 1\18 - She's Got You.wav

Pre-gap length 0:00:02.01

Peak level 100.0 %
Extraction speed 9.8 X
Track quality 100.0 %
Test CRC C8EB6AEF
Copy CRC C8EB6AEF
Accurately ripped (confidence 2) [4FB86567]
Copy OK

Track 19

Filename F:\eac\Patsy Cline - Decca\Disc 1\19 - You Made Me Love You (I Didn't Want To Do It).wav

Pre-gap length 0:00:02.03

Peak level 82.9 %
Extraction speed 10.0 X
Track quality 100.0 %
Test CRC BEA058CA
Copy CRC BEA058CA
Accurately ripped (confidence 2) [4F8A796E]
Copy OK

Track 20

Filename F:\eac\Patsy Cline - Decca\Disc 1\20 - You Belong To Me.wav

Pre-gap length 0:00:01.10

Peak level 95.9 %
Extraction speed 10.4 X
Track quality 100.0 %
Test CRC 7321937A
Copy CRC 7321937A
Accurately ripped (confidence 2) [876362E5]
Copy OK

Track 21

Filename F:\eac\Patsy Cline - Decca\Disc 1\21 - Heartaches.wav

Pre-gap length 0:00:01.19

Peak level 90.0 %
Extraction speed 9.8 X
Track quality 100.0 %
Test CRC 6CFE76A4
Copy CRC 6CFE76A4
Accurately ripped (confidence 2) [B7769B2E]
Copy OK

Track 22

Filename F:\eac\Patsy Cline - Decca\Disc 1\22 - Your Cheatin' Heart.wav

Pre-gap length 0:00:01.38

Peak level 80.7 %
Extraction speed 10.1 X
Track quality 100.0 %
Test CRC DFDC8790
Copy CRC DFDC8790
Accurately ripped (confidence 2) [2D50C829]
Copy OK

Track 23

Filename F:\eac\Patsy Cline - Decca\Disc 1\23 - That's My Desire.wav

Pre-gap length 0:00:01.62

Peak level 95.8 %
Extraction speed 10.7 X
Track quality 100.0 %
Test CRC AF6F805B
Copy CRC AF6F805B
Accurately ripped (confidence 2) [7F6DA2CB]
Copy OK

Track 24

Filename F:\eac\Patsy Cline - Decca\Disc 1\24 - Half As Much.wav

Pre-gap length 0:00:01.30

Peak level 99.9 %
Extraction speed 8.9 X
Track quality 99.9 %
Test CRC 2BA770A3
Copy CRC 2BA770A3
Accurately ripped (confidence 2) [E52FE827]
Copy OK

Track 25

Filename F:\eac\Patsy Cline - Decca\Disc 1\25 - Lonely Street.wav

Pre-gap length 0:00:01.46

Peak level 74.6 %
Extraction speed 8.9 X
Track quality 99.9 %
Test CRC 5667023A
Copy CRC 5667023A
Accurately ripped (confidence 2) [BB7ED4D1]
Copy OK

Track 26

Filename F:\eac\Patsy Cline - Decca\Disc 1\26 - Anytime.wav

Pre-gap length 0:00:01.43

Peak level 86.2 %
Extraction speed 10.3 X
Track quality 100.0 %
Test CRC A70BF014
Copy CRC A70BF014
Accurately ripped (confidence 2) [70FD413A]
Copy OK


All tracks accurately ripped

No errors occurred

End of status report

==== Log checksum 5149858D9D7514B4301B5C7616CB81FFFFC6B1DDD1EC205AEA24937E39C04B2A ====

Exact Audio Copy V1.0 beta 1 from 15. November 2010

EAC extraction logfile from 25. April 2011, 13:42

Patsy Cline / Sweet Dreams - The Complete Decca Studio Masters (1960-1963) - Disc 2

Used drive : LITE-ON CD-RW SOHR-5238S Adapter: 6 ID: 3

Read mode : Secure
Utilize accurate stream : Yes
Defeat audio cache : Yes
Make use of C2 pointers : No

Read offset correction : 6
Overread into Lead-In and Lead-Out : No
Fill up missing offset samples with silence : Yes
Delete leading and trailing silent blocks : No
Null samples used in CRC calculations : Yes
Used interface : Installed external ASPI interface
Gap handling : Appended to previous track

Used output format : Internal WAV Routines
Sample format : 44.100 Hz; 16 Bit; Stereo


TOC of the extracted CD

Track | Start | Length | Start sector | End sector
––––––––––––––––––––––––––––-
1 | 0:00.00 | 1:58.40 | 0 | 8889
2 | 1:58.40 | 2:57.28 | 8890 | 22192
3 | 4:55.68 | 2:39.36 | 22193 | 34153
4 | 7:35.29 | 2:38.32 | 34154 | 46035
5 | 10:13.61 | 2:56.15 | 46036 | 59250
6 | 13:10.01 | 3:01.68 | 59251 | 72893
7 | 16:11.69 | 3:27.26 | 72894 | 88444
8 | 19:39.20 | 2:34.12 | 88445 | 100006
9 | 22:13.32 | 2:51.08 | 100007 | 112839
10 | 25:04.40 | 2:26.16 | 112840 | 123805
11 | 27:30.56 | 2:04.06 | 123806 | 133111
12 | 29:34.62 | 2:14.70 | 133112 | 143231
13 | 31:49.57 | 2:16.17 | 143232 | 153448
14 | 34:05.74 | 3:45.22 | 153449 | 170345
15 | 37:51.21 | 2:52.26 | 170346 | 183271
16 | 40:43.47 | 2:25.23 | 183272 | 194169
17 | 43:08.70 | 2:09.41 | 194170 | 203885
18 | 45:18.36 | 2:34.28 | 203886 | 215463
19 | 47:52.64 | 2:42.05 | 215464 | 227618
20 | 50:34.69 | 2:38.70 | 227619 | 239538
21 | 53:13.64 | 2:47.53 | 239539 | 252116
22 | 56:01.42 | 2:41.40 | 252117 | 264231
23 | 58:43.07 | 2:25.16 | 264232 | 275122
24 | 61:08.23 | 3:00.01 | 275123 | 288623
25 | 64:08.24 | 2:29.25 | 288624 | 299823


Track 1

Filename F:\eac\Patsy Cline - Decca\Disc 2\01 - You Were Only Fooling (While I Was Falling In Love).wav

Pre-gap length 0:00:02.00

Peak level 99.9 %
Extraction speed 3.6 X
Track quality 99.9 %
Test CRC 91FC9128
Copy CRC 91FC9128
Accurately ripped (confidence 2) [32761DF5]
Copy OK

Track 2

Filename F:\eac\Patsy Cline - Decca\Disc 2\02 - I Can't Help It (If I'm Still In Love With You).wav

Pre-gap length 0:00:01.14

Peak level 78.5 %
Extraction speed 5.2 X
Track quality 100.0 %
Test CRC E18F18EF
Copy CRC E18F18EF
Accurately ripped (confidence 2) [1816E849]
Copy OK

Track 3

Filename F:\eac\Patsy Cline - Decca\Disc 2\03 - You're Stronger Than Me.wav

Pre-gap length 0:00:01.13

Peak level 97.5 %
Extraction speed 5.4 X
Track quality 100.0 %
Test CRC C208923B
Copy CRC C208923B
Accurately ripped (confidence 2) [2D84AF91]
Copy OK

Track 4

Filename F:\eac\Patsy Cline - Decca\Disc 2\04 - When I Get Thru With You (You'll Love Me Too).wav

Pre-gap length 0:00:01.25

Peak level 94.8 %
Extraction speed 5.6 X
Track quality 100.0 %
Test CRC B734FB31
Copy CRC B734FB31
Accurately ripped (confidence 2) [3258681D]
Copy OK

Track 5

Filename F:\eac\Patsy Cline - Decca\Disc 2\05 - Imagine That.wav

Pre-gap length 0:00:01.37

Peak level 90.9 %
Extraction speed 6.0 X
Track quality 100.0 %
Test CRC E435C46A
Copy CRC E435C46A
Accurately ripped (confidence 2) [9F28606A]
Copy OK

Track 6

Filename F:\eac\Patsy Cline - Decca\Disc 2\06 - So Wrong.wav

Pre-gap length 0:00:01.60

Peak level 96.1 %
Extraction speed 6.3 X
Track quality 100.0 %
Test CRC 6CD54AF3
Copy CRC 6CD54AF3
Accurately ripped (confidence 2) [2F78289D]
Copy OK

Track 7

Filename F:\eac\Patsy Cline - Decca\Disc 2\07 - Why Can't He Be You.wav

Pre-gap length 0:00:01.60

Peak level 71.2 %
Extraction speed 6.9 X
Track quality 100.0 %
Test CRC DA9E45FD
Copy CRC DA9E45FD
Accurately ripped (confidence 2) [714E7C2F]
Copy OK

Track 8

Filename F:\eac\Patsy Cline - Decca\Disc 2\08 - Your Kinda Love.wav

Pre-gap length 0:00:01.60

Peak level 84.6 %
Extraction speed 6.7 X
Track quality 100.0 %
Test CRC 3412ED56
Copy CRC 3412ED56
Accurately ripped (confidence 2) [23860470]
Copy OK

Track 9

Filename F:\eac\Patsy Cline - Decca\Disc 2\09 - When You Need A Laugh.wav

Pre-gap length 0:00:02.41

Peak level 97.5 %
Extraction speed 7.1 X
Track quality 100.0 %
Test CRC BC8AF562
Copy CRC BC8AF562
Accurately ripped (confidence 2) [9D6B7046]
Copy OK

Track 10

Filename F:\eac\Patsy Cline - Decca\Disc 2\10 - Leavin' On Your Mind.wav

Pre-gap length 0:00:02.20

Peak level 83.1 %
Extraction speed 7.1 X
Track quality 100.0 %
Test CRC 141D3059
Copy CRC 141D3059
Accurately ripped (confidence 2) [3B46111B]
Copy OK

Track 11

Filename F:\eac\Patsy Cline - Decca\Disc 2\11 - Back In Baby's Arms.wav

Pre-gap length 0:00:02.13

Peak level 100.0 %
Extraction speed 7.0 X
Track quality 100.0 %
Test CRC 6E762BAF
Copy CRC 6E762BAF
Accurately ripped (confidence 2) [43242CE6]
Copy OK

Track 12

Filename F:\eac\Patsy Cline - Decca\Disc 2\12 - Tra Le La Le La Triangle.wav

Pre-gap length 0:00:01.24

Peak level 91.3 %
Extraction speed 7.3 X
Track quality 100.0 %
Test CRC 11B1E8E2
Copy CRC 11B1E8E2
Accurately ripped (confidence 2) [5AD8E9E2]
Copy OK

Track 13

Filename F:\eac\Patsy Cline - Decca\Disc 2\13 - That's How A Heartache Begins.wav

Pre-gap length 0:00:01.25

Peak level 87.8 %
Extraction speed 7.5 X
Track quality 100.0 %
Test CRC B6E8DFDA
Copy CRC B6E8DFDA
Accurately ripped (confidence 2) [5B21BA01]
Copy OK

Track 14

Filename F:\eac\Patsy Cline - Decca\Disc 2\14 - Faded Love.wav

Pre-gap length 0:00:01.60

Peak level 100.0 %
Extraction speed 8.3 X
Track quality 100.0 %
Test CRC 69557090
Copy CRC 69557090
Accurately ripped (confidence 2) [03A7A975]
Copy OK

Track 15

Filename F:\eac\Patsy Cline - Decca\Disc 2\15 - Someday (You'll Want Me To Want You).wav

Pre-gap length 0:00:01.67

Peak level 95.0 %
Extraction speed 7.1 X
Track quality 99.9 %
Test CRC CEA48F08
Copy CRC CEA48F08
Accurately ripped (confidence 2) [ADCB8474]
Copy OK

Track 16

Filename F:\eac\Patsy Cline - Decca\Disc 2\16 - Love Letters In The Sand.wav

Pre-gap length 0:00:01.72

Peak level 90.3 %
Extraction speed 8.2 X
Track quality 100.0 %
Test CRC E2948E6D
Copy CRC E2948E6D
Accurately ripped (confidence 2) [7CAE00EC]
Copy OK

Track 17

Filename F:\eac\Patsy Cline - Decca\Disc 2\17 - Blue Moon Of Kentucky.wav

Pre-gap length 0:00:01.57

Peak level 96.4 %
Extraction speed 8.2 X
Track quality 100.0 %
Test CRC BA26BDF2
Copy CRC BA26BDF2
Accurately ripped (confidence 2) [849144C6]
Copy OK

Track 18

Filename F:\eac\Patsy Cline - Decca\Disc 2\18 - Sweet Dreams.wav

Pre-gap length 0:00:01.42

Peak level 90.3 %
Extraction speed 7.1 X
Track quality 99.9 %
Test CRC 275C0BCC
Copy CRC 275C0BCC
Accurately ripped (confidence 2) [5927D357]
Copy OK

Track 19

Filename F:\eac\Patsy Cline - Decca\Disc 2\19 - Always.wav

Pre-gap length 0:00:01.48

Peak level 98.9 %
Extraction speed 8.6 X
Track quality 100.0 %
Test CRC 9F46412E
Copy CRC 9F46412E
Accurately ripped (confidence 2) [1AC8EEC8]
Copy OK

Track 20

Filename F:\eac\Patsy Cline - Decca\Disc 2\20 - Does Your Heart Beat For Me.wav

Pre-gap length 0:00:01.66

Peak level 99.9 %
Extraction speed 8.9 X
Track quality 100.0 %
Test CRC EC9655F6
Copy CRC EC9655F6
Accurately ripped (confidence 2) [8ED7776E]
Copy OK

Track 21

Filename F:\eac\Patsy Cline - Decca\Disc 2\21 - Bill Bailey, Won't You Please Come Home.wav

Pre-gap length 0:00:01.07

Peak level 100.0 %
Extraction speed 7.7 X
Track quality 99.9 %
Test CRC F227B782
Copy CRC F227B782
Accurately ripped (confidence 2) [AAE8572E]
Copy OK

Track 22

Filename F:\eac\Patsy Cline - Decca\Disc 2\22 - He Called Me Baby.wav

Pre-gap length 0:00:01.60

Peak level 99.2 %
Extraction speed 9.2 X
Track quality 100.0 %
Test CRC 186F7D46
Copy CRC 186F7D46
Accurately ripped (confidence 2) [EE10B6DD]
Copy OK

Track 23

Filename F:\eac\Patsy Cline - Decca\Disc 2\23 - Crazy Arms.wav

Pre-gap length 0:00:02.00

Peak level 98.2 %
Extraction speed 9.2 X
Track quality 100.0 %
Test CRC C57FFAA3
Copy CRC C57FFAA3
Accurately ripped (confidence 2) [7C0DA7B1]
Copy OK

Track 24

Filename F:\eac\Patsy Cline - Decca\Disc 2\24 - You Took Him Off My Hands.wav

Pre-gap length 0:00:01.52

Peak level 100.0 %
Extraction speed 9.6 X
Track quality 100.0 %
Test CRC CF5F34DF
Copy CRC CF5F34DF
Accurately ripped (confidence 2) [011DB1F0]
Copy OK

Track 25

Filename F:\eac\Patsy Cline - Decca\Disc 2\25 - I'll Sail My Ship Alone.wav

Pre-gap length 0:00:01.31

Peak level 99.9 %
Extraction speed 9.5 X
Track quality 100.0 %
Test CRC 5BD98BF7
Copy CRC 5BD98BF7
Accurately ripped (confidence 2) [287ED137]
Copy OK


All tracks accurately ripped

No errors occurred

End of status report

==== Log checksum 6C0A23F48F9A4CCDAF5B9E464CDA711146F99A18D9C5740D58266D2D307CD2C9 ====


Patsy Cline - Sweet Dreams: The Complete Decca Studio Masters (1960-63) {2CD Hip-O Select Limited Edition rel 2010}



===