Subcategories
Tags
Language
Tags

Paul Desmond - The Ballad of Paul Desmond (1996)

Posted By: Domestos
Paul Desmond - The Ballad of Paul Desmond (1996)

Paul Desmond - The Ballad of Paul Desmond (1996)
EAC Rip | FLAC (tracks+.cue, log) ~ 407.79 Mb | 01:12:32 | Covers
Cool | Label: BMG France/RCA Victor - 74321429372

Paul Desmond (born Paul Emil Breitenfeld, November 25, 1924 – May 30, 1977) was an American jazz alto saxophonist and composer, best known for his work with the Dave Brubeck Quartet and for composing that group's biggest hit, "Take Five". He was one of the most popular musicians to come out of the cool jazz scene. In addition to his work with Brubeck, he led several groups and collaborated with Gerry Mulligan, Chet Baker, Jim Hall, and Ed Bickert. After years of chain smoking and poor health, Desmond succumbed to lung cancer in 1977 after a tour with Brubeck.

===
Discogs | Amazon | Wiki
===


Track List:
01. The Night Has a Thousand Eyes (4:46)
02. Samba de Orfeu (4:21)
03. Take Ten (3:08)
04. Curacao Doloroso (4:30)
05. All the Things You Are (5:51)
06. Rude Old Man (5:41)
07. Autumn Leaves (5:44)
08. Theme from "Black Orfeus" (4:11)
09. The Girl from East 9th Street (5:58)
10. I've Got You Under My Skin (4:51)
11. A Taste of Honey (4:31)
12. The One I Love (Belongs to Someone Else) (5:37)
13. Easy Living (7:07)
14. By the River Saint Marie (6:16)

Highlights from "The Complete Paul Desmond RCA Victor Recordings (1961-65)".

Paul Desmond - The Ballad of Paul Desmond (1996)

Exact Audio Copy V1.3 from 2. September 2016

EAC extraction logfile from 20. December 2019, 19:07

Paul Desmond / The Ballad of Paul Desmond

Used drive : PBDS DVD+-RW DS-8W1P Adapter: 1 ID: 0

Read mode : Secure
Utilize accurate stream : Yes
Defeat audio cache : Yes
Make use of C2 pointers : No

Read offset correction : 594
Overread into Lead-In and Lead-Out : No
Fill up missing offset samples with silence : Yes
Delete leading and trailing silent blocks : No
Null samples used in CRC calculations : Yes
Used interface : Native Win32 interface for Win NT & 2000
Gap handling : Appended to previous track

Used output format : User Defined Encoder
Selected bitrate : 1024 kBit/s
Quality : High
Add ID3 tag : No
Command line compressor : C:\Program Files (x86)\Exact Audio Copy\Flac\flac.exe
Additional command line options : -8 -V -T "ARTIST=%artist%" -T "TITLE=%title%" -T "ALBUM=%albumtitle%" -T "DATE=%year%" -T "TRACKNUMBER=%tracknr%" -T "GENRE=%genre%" -T "PERFORMER=%albuminterpret%" -T "COMPOSER=%composer%" %haslyrics%–tag-from-file=LYRICS="%lyricsfile%"%haslyrics% -T "ALBUMARTIST=%albumartist%" -T "DISCNUMBER=%cdnumber%" -T "TOTALDISCS=%totalcds%" -T "TOTALTRACKS=%numtracks%" -T "COMMENT=%comment%" %source% -o %dest%


TOC of the extracted CD

Track | Start | Length | Start sector | End sector
––––––––––––––––––––––––––––-
1 | 0:00.32 | 4:45.40 | 32 | 21446
2 | 4:45.72 | 4:21.05 | 21447 | 41026
3 | 9:07.02 | 3:08.30 | 41027 | 55156
4 | 12:15.32 | 4:29.50 | 55157 | 75381
5 | 16:45.07 | 5:50.70 | 75382 | 101701
6 | 22:36.02 | 5:40.43 | 101702 | 127244
7 | 28:16.45 | 5:43.42 | 127245 | 153011
8 | 34:00.12 | 4:11.30 | 153012 | 171866
9 | 38:11.42 | 5:58.28 | 171867 | 198744
10 | 44:09.70 | 4:50.55 | 198745 | 220549
11 | 49:00.50 | 4:31.05 | 220550 | 240879
12 | 53:31.55 | 5:36.52 | 240880 | 266131
13 | 59:08.32 | 7:07.23 | 266132 | 298179
14 | 66:15.55 | 6:16.22 | 298180 | 326401


Track 1

Filename C:\Users\olivi\Desktop\RIPS\01 - Paul Desmond - The Night Has A Thousand Eyes.wav

Pre-gap length 0:00:02.42

Peak level 95.6 %
Extraction speed 1.5 X
Track quality 99.9 %
Test CRC 02E1EFCB
Copy CRC 02E1EFCB
Accurately ripped (confidence 6) [F430E4D0] (AR v2)
Copy OK

Track 2

Filename C:\Users\olivi\Desktop\RIPS\02 - Paul Desmond - Samba De Orfeu.wav

Peak level 91.6 %
Extraction speed 2.1 X
Track quality 100.0 %
Test CRC 19E98BEF
Copy CRC 19E98BEF
Accurately ripped (confidence 6) [BB7E5E6E] (AR v2)
Copy OK

Track 3

Filename C:\Users\olivi\Desktop\RIPS\03 - Paul Desmond - Take Ten.wav

Pre-gap length 0:00:01.42

Peak level 75.4 %
Extraction speed 2.0 X
Track quality 100.0 %
Test CRC 529A5309
Copy CRC 529A5309
Accurately ripped (confidence 6) [89780CC3] (AR v2)
Copy OK

Track 4

Filename C:\Users\olivi\Desktop\RIPS\04 - Paul Desmond - Curaçao Dolorosa.wav

Pre-gap length 0:00:01.00

Peak level 99.4 %
Extraction speed 2.1 X
Track quality 100.0 %
Test CRC 0E726BCE
Copy CRC 0E726BCE
Accurately ripped (confidence 6) [DE015F2F] (AR v2)
Copy OK

Track 5

Filename C:\Users\olivi\Desktop\RIPS\05 - Paul Desmond - All The Things You Are.wav

Peak level 63.8 %
Extraction speed 1.7 X
Track quality 99.9 %
Test CRC 4D4687E0
Copy CRC 4D4687E0
Accurately ripped (confidence 6) [7EC78552] (AR v2)
Copy OK

Track 6

Filename C:\Users\olivi\Desktop\RIPS\06 - Paul Desmond - Rude Old Man.wav

Peak level 90.1 %
Extraction speed 2.2 X
Track quality 100.0 %
Test CRC 71CBACD3
Copy CRC 71CBACD3
Accurately ripped (confidence 6) [A9C4A82D] (AR v2)
Copy OK

Track 7

Filename C:\Users\olivi\Desktop\RIPS\07 - Paul Desmond - Autumn Leaves.wav

Pre-gap length 0:00:01.13

Peak level 82.1 %
Extraction speed 2.2 X
Track quality 100.0 %
Test CRC 6909DB67
Copy CRC 6909DB67
Accurately ripped (confidence 6) [0D6B808B] (AR v2)
Copy OK

Track 8

Filename C:\Users\olivi\Desktop\RIPS\08 - Paul Desmond - Theme from ''Black Orfeus''.wav

Pre-gap length 0:00:01.46

Peak level 100.0 %
Extraction speed 2.1 X
Track quality 100.0 %
Test CRC 51EEB1CA
Copy CRC 51EEB1CA
Accurately ripped (confidence 6) [4CDF7348] (AR v2)
Copy OK

Track 9

Filename C:\Users\olivi\Desktop\RIPS\09 - Paul Desmond - The Girl From East 9th Street.wav

Pre-gap length 0:00:01.00

Peak level 97.6 %
Extraction speed 2.2 X
Track quality 100.0 %
Test CRC 5177F08F
Copy CRC 5177F08F
Accurately ripped (confidence 6) [53D319B7] (AR v2)
Copy OK

Track 10

Filename C:\Users\olivi\Desktop\RIPS\10 - Paul Desmond - I've Got You Under My Skin.wav

Pre-gap length 0:00:01.04

Peak level 82.9 %
Extraction speed 2.2 X
Track quality 100.0 %
Test CRC 3CC5B9BB
Copy CRC 3CC5B9BB
Accurately ripped (confidence 6) [4791D335] (AR v2)
Copy OK

Track 11

Filename C:\Users\olivi\Desktop\RIPS\11 - Paul Desmond - A Taste Of Honey.wav

Pre-gap length 0:00:01.17

Peak level 90.1 %
Extraction speed 2.1 X
Track quality 100.0 %
Test CRC 95ECD494
Copy CRC 95ECD494
Accurately ripped (confidence 6) [578B7C5B] (AR v2)
Copy OK

Track 12

Filename C:\Users\olivi\Desktop\RIPS\12 - Paul Desmond - The One I Love (Belongs To Someone Else).wav

Pre-gap length 0:00:01.73

Peak level 100.0 %
Extraction speed 2.2 X
Track quality 100.0 %
Test CRC D63D6BFA
Copy CRC D63D6BFA
Accurately ripped (confidence 6) [37C4E4F4] (AR v2)
Copy OK

Track 13

Filename C:\Users\olivi\Desktop\RIPS\13 - Paul Desmond - Easy Living.wav

Peak level 98.3 %
Extraction speed 2.2 X
Track quality 100.0 %
Test CRC 164973C4
Copy CRC 164973C4
Accurately ripped (confidence 6) [C0ACF13F] (AR v2)
Copy OK

Track 14

Filename C:\Users\olivi\Desktop\RIPS\14 - Paul Desmond - By The River Saint Marie.wav

Pre-gap length 0:00:01.77

Peak level 97.4 %
Extraction speed 2.2 X
Track quality 100.0 %
Test CRC 85414FC0
Copy CRC 85414FC0
Accurately ripped (confidence 6) [BD7C63D9] (AR v2)
Copy OK


All tracks accurately ripped

No errors occurred

End of status report

–– CUETools DB Plugin V2.1.6

[CTDB TOCID: dB89TMlQvUcS.azPjpn.pTbfD3s-] database access error: Le nom distant n'a pas pu être résolu: 'db.cuetools.net'


==== Log checksum 6A241776D7CFC69DBB23D5ED440C845A03D285859FD7C11EC6B62560C8B2C146 ====

All thanks go to the Jazzanova667

More Music in My Blog
Follow My RSS Channel