Tags
Language
Tags

Pedro Soler & Gaspar Claus - Al Viento (2016) {InFine} **[RE-UP]**

Posted By: shamanicus
Pedro Soler & Gaspar Claus - Al Viento (2016) {InFine} **[RE-UP]**

Pedro Soler & Gaspar Claus - Al Viento (2016)
EAC Rip | FLAC (tracks+.cue, log) | Artwork (300dpi, png) | 331 mb | MP3 CBR 320kbps | RAR | 175 mb
Flamenco, World, Classical | Label: InFiné - iF 21036

Pedro Soler & Gaspar Claus new album “Al viento” was sketched out in Icelandic territory, with Valgeir Sigurösson in his Greenhouse studio, then later completed in Spain with Didier Richard, drives the nail home.

Pedro Soler & Gaspar Claus - Al Viento (2016) {InFine} **[RE-UP]**


Another fine idea was to go hunting across an ancestral land of ice and fire for what might resonate with the dry and sun-soaked landscapes of primitive Andalusia (a self-evident rephrasing of the indisputable saying "extremes meet").

Pedro Soler & Gaspar Claus - Al Viento (2016) {InFine} **[RE-UP]**


Choosing as patron saint the character of the Petenera (cursed figure of Andalusia which inspired Frederico Garcia Lorca and still frightens the elderly, reaper of chaos because her love, too pure, was hurt), the two pirates invited the singer Matt Elliot (also known as Third Eye Foundation) to their bloody celebration, recording his incantations on a track whilst guitarist Serge Teyssot-Gay (former guitarist of Noir Désir) discreetly added layers of sombre textures and radioactive distortions between the strident lines, dissonances, percussions and vertiginous glissandi which Gaspar draws from a cello haunted by the voices of the most extreme cantaores (which he summons more than he replaces). Folkloric dances and traditional tunes are reinvested throughout these furious compositions, sounding sharper than Barlande could let us imagine.

Pedro Soler & Gaspar Claus - Al Viento (2016) {InFine} **[RE-UP]**


Here Flamenco emerges once again as radiant music of uprooting and obscure sciences, the pain of which, expressed like a fluttering of impossible equations, galvanizes and spins around with fierce joy, in the fury of hammered wood, in the grumbling of strings and the handling of silences; in the rhythm of blood, the harmonic audacity and the raucous love of standing upright.

Pedro Soler & Gaspar Claus - Al Viento (2016) {InFine} **[RE-UP]**


The sighs, outbursts, dips, elisions and surges of discord with which Claus' cello hooks the paternal elements breathe life once again into this improbable and yet mineral truth: if these two, the father and the son, were not always playing quite the same music, they were certainly painting the same landscape.
infine-music.com



Tracklist:

01. Cuerdas Al Viento (Por Malagueña)
02. Vendaval (Por Buleria)
03. Corazón De Plata (Por Granaïnas)
04. Sale La Aurora (Por Serrana)
05. Rocio Y Corrales (Por Sevillanas)
06. Silencio Ondulado (Por Tientos) Featuring Serge Teyssot-Gay & Matt Elliott
07. Cien Enamorados (Por Petenera)
08. El Sueño De La Petenera

Composed and performed by Pedro Soler and Gaspar Claus
Recorded in Estudis ground by Didier Richard (Spain) and in Greenhouse by Valgeir Sigurosson (Iceland)

Mix by David Chalmin (France) - Mastering by Alexis Bardinet at Globe Audio Mastering (France)

Published by InFiné
Photo by Bernard Plossu & artwork by MTPC


Exact Audio Copy V1.3 from 2. September 2016

EAC extraction logfile from 11. February 2017, 12:28

Pedro Soler & Gaspar Claus / Al Viento 

Used drive : ATAPI iHBS112 2 Adapter: 1 ID: 1

Read mode : Secure
Utilize accurate stream : Yes
Defeat audio cache : Yes
Make use of C2 pointers : No

Read offset correction : 6
Overread into Lead-In and Lead-Out : No
Fill up missing offset samples with silence : Yes
Delete leading and trailing silent blocks : No
Null samples used in CRC calculations : Yes
Used interface : Native Win32 interface for Win NT & 2000
Gap handling : Appended to previous track

Used output format : User Defined Encoder
Selected bitrate : 128 kBit/s
Quality : High
Add ID3 tag : No
Command line compressor : C:\Program Files (x86)\Exact Audio Copy\Flac\flac.exe
Additional command line options : -8 -V -T "ARTIST=%artist%" -T "TITLE=%title%" -T "ALBUM=%albumtitle%" -T "DATE=%year%" -T "TRACKNUMBER=%tracknr%" -T "GENRE=%genre%" -T "PERFORMER=%albuminterpret%" -T "COMPOSER=%composer%" -T "ALBUMARTIST=%albumartist%" -T "DISCNUMBER=%cdnumber%" -T "TOTALDISCS=%totalcds%" -T "TOTALTRACKS=%numtracks%" -T "COMMENT=EAC Secure Mode, Test & Copy, AccurateRip, FLAC -8" %source% -o %dest%


TOC of the extracted CD

Track | Start | Length | Start sector | End sector
––––––––––––––––––––––––––––-
1 | 0:00.00 | 8:25.44 | 0 | 37918
2 | 8:25.44 | 4:28.56 | 37919 | 58074
3 | 12:54.25 | 9:11.45 | 58075 | 99444
4 | 22:05.70 | 6:08.08 | 99445 | 127052
5 | 28:14.03 | 3:18.72 | 127053 | 141974
6 | 31:33.00 | 12:06.02 | 141975 | 196426
7 | 43:39.02 | 6:52.46 | 196427 | 227372
8 | 50:31.48 | 7:26.15 | 227373 | 260837


Track 1

Filename G:\DL\Pedro Soler & Gaspar Claus - Al Viento [2016) [FLAC]\01 - Cuerdas al viento (por Malaguena).wav

Pre-gap length 0:00:02.00

Peak level 100.0 %
Extraction speed 5.2 X
Track quality 99.9 %
Test CRC 4B21570A
Copy CRC 4B21570A
Track not present in AccurateRip database
Copy OK

Track 2

Filename G:\DL\Pedro Soler & Gaspar Claus - Al Viento [2016) [FLAC]\02 - Vendaval (por Buleria).wav

Pre-gap length 0:00:01.19

Peak level 100.0 %
Extraction speed 6.3 X
Track quality 100.0 %
Test CRC 9E69E8F3
Copy CRC 9E69E8F3
Track not present in AccurateRip database
Copy OK

Track 3

Filename G:\DL\Pedro Soler & Gaspar Claus - Al Viento [2016) [FLAC]\03 - Corazon de plata (por Granainas).wav

Pre-gap length 0:00:02.55

Peak level 100.0 %
Extraction speed 7.5 X
Track quality 100.0 %
Test CRC F90184CB
Copy CRC F90184CB
Track not present in AccurateRip database
Copy OK

Track 4

Filename G:\DL\Pedro Soler & Gaspar Claus - Al Viento [2016) [FLAC]\04 - Sale la aurora (por Serrana).wav

Pre-gap length 0:00:03.21

Peak level 100.0 %
Extraction speed 8.0 X
Track quality 100.0 %
Test CRC F8FF066C
Copy CRC F8FF066C
Track not present in AccurateRip database
Copy OK

Track 5

Filename G:\DL\Pedro Soler & Gaspar Claus - Al Viento [2016) [FLAC]\05 - Rocio y corrales (por Sevillanas).wav

Pre-gap length 0:00:01.35

Peak level 100.0 %
Extraction speed 7.8 X
Track quality 100.0 %
Test CRC EA23D505
Copy CRC EA23D505
Track not present in AccurateRip database
Copy OK

Track 6

Filename G:\DL\Pedro Soler & Gaspar Claus - Al Viento [2016) [FLAC]\06 - Silencio ondulado (por Tientos) featuring Serge Teyssot-Gay & Matt Elliott.wav

Pre-gap length 0:00:01.50

Peak level 100.0 %
Extraction speed 9.4 X
Track quality 100.0 %
Test CRC 35E57198
Copy CRC 35E57198
Track not present in AccurateRip database
Copy OK

Track 7

Filename G:\DL\Pedro Soler & Gaspar Claus - Al Viento [2016) [FLAC]\07 - Cien enamorados (por Petenera).wav

Pre-gap length 0:00:01.54

Peak level 100.0 %
Extraction speed 9.8 X
Track quality 100.0 %
Test CRC 9534552C
Copy CRC 9534552C
Track not present in AccurateRip database
Copy OK

Track 8

Filename G:\DL\Pedro Soler & Gaspar Claus - Al Viento [2016) [FLAC]\08 - El sueno de la Petenera.wav

Pre-gap length 0:00:02.70

Peak level 99.4 %
Extraction speed 9.2 X
Track quality 99.9 %
Test CRC 8450D010
Copy CRC 8450D010
Track not present in AccurateRip database
Copy OK


None of the tracks are present in the AccurateRip database

No errors occurred

End of status report

–– CUETools DB Plugin V2.1.6

[CTDB TOCID: eg6SFSNTqZrE4Hobo_Knt34MFpQ-] found
Submit result: eg6SFSNTqZrE4Hobo_Knt34MFpQ- has been confirmed
Track | CTDB Status
1 | (3/3) Accurately ripped
2 | (3/3) Accurately ripped
3 | (3/3) Accurately ripped
4 | (3/3) Accurately ripped
5 | (3/3) Accurately ripped
6 | (3/3) Accurately ripped
7 | (3/3) Accurately ripped
8 | (3/3) Accurately ripped


==== Log checksum 8EEF6E4E838ED722AB603D4A911B57341FBCC7F2E6411FA1A28052C09521F663 ====


Thanks to the Original customer.