Subcategories

Phil Woods - Round Trip (1969) {2016 Japan Verve 60th Rare Albums SHM-CD Reissue Series UCCV-9611}

Posted By: ruskaval
Phil Woods - Round Trip (1969)  {2016 Japan Verve 60th Rare Albums SHM-CD Reissue Series UCCV-9611}

Phil Woods - Round Trip (1969) {2016 Japan Verve 60th Rare Albums SHM-CD Reissue Series UCCV-9611}
EAC rip (secure mode) | FLAC (tracks)+CUE+LOG -> 259 Mb | MP3 @320 -> 88 Mb
Full Artwork @ 600 dpi (png) -> 193 Mb | 5% repair rar
© 1969, 2016 Verve / Universal Japan | UCCV-9611
Jazz / Post Bop / Modern Big Band / Progressive Jazz / Saxophone

Verve 60th Anniversary Rare Albums SHM-CD Reissue Series. Reissue with SHM-CD format. Hip and groovy work from Phil – very different than both his earlier bop-heavy sides, and his freer European recordings – recorded with some great backings by Johnny Pate, the excellent Chicago soul arranger who also did some great soundtrack work! Pate's come up with some tight short tracks that have a nice groovy late 60s Verve feel – over which Woods solos angularly on alto, working amidst woodwinds by Jerome Richardson and Jerry Dodgion, piano by Herbie Hancock, trumpet by Thad Jones, and some light strings that trickle in and out from time to time.
This date features Phil Woods with a large orchestra. Woods' playing is inspired, though some of the songs, including the title track, "Love Song for a Dead Che" and "I'm All Smiles" sound rather dated, as if they might have been appropriate for a movie soundtrack of the era. Woods' "Solitude" and Gordon Jenkins' timeless "This Is All I Ask" are attractive ballads, as is "Here's That Rainy Day." Woods' fans will want to pick this up.
Phil Woods - Round Trip (1969)  {2016 Japan Verve 60th Rare Albums SHM-CD Reissue Series UCCV-9611}


Personnel:
Phil Woods, alto saxophone and arranger
Johnny Pate, arranger
Chris Swansen, conductor

Gene Orloff, director
Orchestra includes:
Thad Jones, trumpet and flugelhorn
Jimmy Cleveland, trombone
Jerry Dodgion, woodwinds
Jerome Richardson, woodwinds
Herbie Hancock, piano
Sir Roland Hanna, piano
Richard Davis, bass
Grady Tate, drums
Unknown strings

Recording Location: A&R Recording Studio, NYC
Recording Date: July 9 and 10, 1969


tracklist:
1. Round Trip (Woods)
2. Here's That Rainy Day (Burke/VanHeusen)
3. Love Song For A Dead She (Byrd)
4. I'm All Smiles (Leonard/Martin)
5. Solitude (Woods)
6. How Can I Be Sure? (Brigate/Cavaliere)
7. Fill The Woods With Laughter (Pate)
8. This Is All I Ask (Jenkins
9. Flowers (Woods)
10. Come Out With Me (Woods)
11. Guess What (Woods)

Exact Audio Copy V1.1 from 23. June 2015

EAC extraction logfile from 23. November 2016, 19:32

Phil Woods / Round Trip

Used drive : HL-DT-STDVDRAM GP50NW41 Adapter: 1 ID: 0

Read mode : Secure
Utilize accurate stream : Yes
Defeat audio cache : Yes
Make use of C2 pointers : No

Read offset correction : 6
Overread into Lead-In and Lead-Out : No
Fill up missing offset samples with silence : Yes
Delete leading and trailing silent blocks : No
Null samples used in CRC calculations : Yes
Used interface : Native Win32 interface for Win NT & 2000
Gap handling : Appended to previous track

Used output format : User Defined Encoder
Selected bitrate : 1024 kBit/s
Quality : High
Add ID3 tag : No
Command line compressor : C:\Program Files (x86)\FLAC Frontend\tools\flac.exe
Additional command line options : -8 -V -T "ARTIST=%artist%" -T "TITLE=%title%" -T "ALBUM=%albumtitle%" -T "DATE=%year%" -T "TRACKNUMBER=%tracknr%" -T "TOTALTRACKS=%numtracks%" -T "GENRE=%genre%" -T "ALBUMARTIST=%albumartist%" -T "ALBUM ARTIST=%albumartist%" -T "COMMENT=EAC Secure Mode, Test & Copy, AccurateRip, FLAC -8" %source%


TOC of the extracted CD

Track | Start | Length | Start sector | End sector
––––––––––––––––––––––––––––-
1 | 0:00.00 | 2:58.57 | 0 | 13406
2 | 2:58.57 | 4:01.00 | 13407 | 31481
3 | 6:59.57 | 2:50.63 | 31482 | 44294
4 | 9:50.45 | 3:09.20 | 44295 | 58489
5 | 12:59.65 | 2:43.60 | 58490 | 70774
6 | 15:43.50 | 2:51.72 | 70775 | 83671
7 | 18:35.47 | 4:02.65 | 83672 | 101886
8 | 22:38.37 | 3:32.28 | 101887 | 117814
9 | 26:10.65 | 3:22.62 | 117815 | 133026
10 | 29:33.52 | 5:23.73 | 133027 | 157324
11 | 34:57.50 | 2:50.15 | 157325 | 170089


Track 1

Filename D:\_EAC\Phil Woods - Round Trip (1969) [FLAC] {UCCV-9611}\01 - Round Trip.wav

Pre-gap length 0:00:02.00

Peak level 99.9 %
Extraction speed 1.1 X
Track quality 100.0 %
Test CRC 2AE77C3A
Copy CRC 2AE77C3A
Cannot be verified as accurate (confidence 2) [D343C149], AccurateRip returned [8FCA94DD] (AR v2)
Copy OK

Track 2

Filename D:\_EAC\Phil Woods - Round Trip (1969) [FLAC] {UCCV-9611}\02 - Here's That Rainy Day.wav

Peak level 93.6 %
Extraction speed 1.1 X
Track quality 99.9 %
Test CRC DA710D27
Copy CRC DA710D27
Cannot be verified as accurate (confidence 2) [CC176141], AccurateRip returned [4B2CD9B7] (AR v2)
Copy OK

Track 3

Filename D:\_EAC\Phil Woods - Round Trip (1969) [FLAC] {UCCV-9611}\03 - Love Song For A Dead Che.wav

Peak level 95.4 %
Extraction speed 1.3 X
Track quality 100.0 %
Test CRC 9D89119D
Copy CRC 9D89119D
Cannot be verified as accurate (confidence 2) [E625176B], AccurateRip returned [1B53B022] (AR v2)
Copy OK

Track 4

Filename D:\_EAC\Phil Woods - Round Trip (1969) [FLAC] {UCCV-9611}\04 - I'm All Smiles.wav

Peak level 80.9 %
Extraction speed 1.3 X
Track quality 100.0 %
Test CRC 18C37D3C
Copy CRC 18C37D3C
Cannot be verified as accurate (confidence 2) [DD6DF6CA], AccurateRip returned [06827AF4] (AR v2)
Copy OK

Track 5

Filename D:\_EAC\Phil Woods - Round Trip (1969) [FLAC] {UCCV-9611}\05 - Solitude.wav

Peak level 100.0 %
Extraction speed 1.4 X
Track quality 100.0 %
Test CRC 5D6581EA
Copy CRC 5D6581EA
Cannot be verified as accurate (confidence 2) [639C9FAA], AccurateRip returned [5C9AEBCE] (AR v2)
Copy OK

Track 6

Filename D:\_EAC\Phil Woods - Round Trip (1969) [FLAC] {UCCV-9611}\06 - How Can I Be Sure_.wav

Peak level 85.1 %
Extraction speed 1.3 X
Track quality 99.9 %
Test CRC 77D11C41
Copy CRC 77D11C41
Cannot be verified as accurate (confidence 2) [DF9658A9], AccurateRip returned [ED6461A0] (AR v2)
Copy OK

Track 7

Filename D:\_EAC\Phil Woods - Round Trip (1969) [FLAC] {UCCV-9611}\07 - Fill The Woods With Laughter.wav

Peak level 100.0 %
Extraction speed 1.6 X
Track quality 100.0 %
Test CRC A4DF0DD8
Copy CRC A4DF0DD8
Cannot be verified as accurate (confidence 2) [5A9FA470], AccurateRip returned [BA9C9FA2] (AR v2)
Copy OK

Track 8

Filename D:\_EAC\Phil Woods - Round Trip (1969) [FLAC] {UCCV-9611}\08 - This Is All I Ask.wav

Peak level 95.3 %
Extraction speed 1.7 X
Track quality 100.0 %
Test CRC 6C531761
Copy CRC 6C531761
Cannot be verified as accurate (confidence 2) [77D1C2B8], AccurateRip returned [FBD2A82C] (AR v2)
Copy OK

Track 9

Filename D:\_EAC\Phil Woods - Round Trip (1969) [FLAC] {UCCV-9611}\09 - Flowers.wav

Peak level 96.4 %
Extraction speed 1.5 X
Track quality 99.9 %
Test CRC 56975891
Copy CRC 56975891
Cannot be verified as accurate (confidence 2) [530BC83A], AccurateRip returned [9EE0D78E] (AR v2)
Copy OK

Track 10

Filename D:\_EAC\Phil Woods - Round Trip (1969) [FLAC] {UCCV-9611}\10 - Come Out With Me.wav

Peak level 93.6 %
Extraction speed 2.0 X
Track quality 100.0 %
Test CRC 4D33DDB5
Copy CRC 4D33DDB5
Cannot be verified as accurate (confidence 2) [0EA53121], AccurateRip returned [C2F8896D] (AR v2)
Copy OK

Track 11

Filename D:\_EAC\Phil Woods - Round Trip (1969) [FLAC] {UCCV-9611}\11 - Guess What.wav

Peak level 91.5 %
Extraction speed 1.8 X
Track quality 100.0 %
Test CRC 041A4F51
Copy CRC 041A4F51
Cannot be verified as accurate (confidence 2) [4743BA19], AccurateRip returned [82F9DCAB] (AR v2)
Copy OK


No tracks could be verified as accurate
You may have a different pressing from the one(s) in the database

No errors occurred

End of status report

==== Log checksum 91AAA46A72AD5385C99887D9F3789997213765A91A42AAD61A53324CAADB77A1 ====


Phil Woods - Round Trip (1969)  {2016 Japan Verve 60th Rare Albums SHM-CD Reissue Series UCCV-9611}

Phil Woods - Round Trip (1969)  {2016 Japan Verve 60th Rare Albums SHM-CD Reissue Series UCCV-9611}


See Also:
Teddy Wilson And His Piano - Intimate Listening (1954) {2016 Japan Verve 60th Rare Albums SHM-CD Reissue Series UCCV-9616}


More Phil Woods…

NEXT -> more Phil Woods on the way…