Tags
Language
Tags

Oswald von Wolkenstein - Play It Again, Oswald - Marcello Fera & Opas Diandl (2013) {Schloss Tirol}

Posted By: ruskaval
Oswald von Wolkenstein - Play It Again, Oswald - Marcello Fera & Opas Diandl (2013) {Schloss Tirol}

Oswald von Wolkenstein - Play It Again, Oswald - Marcello Fera & Opas Diandl (2013) {Schloss Tirol}
EAC rip (secure mode) | FLAC (tracks)+CUE+LOG -> 335 Mb | MP3 @320 -> 127 Mb
Full Artwork @ 300 dpi (jpg) -> 45 Mb | 5% repair rar
© 2013 Schloss Tirol | [none]
Classical / Medieval

Oswald von Wolkenstein was a German composer whose music bridged the Medieval and Renaissance eras; the last of the poet-musician knights whose monophonic music explored the ideal of courtly love, he also wrote polyphonic music in more contemporary forms. As noble "von" indicates, Oswald was from a knightly family of the Villanders line. The surname "von Wolkenstein" comes from the name of their property of Wolkenstein in Groednertal, South Tyrol (a mountainous Austrian province that was taken by Italy in World War II). As he was of high birth, there is some information available about his life; key events were written in family archives. Still, as is the norm with composers of the day, there are numerous gaps that can be filled in only imperfectly by extrapolation from his works. Oswald was a second son, which put him at a disadvantage, but also gave him freedom to pursue an adventurous life, and to enter the political sphere. He spent his youth as a page in service, which took him to various countries and gave him fluency in several languages. He became a diplomat for the league of Tyrolean nobles and for Emperor Sigismund and took part in several German councils.

Oswald von Wolkenstein - Play It Again, Oswald - Marcello Fera & Opas Diandl (2013) {Schloss Tirol}


His seat was Hauenstein castle near Bolzano, but in 1407 he inherited only part of Hauenstein itself, and spent the rest of his life in a property dispute with the other tenant, the family of Martin Jaeger. As a result of this dispute, and also because of political intrigues, he was imprisoned several times. Nevertheless, he fell in love with Anna Hausmann, the daughter of one of his adversaries in this dispute. He wrote several love poems to her, continuing even after his marriage to Margarete von Schwangau in 1417. He also wrote poems addressed to a "Barbara," but fortunately did not neglect to write love poetry addressed to his wife.

Oswald himself preserved a quantity of his own in two manuscripts designated "A" and "B." There is also a manuscript "C" that contains text but no music, and a few other sources. His songs are typically in AABB form, with arched, flowing melodic lines. There are some exceptions, such as Es komen neue mer gerant, which is a description of a military raid in northern Italy and is written in an almost parlando style, scoffing at the losers.

Oswald's poetry often drew on events he himself experienced or witnessed. The unusual fit between text and musical line in his music inspired a description of him as the "creator of the individual lied," which is ahistorical. Nor was he, as has sometimes been said, a Meistersinger, the German counterpart to the French troubador or trouvère. His music includes not only monophonic songs but also polyphony in three or four parts. Towards the end of his life he composed religious music in simple textures.
Oswald von Wolkenstein - Play It Again, Oswald - Marcello Fera & Opas Diandl (2013) {Schloss Tirol}


Performers
Marcello Fera & Opas Diandl

Works on This Recording

Oswald von Wolkenstein - Play It Again, Oswald - Marcello Fera & Opas Diandl (2013) {Schloss Tirol}


Exact Audio Copy V1.0 beta 3 from 29. August 2011

EAC extraction logfile from 18. June 2016, 11:20

Marcello Fera & Opas Diandl / Play it again, Oswald! - Bearbeitung und Instrumentierung der Lieder von Oswald von Wolkenstein

Used drive : SlimtypeDVD A DS8A8SH Adapter: 1 ID: 0

Read mode : Secure
Utilize accurate stream : Yes
Defeat audio cache : Yes
Make use of C2 pointers : No

Read offset correction : 6
Overread into Lead-In and Lead-Out : No
Fill up missing offset samples with silence : Yes
Delete leading and trailing silent blocks : No
Null samples used in CRC calculations : Yes
Used interface : Native Win32 interface for Win NT & 2000
Gap handling : Appended to previous track

Used output format : User Defined Encoder
Selected bitrate : 512 kBit/s
Quality : High
Add ID3 tag : No
Command line compressor : C:\Program Files (x86)\Exact Audio Copy\Flac\flac.exe
Additional command line options : -8 -V -T "ARTIST=%artist%" -T "TITLE=%title%" -T "ALBUM=%albumtitle%" -T "DATE=%year%" -T "TRACKNUMBER=%tracknr%" -T "TOTALTRACKS=%numtracks%" -T "GENRE=%genre%" -T "ALBUMARTIST=%albumartist%" -T "ALBUM ARTIST=%albumartist%" -T "COMMENT=EAC Secure Mode, Test & Copy, AccurateRip, FLAC -8" %source%


TOC of the extracted CD

Track | Start | Length | Start sector | End sector
––––––––––––––––––––––––––––-
1 | 0:00.00 | 3:19.30 | 0 | 14954
2 | 3:19.30 | 3:19.58 | 14955 | 29937
3 | 6:39.13 | 5:16.43 | 29938 | 53680
4 | 11:55.56 | 3:57.43 | 53681 | 71498
5 | 15:53.24 | 1:25.73 | 71499 | 77946
6 | 17:19.22 | 3:53.27 | 77947 | 95448
7 | 21:12.49 | 1:52.04 | 95449 | 103852
8 | 23:04.53 | 3:24.51 | 103853 | 119203
9 | 26:29.29 | 2:23.47 | 119204 | 129975
10 | 28:53.01 | 4:38.47 | 129976 | 150872
11 | 33:31.48 | 6:09.10 | 150873 | 178557
12 | 39:40.58 | 5:20.26 | 178558 | 202583
13 | 45:01.09 | 8:09.66 | 202584 | 239324


Track 1

Filename D:\MY RIPS\Play it again, Oswald! - Bearbeitung und Instrumentierung der Lieder von Oswald von Wolkenstein [2013]\01 - Hussa! schrait der michl (Kl 85).wav

Pre-gap length 0:00:02.00

Peak level 100.0 %
Extraction speed 1.1 X
Track quality 100.0 %
Test CRC FF07ACFA
Copy CRC FF07ACFA
Track not present in AccurateRip database
Copy OK

Track 2

Filename D:\MY RIPS\Play it again, Oswald! - Bearbeitung und Instrumentierung der Lieder von Oswald von Wolkenstein [2013]\02 - Du wirt, mier habn an morz durscht (Kl 70).wav

Pre-gap length 0:00:02.00

Peak level 100.0 %
Extraction speed 1.2 X
Track quality 100.0 %
Test CRC D6EF9DD4
Copy CRC D6EF9DD4
Track not present in AccurateRip database
Copy OK

Track 3

Filename D:\MY RIPS\Play it again, Oswald! - Bearbeitung und Instrumentierung der Lieder von Oswald von Wolkenstein [2013]\03 - A schnapperin (Kl 83).wav

Pre-gap length 0:00:02.00

Peak level 100.0 %
Extraction speed 1.4 X
Track quality 100.0 %
Test CRC 974FC8F6
Copy CRC 974FC8F6
Track not present in AccurateRip database
Copy OK

Track 4

Filename D:\MY RIPS\Play it again, Oswald! - Bearbeitung und Instrumentierung der Lieder von Oswald von Wolkenstein [2013]\04 - Stea au, Maridl (Kl 48).wav

Pre-gap length 0:00:02.00

Peak level 100.0 %
Extraction speed 1.5 X
Track quality 100.0 %
Test CRC AB26B4FA
Copy CRC AB26B4FA
Track not present in AccurateRip database
Copy OK

Track 5

Filename D:\MY RIPS\Play it again, Oswald! - Bearbeitung und Instrumentierung der Lieder von Oswald von Wolkenstein [2013]\05 - Juzn well mer iez (Kl 54).wav

Pre-gap length 0:00:02.00

Peak level 97.7 %
Extraction speed 1.0 X
Track quality 99.8 %
Test CRC 1E2758CD
Copy CRC 1E2758CD
Track not present in AccurateRip database
Copy OK

Track 6

Filename D:\MY RIPS\Play it again, Oswald! - Bearbeitung und Instrumentierung der Lieder von Oswald von Wolkenstein [2013]\06 - Iez Geats gâch fasnacht zue (Kl 60).wav

Pre-gap length 0:00:02.00

Peak level 100.0 %
Extraction speed 1.4 X
Track quality 99.9 %
Test CRC B243A608
Copy CRC B243A608
Track not present in AccurateRip database
Copy OK

Track 7

Filename D:\MY RIPS\Play it again, Oswald! - Bearbeitung und Instrumentierung der Lieder von Oswald von Wolkenstein [2013]\07 - Ave, mater, o Maria (109a) , Ave, mütter, küniginne (Kl 109b).wav

Pre-gap length 0:00:02.00

Peak level 98.1 %
Extraction speed 1.5 X
Track quality 100.0 %
Test CRC 81630DD0
Copy CRC 81630DD0
Track not present in AccurateRip database
Copy OK

Track 8

Filename D:\MY RIPS\Play it again, Oswald! - Bearbeitung und Instrumentierung der Lieder von Oswald von Wolkenstein [2013]\08 - Wolau, jetz well'mer schlafn! (Kl 84).wav

Pre-gap length 0:00:02.00

Peak level 100.0 %
Extraction speed 1.7 X
Track quality 100.0 %
Test CRC C5474668
Copy CRC C5474668
Track not present in AccurateRip database
Copy OK

Track 9

Filename D:\MY RIPS\Play it again, Oswald! - Bearbeitung und Instrumentierung der Lieder von Oswald von Wolkenstein [2013]\09 - Gseignet sai di frucht (Kl 14).wav

Pre-gap length 0:00:02.00

Peak level 98.1 %
Extraction speed 1.7 X
Track quality 100.0 %
Test CRC FDFAC5F7
Copy CRC FDFAC5F7
Track not present in AccurateRip database
Copy OK

Track 10

Filename D:\MY RIPS\Play it again, Oswald! - Bearbeitung und Instrumentierung der Lieder von Oswald von Wolkenstein [2013]\10 - Traib her, traib herewerts (Kl 92).wav

Pre-gap length 0:00:02.00

Peak level 100.0 %
Extraction speed 1.9 X
Track quality 100.0 %
Test CRC DC743A20
Copy CRC DC743A20
Track not present in AccurateRip database
Copy OK

Track 11

Filename D:\MY RIPS\Play it again, Oswald! - Bearbeitung und Instrumentierung der Lieder von Oswald von Wolkenstein [2013]\11 - Wolauf, mitanand! Kint waib und mann (Kl 75).wav

Pre-gap length 0:00:02.00

Peak level 100.0 %
Extraction speed 2.1 X
Track quality 100.0 %
Test CRC 7E3762E9
Copy CRC 7E3762E9
Track not present in AccurateRip database
Copy OK

Track 12

Filename D:\MY RIPS\Play it again, Oswald! - Bearbeitung und Instrumentierung der Lieder von Oswald von Wolkenstein [2013]\12 - Zergangen isch main herzens' wea (cl 116).wav

Pre-gap length 0:00:02.00

Peak level 100.0 %
Extraction speed 2.0 X
Track quality 99.9 %
Test CRC 23D729C8
Copy CRC 23D729C8
Track not present in AccurateRip database
Copy OK

Track 13

Filename D:\MY RIPS\Play it again, Oswald! - Bearbeitung und Instrumentierung der Lieder von Oswald von Wolkenstein [2013]\13 - Es hat si dergebm (Kl 18).wav

Pre-gap length 0:00:02.00

Peak level 100.0 %
Extraction speed 2.4 X
Track quality 100.0 %
Test CRC 14E184B6
Copy CRC 14E184B6
Track not present in AccurateRip database
Copy OK


None of the tracks are present in the AccurateRip database

No errors occurred

End of status report

==== Log checksum FFBED10D0FDE7B787AB0A839413D05ED90FF6D42B7502B854F71FE5D344AFAD3 ====


Oswald von Wolkenstein - Play It Again, Oswald - Marcello Fera & Opas Diandl (2013) {Schloss Tirol}



===