Tags
Language
Tags

Sergei Rachmaninoff - Rachmaninoff Plays Symphonic Dances: Newly Discovered 1940 Recording (2018) {3CD Set Marston 53022-2}

Posted By: ruskaval
Sergei Rachmaninoff - Rachmaninoff Plays Symphonic Dances: Newly Discovered 1940 Recording (2018) {3CD Set Marston 53022-2}

Sergei Rachmaninoff - Rachmaninoff Plays Symphonic Dances: Newly Discovered 1940 Recording (2018) {3CD Set Marston 53022-2}
XLD rip (secure mode) | FLAC (tracks)+CUE+LOG -> 511 Mb | MP3 @320 -> 450 Mb
Full Artwork @ 600 dpi (jpg) -> 130 Mb | 5% repair rar
© 2018 Marston | 53022-2
Classical / Early 20th Century / Piano Solo / Piano Concerto / Historic Recording

At an impromptu gathering in 1940, Sergei Rachmaninoff demonstrated at the piano just how he wanted his new orchestral work, Symphonic Dances, to be performed. Rachmaninoff, one of the greatest of all pianists, reduced the orchestral score for a single piano on this occasion. That recording is presented here in two versions: first, edited to conform to the score and again, just as the occasion unfolded, as Rachmaninoff jumped from place to place as he demonstrated.
Sergei Rachmaninoff - Rachmaninoff Plays Symphonic Dances: Newly Discovered 1940 Recording (2018) {3CD Set Marston 53022-2}

Other performers include pianist Benno Moiseiwitsch, mezzo soprano Nadezhda Plevitskaya, and conductors Adrian Boult, Dmitri Mitropoulos, Eugene Ormandy, and Leopold Stokowski. These are complemented by every known non-commercial recording of Rachmaninoff, accompanied by a detailed essay concerning Rachmaninoff, the Symphonic Dances, and these recordings written especially for this issue by Richard Taruskin, author of the Oxford History of Western Music.
Sergei Rachmaninoff - Rachmaninoff Plays Symphonic Dances: Newly Discovered 1940 Recording (2018) {3CD Set Marston 53022-2}


marstonrecords.com INFO
musicweb-international.com INFO


Contents

CD 1 [61:25]


Rachmaninoff Demonstrates His Symphonic Dances, Op. 45
Impromptu performance at the piano
1. I. Non allegro (bar 1 to bar 41) [1:34]
2. I. Non allegro (bar 48 to bar 236) [8:02]
3. I. Non allegro (pickup to bar 241 to 263) [1:04]
4. II. Andante con moto, Tempo di valse (beginning to bar 176) [7:00
5. II. Andante con moto, Tempo di valse (middle of bar 182 to end) [2:14]
6. III. Lento assai — Allegro vivace — Lento assai, Come prima — Allegro vivace (bar 8 to bar 214) [7:10]
An edited version of the original recording, with most of the repeated phrases and spoken comments removed, and with the music presented in its proper score sequence
21 December 1940
Rachmaninoff: Symphonic Dances, Op. 45
7. I. Non allegro [11:57]
8. II. Andante con moto, Tempo di valse [9:45]
9. III. Lento assai — Allegro vivace — Lento assai, Come prima — Allegro vivace [12:38]
New York Philharmonic-Symphony Orchestra conducted by Dimitri Mitropoulos.
20 December 1942, New York City

Sergei Rachmaninoff - Rachmaninoff Plays Symphonic Dances: Newly Discovered 1940 Recording (2018) {3CD Set Marston 53022-2}

Sergei Rachmaninoff - Rachmaninoff Plays Symphonic Dances: Newly Discovered 1940 Recording (2018) {3CD Set Marston 53022-2}


CD 2 [76:31]

Rachmaninoff: The Isle of the Dead, Op. 29
1. Introductory radio announcement followed by Eugene Ormandy speaking about Rachmaninoff [2:54]
2. The Isle of the Dead, Op. 29 [18:42]
Philadelphia Orchestra conducted by Eugene Ormandy
2 April 1943, Philadelphia, Pennsylvania
(This performance was given as a memorial to the composer five days after his death on 28 March)
Rachmaninoff: Symphony No. 3 in A Minor, Op. 44
3. I. Lento — Allegro moderato — Allegro [15:14]
4. II. Adagio ma non troppo — Allegro vivace [11:32]
5. III. Allegro — Allegro vivace — Allegro, Tempo primo — Allegretto — Allegro vivace [12:07]
New York Philharmonic-Symphony Orchestra conducted by Dimitri Mitropoulos
21 December 1941, New York City
6. ‘Belilitsï rumyanitsï, vy moi ‘(Powder and Paint) (Russian folk song, arranged by Rachmaninoff) [3:50]
Nadezhda Plevitskaya, mezzo soprano, with Sergei Rachmaninoff, piano
Victor Talking Machine Company private recording, made for the composer
22 February 1926, New York City
(Note: This song was used as the third of Rachmaninoff’s “Three Russian Songs for Chorus and Orchestra, Op. 41.” The Victor recording logs give the title as “Powder and Paint”)
Rachmaninoff: Three Russian Songs for Chorus and Orchestra, Op. 41
7. I. Cherez rechku (Over the Stream), Moderato [3:30]
8. II. Akh ty, Vanka (Oh, My Little Johnny), Largo [4:40]
9. III. Belilitsï rumyanitsï, vy moi (You, My Fairness, My Rosy Cheeks or “Powder and Paint”), Allegro [4:04]
American Symphony Orchestra conducted by Leopold Stokowski, with the Schola Cantorum. 18 December 1966, New York City

Sergei Rachmaninoff - Rachmaninoff Plays Symphonic Dances: Newly Discovered 1940 Recording (2018) {3CD Set Marston 53022-2}

Sergei Rachmaninoff - Rachmaninoff Plays Symphonic Dances: Newly Discovered 1940 Recording (2018) {3CD Set Marston 53022-2}


CD 3 [66:37]

Rachmaninoff: Rhapsody on a Theme of Paganini, Op. 43
1. Introductory radio announcement [1:45]
2. Rhapsody on a Theme of Paganini, Op. 43 [23:12]
Benno Moiseiwitsch, piano, with the BBC Symphony Orchestra conducted by Adrian Boult
14 September 1946, London
3. Rachmaninoff: Polka Italienne [0:36]
with Sergei and Natalia Rachmaninoff, piano
private recording, circa 1942
4. Russian folk song: ‘Bublichki’ (Bagels) [1:26]
with Rachmaninoff accompanying friends at a party, circa 1942
5. Rachmaninoff plays ballades: Brahms Op. 10, No. 2, in D (middle of bar 145 to bar 150), and Liszt No. 2, in B Minor (through the end of bar 125; bars 77-79 omitted) [6:24]
recorded by Bell Telephone Laboratories during a Rachmaninoff recital at the Academy of Music. 5 December 1931, Philadelphia, Pennsylvania
Rachmaninoff Demonstrates His Symphonic Dances, Op. 45
Impromptu performance at the piano
6. Side 1: Movement I. Non allegro (bar 48 to bar 236) [9:32]
7. Side 2: [9:19]
Excerpt 1: Movement I. Non allegro (pickup to bar 241 to bar 263)
Excerpt 2: Movement III. Lento assai — Allegro vivace — Lento assai, Come prima — Allegro vivace (bar 8 to bar 214)
8. Side 3: Movement II. Andante con moto, Tempo di valse (beginning to bar 176) 9:17
9. Side 4: [5:05]
Excerpt 1: Movement II. Andante con moto, Tempo di valse (middle of bar 182 to end)
Excerpt 2: Movement I. Non allegro (beginning to bar 41)
The unedited, complete recording, with each of the four acetate sides presented as track points. 21 December 1940

Sergei Rachmaninoff - Rachmaninoff Plays Symphonic Dances: Newly Discovered 1940 Recording (2018) {3CD Set Marston 53022-2}

Sergei Rachmaninoff - Rachmaninoff Plays Symphonic Dances: Newly Discovered 1940 Recording (2018) {3CD Set Marston 53022-2}


The recording of Sergei Rachmaninoff playing his Symphonic Dances is reproduced from the original discs in the Eugene Ormandy Collection of Test Pressings and Private Recordings, 1930-1983, Ms. Coll. 440, with the permission of the University of Pennsylvania.

X Lossless Decoder version 20170729 (150.3)

XLD extraction logfile from 2019-04-19 18:49:35 +0200

Sergei Rachmaninov / Rachmaninoff Plays Symphonic Dances - Newly Discovered 1940 Recording [Marston]

Used drive : PLEXTOR DVDR PX-755A (revision 1.06)
Media type : Pressed CD

Ripper mode : XLD Secure Ripper
Disable audio cache : OK for the drive with a cache less than 1375KiB
Make use of C2 pointers : NO
Read offset correction : 30
Max retry count : 100
Gap status : Analyzed, Appended (except HTOA)

TOC of the extracted CD
Track | Start | Length | Start sector | End sector
––––––––––––––––––––––––––––-
1 | 00:00:00 | 01:34:26 | 0 | 7075
2 | 01:34:26 | 08:01:70 | 7076 | 43220
3 | 09:36:21 | 01:04:32 | 43221 | 48052
4 | 10:40:53 | 06:59:63 | 48053 | 79540
5 | 17:40:41 | 02:13:59 | 79541 | 89574
6 | 19:54:25 | 07:10:21 | 89575 | 121845
7 | 27:04:46 | 11:57:33 | 121846 | 175653
8 | 39:02:04 | 09:45:33 | 175654 | 219561
9 | 48:47:37 | 12:39:13 | 219562 | 276499

AccurateRip Summary (DiscID: 001030a4-007e323b-7d0e6609)
Track 01 : OK (v2, confidence 3/3)
Track 02 : OK (v2, confidence 3/3)
Track 03 : OK (v2, confidence 3/3)
Track 04 : OK (v2, confidence 3/3)
Track 05 : OK (v2, confidence 3/3)
Track 06 : OK (v2, confidence 3/3)
Track 07 : OK (v2, confidence 3/3)
Track 08 : OK (v2, confidence 3/3)
Track 09 : OK (v2, confidence 3/3)
->All tracks accurately ripped.

All Tracks
Album gain : -3.01 dB
Peak : 0.983856
Statistics
Read error : 0
Jitter error (maybe fixed) : 0
Retry sector count : 0
Damaged sector count : 0

Track 01
Filename : /Rachmaninoff Plays Symphonic Dances - Newly Discovered 1940 Recording [Marston]/CD 1/01 Rachmaninoff Demonstrates His Symphonic Dances Op. 45 - I. Non allegro (bar 1 to bar 41).flac
Pre-gap length : 00:02:00

Track gain : -3.61 dB
Peak : 0.852112
CRC32 hash (test run) : 586DD40E
CRC32 hash : 586DD40E
CRC32 hash (skip zero) : 4993A9A1
AccurateRip v1 signature : D0BDB15C
AccurateRip v2 signature : E34D8B5F
->Accurately ripped (v2, confidence 3/3)
Statistics
Read error : 0
Jitter error (maybe fixed) : 0
Retry sector count : 0
Damaged sector count : 0

Track 02
Filename : /Rachmaninoff Plays Symphonic Dances - Newly Discovered 1940 Recording [Marston]/CD 1/02 Rachmaninoff Demonstrates His Symphonic Dances Op. 45 - I. Non allegro (bar 48 to bar 236).flac

Track gain : -2.29 dB
Peak : 0.785034
CRC32 hash (test run) : 9E57C647
CRC32 hash : 9E57C647
CRC32 hash (skip zero) : 104E65FE
AccurateRip v1 signature : A92E408C
AccurateRip v2 signature : 827C4588
->Accurately ripped (v2, confidence 3/3)
Statistics
Read error : 0
Jitter error (maybe fixed) : 0
Retry sector count : 0
Damaged sector count : 0

Track 03
Filename : /Rachmaninoff Plays Symphonic Dances - Newly Discovered 1940 Recording [Marston]/CD 1/03 Rachmaninoff Demonstrates His Symphonic Dances Op. 45 - I. Non allegro (pickup to bar 241 to 263).flac

Track gain : 6.71 dB
Peak : 0.377045
CRC32 hash (test run) : 3C112A17
CRC32 hash : 3C112A17
CRC32 hash (skip zero) : 09970DE3
AccurateRip v1 signature : 9176A584
AccurateRip v2 signature : 5101FCB6
->Accurately ripped (v2, confidence 3/3)
Statistics
Read error : 0
Jitter error (maybe fixed) : 0
Retry sector count : 0
Damaged sector count : 0

Track 04
Filename : /Rachmaninoff Plays Symphonic Dances - Newly Discovered 1940 Recording [Marston]/CD 1/04 Rachmaninoff Demonstrates His Symphonic Dances Op. 45 - II. Andante con moto, Tempo di valse (beginning to bar 176).flac

Track gain : -3.34 dB
Peak : 0.983856
CRC32 hash (test run) : 8D81074B
CRC32 hash : 8D81074B
CRC32 hash (skip zero) : 2B77E488
AccurateRip v1 signature : BEFBD8D0
AccurateRip v2 signature : E0ECB6B6
->Accurately ripped (v2, confidence 3/3)
Statistics
Read error : 0
Jitter error (maybe fixed) : 0
Retry sector count : 0
Damaged sector count : 0

Track 05
Filename : /Rachmaninoff Plays Symphonic Dances - Newly Discovered 1940 Recording [Marston]/CD 1/05 Rachmaninoff Demonstrates His Symphonic Dances Op. 45 - II. Andante con moto, Tempo di valse (middle of bar 182 to end).flac

Track gain : -3.14 dB
Peak : 0.759064
CRC32 hash (test run) : 649ABD4D
CRC32 hash : 649ABD4D
CRC32 hash (skip zero) : 6B8D0D71
AccurateRip v1 signature : C50D4263
AccurateRip v2 signature : B152084C
->Accurately ripped (v2, confidence 3/3)
Statistics
Read error : 0
Jitter error (maybe fixed) : 0
Retry sector count : 0
Damaged sector count : 0

Track 06
Filename : /Rachmaninoff Plays Symphonic Dances - Newly Discovered 1940 Recording [Marston]/CD 1/06 Rachmaninoff Demonstrates His Symphonic Dances Op. 45 - III. Lento assai - Allegro vivace - Lento assai, Come prima - Allegro vivace (bar 8 to bar 214).flac

Track gain : -3.72 dB
Peak : 0.841248
CRC32 hash (test run) : 0CC094A0
CRC32 hash : 0CC094A0
CRC32 hash (skip zero) : E5EE6DE7
AccurateRip v1 signature : E589F3FA
AccurateRip v2 signature : 43568D58
->Accurately ripped (v2, confidence 3/3)
Statistics
Read error : 0
Jitter error (maybe fixed) : 0
Retry sector count : 0
Damaged sector count : 0

Track 07
Filename : /Rachmaninoff Plays Symphonic Dances - Newly Discovered 1940 Recording [Marston]/CD 1/07 Symphonic Dances Op. 45 - I. Non allegro.flac

Track gain : -1.95 dB
Peak : 0.634460
CRC32 hash (test run) : AF3A1742
CRC32 hash : AF3A1742
CRC32 hash (skip zero) : D320BE99
AccurateRip v1 signature : 861E6CF1
AccurateRip v2 signature : 448C0B4F
->Accurately ripped (v2, confidence 3/3)
Statistics
Read error : 0
Jitter error (maybe fixed) : 0
Retry sector count : 0
Damaged sector count : 0

Track 08
Filename : /Rachmaninoff Plays Symphonic Dances - Newly Discovered 1940 Recording [Marston]/CD 1/08 Symphonic Dances Op. 45 - II. Andante con moto, Tempo di valse.flac

Track gain : -4.34 dB
Peak : 0.901581
CRC32 hash (test run) : BF3A52BB
CRC32 hash : BF3A52BB
CRC32 hash (skip zero) : E5772311
AccurateRip v1 signature : EC434DAE
AccurateRip v2 signature : 13C98744
->Accurately ripped (v2, confidence 3/3)
Statistics
Read error : 0
Jitter error (maybe fixed) : 0
Retry sector count : 0
Damaged sector count : 0

Track 09
Filename : /Rachmaninoff Plays Symphonic Dances - Newly Discovered 1940 Recording [Marston]/CD 1/09 Symphonic Dances Op. 45 - III. Lento assai - Allegro vivace - Lento assai, Come prima - Allegro vivace.flac

Track gain : -2.05 dB
Peak : 0.669830
CRC32 hash (test run) : F2E03B7B
CRC32 hash : F2E03B7B
CRC32 hash (skip zero) : 025989A8
AccurateRip v1 signature : 4BE023B7
AccurateRip v2 signature : A0677C5C
->Accurately ripped (v2, confidence 3/3)
Statistics
Read error : 0
Jitter error (maybe fixed) : 0
Retry sector count : 0
Damaged sector count : 0

No errors occurred

End of status report

––-BEGIN XLD SIGNATURE––-
zISze1hkxGYmUny84gE9tQweGVaVfG7xgJ5pHUC2ymkdUzSN1ahv66uU9gjmb0nKSJoThMDWHx77aGMHoq4BZF0RIDHh1IMDmSr7WeK
––-END XLD SIGNATURE––-
X Lossless Decoder version 20170729 (150.3)

XLD extraction logfile from 2019-04-19 19:03:20 +0200

Sergei Rachmaninov / Rachmaninoff Plays Symphonic Dances - Newly Discovered 1940 Recording [Marston]

Used drive : PLEXTOR DVDR PX-755A (revision 1.06)
Media type : Pressed CD

Ripper mode : XLD Secure Ripper
Disable audio cache : OK for the drive with a cache less than 1375KiB
Make use of C2 pointers : NO
Read offset correction : 30
Max retry count : 100
Gap status : Analyzed, Appended (except HTOA)

TOC of the extracted CD
Track | Start | Length | Start sector | End sector
––––––––––––––––––––––––––––-
1 | 00:00:00 | 02:53:61 | 0 | 13035
2 | 02:53:61 | 18:41:59 | 13036 | 97169
3 | 21:35:45 | 15:13:70 | 97170 | 165714
4 | 36:49:40 | 11:32:18 | 165715 | 217632
5 | 48:21:58 | 12:06:41 | 217633 | 272123
6 | 60:28:24 | 03:50:23 | 272124 | 289396
7 | 64:18:47 | 03:29:51 | 289397 | 305122
8 | 67:48:23 | 04:39:64 | 305123 | 326111
9 | 72:28:12 | 04:04:50 | 326112 | 344461

AccurateRip Summary (DiscID: 001efcb4-00ddfb1f-6a11f009)
Track 01 : OK (v2, confidence 3/3)
Track 02 : OK (v2, confidence 3/3)
Track 03 : OK (v2, confidence 3/3)
Track 04 : OK (v2, confidence 3/3)
Track 05 : OK (v2, confidence 3/3)
Track 06 : OK (v2, confidence 3/3)
Track 07 : OK (v2, confidence 3/3)
Track 08 : OK (v2, confidence 3/3)
Track 09 : OK (v2, confidence 3/3)
->All tracks accurately ripped.

All Tracks
Album gain : -2.41 dB
Peak : 0.944092
Statistics
Read error : 0
Jitter error (maybe fixed) : 0
Retry sector count : 0
Damaged sector count : 0

Track 01
Filename : /Rachmaninoff Plays Symphonic Dances - Newly Discovered 1940 Recording [Marston]/CD 2/01 Introductory radio announcement followed by Eugene Ormany speaking about Rachmaninoff.flac
Pre-gap length : 00:02:00

Track gain : 3.65 dB
Peak : 0.521973
CRC32 hash (test run) : 9056BE11
CRC32 hash : 9056BE11
CRC32 hash (skip zero) : DAF13338
AccurateRip v1 signature : 985D7ADA
AccurateRip v2 signature : 65C1E4F7
->Accurately ripped (v2, confidence 3/3)
Statistics
Read error : 0
Jitter error (maybe fixed) : 0
Retry sector count : 0
Damaged sector count : 0

Track 02
Filename : /Rachmaninoff Plays Symphonic Dances - Newly Discovered 1940 Recording [Marston]/CD 2/02 The Isle of the Dead Op. 29.flac

Track gain : -3.86 dB
Peak : 0.944092
CRC32 hash (test run) : EF6C6FCB
CRC32 hash : EF6C6FCB
CRC32 hash (skip zero) : 768B0A38
AccurateRip v1 signature : 2C6576CA
AccurateRip v2 signature : C7F595E2
->Accurately ripped (v2, confidence 3/3)
Statistics
Read error : 0
Jitter error (maybe fixed) : 0
Retry sector count : 0
Damaged sector count : 0

Track 03
Filename : /Rachmaninoff Plays Symphonic Dances - Newly Discovered 1940 Recording [Marston]/CD 2/03 Symphony No. 3 in A minor Op. 44 - I. Lento - Allegro moderato - Allegro.flac

Track gain : -2.56 dB
Peak : 0.831268
CRC32 hash (test run) : F90DD45E
CRC32 hash : F90DD45E
CRC32 hash (skip zero) : C40DB727
AccurateRip v1 signature : F7FF260B
AccurateRip v2 signature : C65DE6E6
->Accurately ripped (v2, confidence 3/3)
Statistics
Read error : 0
Jitter error (maybe fixed) : 0
Retry sector count : 0
Damaged sector count : 0

Track 04
Filename : /Rachmaninoff Plays Symphonic Dances - Newly Discovered 1940 Recording [Marston]/CD 2/04 Symphony No. 3 in A minor Op. 44 - II. Adagio ma non troppo - Allegro vivace.flac

Track gain : -0.18 dB
Peak : 0.637329
CRC32 hash (test run) : D6071DF1
CRC32 hash : D6071DF1
CRC32 hash (skip zero) : FCD91210
AccurateRip v1 signature : 841548A5
AccurateRip v2 signature : B372ED12
->Accurately ripped (v2, confidence 3/3)
Statistics
Read error : 0
Jitter error (maybe fixed) : 0
Retry sector count : 0
Damaged sector count : 0

Track 05
Filename : /Rachmaninoff Plays Symphonic Dances - Newly Discovered 1940 Recording [Marston]/CD 2/05 Symphony No. 3 in A minor Op. 44 - III. Allegro - Allegro vivace - Allegro, Tempo primo - Allegretto - Allegro vivace.flac

Track gain : -3.47 dB
Peak : 0.816101
CRC32 hash (test run) : 769B3D1B
CRC32 hash : 769B3D1B
CRC32 hash (skip zero) : 040480F9
AccurateRip v1 signature : D35E414C
AccurateRip v2 signature : 927E8F71
->Accurately ripped (v2, confidence 3/3)
Statistics
Read error : 0
Jitter error (maybe fixed) : 0
Retry sector count : 0
Damaged sector count : 0

Track 06
Filename : /Rachmaninoff Plays Symphonic Dances - Newly Discovered 1940 Recording [Marston]/CD 2/06 Belilitsi rumyanitsi, vy moi (Powder and Paint).flac

Track gain : -1.23 dB
Peak : 0.764862
CRC32 hash (test run) : 3A728DFA
CRC32 hash : 3A728DFA
CRC32 hash (skip zero) : 0B1CF23B
AccurateRip v1 signature : EB352771
AccurateRip v2 signature : FE2FC08C
->Accurately ripped (v2, confidence 3/3)
Statistics
Read error : 0
Jitter error (maybe fixed) : 0
Retry sector count : 0
Damaged sector count : 0

Track 07
Filename : /Rachmaninoff Plays Symphonic Dances - Newly Discovered 1940 Recording [Marston]/CD 2/07 Three Russian Songs for Chorus and Orchestra Op. 41 - I. Cherez rechku (Over the Stream), Moderato.flac

Track gain : 1.51 dB
Peak : 0.894012
CRC32 hash (test run) : E2C86F31
CRC32 hash : E2C86F31
CRC32 hash (skip zero) : 23ECC6FE
AccurateRip v1 signature : 66D98BD8
AccurateRip v2 signature : A4E30793
->Accurately ripped (v2, confidence 3/3)
Statistics
Read error : 0
Jitter error (maybe fixed) : 0
Retry sector count : 0
Damaged sector count : 0

Track 08
Filename : /Rachmaninoff Plays Symphonic Dances - Newly Discovered 1940 Recording [Marston]/CD 2/08 Three Russian Songs for Chorus and Orchestra Op. 41 - II. Akh ty, Vanka (Oh, My Little Johnny), Largo.flac

Track gain : 0.84 dB
Peak : 0.687714
CRC32 hash (test run) : 549D4AC1
CRC32 hash : 549D4AC1
CRC32 hash (skip zero) : BD7B29D6
AccurateRip v1 signature : 0A3F8AB8
AccurateRip v2 signature : F81CAAE5
->Accurately ripped (v2, confidence 3/3)
Statistics
Read error : 0
Jitter error (maybe fixed) : 0
Retry sector count : 0
Damaged sector count : 0

Track 09
Filename : /Rachmaninoff Plays Symphonic Dances - Newly Discovered 1940 Recording [Marston]/CD 2/09 Three Russian Songs for Chorus and Orchestra Op. 41 - III. Belilitsi rumyanitsi, vy moi (You, My Fairness, My Rosy Cheeks or ''Powder and Paint''), Allegro.flac

Track gain : 0.25 dB
Peak : 0.683838
CRC32 hash (test run) : 364A5BF1
CRC32 hash : 364A5BF1
CRC32 hash (skip zero) : F520DF97
AccurateRip v1 signature : 341C789F
AccurateRip v2 signature : 5C42348B
->Accurately ripped (v2, confidence 3/3)
Statistics
Read error : 0
Jitter error (maybe fixed) : 0
Retry sector count : 0
Damaged sector count : 0

No errors occurred

End of status report

––-BEGIN XLD SIGNATURE––-
jI80NJcQiCEs_GvhixqZbsHIqoGGNjofkKPOW160o.g.XB3Io1YwxkedASRYnbUfu4J0HhSm.eg5ks9R4IpchKarb.Xz7_km0TEQyBe
––-END XLD SIGNATURE––-
X Lossless Decoder version 20170729 (150.3)

XLD extraction logfile from 2019-04-19 19:19:32 +0200

Sergei Rachmaninov / Rachmaninoff Plays Symphonic Dances - Newly Discovered 1940 Recording [Marston]

Used drive : PLEXTOR DVDR PX-755A (revision 1.06)
Media type : Pressed CD

Ripper mode : XLD Secure Ripper
Disable audio cache : OK for the drive with a cache less than 1375KiB
Make use of C2 pointers : NO
Read offset correction : 30
Max retry count : 100
Gap status : Analyzed, Appended (except HTOA)

TOC of the extracted CD
Track | Start | Length | Start sector | End sector
––––––––––––––––––––––––––––-
1 | 00:00:00 | 01:45:35 | 0 | 7909
2 | 01:45:35 | 23:12:22 | 7910 | 112331
3 | 24:57:57 | 00:35:72 | 112332 | 115028
4 | 25:33:54 | 01:26:11 | 115029 | 121489
5 | 26:59:65 | 06:21:74 | 121490 | 150138
6 | 33:21:64 | 09:31:64 | 150139 | 193027
7 | 42:53:53 | 09:19:24 | 193028 | 234976
8 | 52:13:02 | 09:16:70 | 234977 | 276746
9 | 61:29:72 | 05:05:51 | 276747 | 299672

AccurateRip Summary (DiscID: 00170f9d-00a873c2-700f9b09)
Track 01 : OK (v2, confidence 3/3)
Track 02 : OK (v2, confidence 3/3)
Track 03 : OK (v2, confidence 3/3)
Track 04 : OK (v2, confidence 3/3)
Track 05 : OK (v2, confidence 3/3)
Track 06 : OK (v2, confidence 3/3)
Track 07 : OK (v2, confidence 3/3)
Track 08 : OK (v2, confidence 3/3)
Track 09 : OK (v2, confidence 3/3)
->All tracks accurately ripped.

All Tracks
Album gain : -2.50 dB
Peak : 0.995361
Statistics
Read error : 0
Jitter error (maybe fixed) : 0
Retry sector count : 0
Damaged sector count : 0

Track 01
Filename : /Rachmaninoff Plays Symphonic Dances - Newly Discovered 1940 Recording [Marston]/CD 3/01 Introductory radio announcement.flac
Pre-gap length : 00:02:00

Track gain : 2.54 dB
Peak : 0.560425
CRC32 hash (test run) : 4502B1D5
CRC32 hash : 4502B1D5
CRC32 hash (skip zero) : 0A4DE26F
AccurateRip v1 signature : FC85C0D9
AccurateRip v2 signature : DA5169E4
->Accurately ripped (v2, confidence 3/3)
Statistics
Read error : 0
Jitter error (maybe fixed) : 0
Retry sector count : 0
Damaged sector count : 0

Track 02
Filename : /Rachmaninoff Plays Symphonic Dances - Newly Discovered 1940 Recording [Marston]/CD 3/02 Rhapsody on a Theme of Paganini Op. 43.flac

Track gain : -0.84 dB
Peak : 0.901550
CRC32 hash (test run) : 57AAD23E
CRC32 hash : 57AAD23E
CRC32 hash (skip zero) : 8ED6998A
AccurateRip v1 signature : 2F9F3FAC
AccurateRip v2 signature : 7A76435F
->Accurately ripped (v2, confidence 3/3)
Statistics
Read error : 0
Jitter error (maybe fixed) : 0
Retry sector count : 0
Damaged sector count : 0

Track 03
Filename : /Rachmaninoff Plays Symphonic Dances - Newly Discovered 1940 Recording [Marston]/CD 3/03 Russian folk song - Bublichki (Bagels).flac

Track gain : -6.03 dB
Peak : 0.513794
CRC32 hash (test run) : DDFB47F9
CRC32 hash : DDFB47F9
CRC32 hash (skip zero) : 1F05BFC8
AccurateRip v1 signature : 082F71C5
AccurateRip v2 signature : 86A3C5BD
->Accurately ripped (v2, confidence 3/3)
Statistics
Read error : 0
Jitter error (maybe fixed) : 0
Retry sector count : 0
Damaged sector count : 0

Track 04
Filename : /Rachmaninoff Plays Symphonic Dances - Newly Discovered 1940 Recording [Marston]/CD 3/04 Polka Italienne.flac

Track gain : -4.82 dB
Peak : 0.557068
CRC32 hash (test run) : 33E416A0
CRC32 hash : 33E416A0
CRC32 hash (skip zero) : BA44D24B
AccurateRip v1 signature : 815B392A
AccurateRip v2 signature : BA9F13AB
->Accurately ripped (v2, confidence 3/3)
Statistics
Read error : 0
Jitter error (maybe fixed) : 0
Retry sector count : 0
Damaged sector count : 0

Track 05
Filename : /Rachmaninoff Plays Symphonic Dances - Newly Discovered 1940 Recording [Marston]/CD 3/05 Rachmaninoff plays ballades - Brahms Op. 10 No. 2 in D major (middle of bar 145 to bar 150), and Liszt No. 2 in B minor (through the end of bar 125; bars 77-79 ommited).flac

Track gain : 4.52 dB
Peak : 0.925232
CRC32 hash (test run) : C3D8D6FB
CRC32 hash : C3D8D6FB
CRC32 hash (skip zero) : 55EA0A78
AccurateRip v1 signature : 4D88341F
AccurateRip v2 signature : 9A2148A1
->Accurately ripped (v2, confidence 3/3)
Statistics
Read error : 0
Jitter error (maybe fixed) : 0
Retry sector count : 0
Damaged sector count : 0

Track 06
Filename : /Rachmaninoff Plays Symphonic Dances - Newly Discovered 1940 Recording [Marston]/CD 3/06 Rachmaninoff Demonstrates His Symphonic Dances Op. 45 - Side 1 - I. Non allegro (bar 48 to bar 236).flac

Track gain : -0.47 dB
Peak : 0.670105
CRC32 hash (test run) : 4A957B65
CRC32 hash : 4A957B65
CRC32 hash (skip zero) : 29483695
AccurateRip v1 signature : 1E915F6F
AccurateRip v2 signature : AB511665
->Accurately ripped (v2, confidence 3/3)
Statistics
Read error : 0
Jitter error (maybe fixed) : 0
Retry sector count : 0
Damaged sector count : 0

Track 07
Filename : /Rachmaninoff Plays Symphonic Dances - Newly Discovered 1940 Recording [Marston]/CD 3/07 Rachmaninoff Demonstrates His Symphonic Dances Op. 45 - Side 2 - I. Non allegro (pickup to bar 241 to 263); III. Lento assai - Allegro vivace - Lento assai, Come prima - Allegro vivace (bar 8 to bar 214).flac

Track gain : -3.53 dB
Peak : 0.930115
CRC32 hash (test run) : 29AF6382
CRC32 hash : 29AF6382
CRC32 hash (skip zero) : AB5CFEB3
AccurateRip v1 signature : 96047BEB
AccurateRip v2 signature : CAF25572
->Accurately ripped (v2, confidence 3/3)
Statistics
Read error : 0
Jitter error (maybe fixed) : 0
Retry sector count : 0
Damaged sector count : 0

Track 08
Filename : /Rachmaninoff Plays Symphonic Dances - Newly Discovered 1940 Recording [Marston]/CD 3/08 Rachmaninoff Demonstrates His Symphonic Dances Op. 45 - Side 3 - II. Andante con moto, Tempo di valse (beginning to bar 176).flac

Track gain : -3.41 dB
Peak : 0.995361
CRC32 hash (test run) : A040E397
CRC32 hash : A040E397
CRC32 hash (skip zero) : B629BDD3
AccurateRip v1 signature : 0CF81F4E
AccurateRip v2 signature : 18F39088
->Accurately ripped (v2, confidence 3/3)
Statistics
Read error : 0
Jitter error (maybe fixed) : 0
Retry sector count : 0
Damaged sector count : 0

Track 09
Filename : /Rachmaninoff Plays Symphonic Dances - Newly Discovered 1940 Recording [Marston]/CD 3/09 Rachmaninoff Demonstrates His Symphonic Dances Op. 45 - Side 4 - II. Andante con moto, Tempo di valse (middle of bar 182 to end); I. Non allegro (bar 1 to bar 41).flac

Track gain : -3.77 dB
Peak : 0.869995
CRC32 hash (test run) : A2BF75AE
CRC32 hash : A2BF75AE
CRC32 hash (skip zero) : 7F90163D
AccurateRip v1 signature : 0A62C820
AccurateRip v2 signature : 3E4F7E91
->Accurately ripped (v2, confidence 3/3)
Statistics
Read error : 0
Jitter error (maybe fixed) : 0
Retry sector count : 0
Damaged sector count : 0

No errors occurred

End of status report

––-BEGIN XLD SIGNATURE––-
uD9XDv50wEj8Ic9Z.vN.Av44fLahdrq7FVtJzV9jBziCoV7gq9Tifd3Vh52LoYdEyYu8T8tRtmyI8KHzi8Lu3TWmf2fkA30fozaxh9q
––-END XLD SIGNATURE––-


Sergei Rachmaninoff - Rachmaninoff Plays Symphonic Dances: Newly Discovered 1940 Recording (2018) {3CD Set Marston 53022-2}



===