Tags
Language
Tags
February 2023
Su Mo Tu We Th Fr Sa
29 30 31 1 2 3 4
5 6 7 8 9 10 11
12 13 14 15 16 17 18
19 20 21 22 23 24 25
26 27 28 1 2 3 4

Royal Concertgebouw Orchestra & Boston Symphony Orchestra & Rafael Kubelik - Beethoven: Symphonies Nos. 2 & 5 (2017)

Posted By: delpotro
Royal Concertgebouw Orchestra & Boston Symphony Orchestra & Rafael Kubelik - Beethoven: Symphonies Nos. 2 & 5 (2017)

Royal Concertgebouw Orchestra & Boston Symphony Orchestra & Rafael Kubelik - Beethoven: Symphonies Nos. 2 & 5 (2017)
EAC Rip | FLAC (tracks+log+.cue) - 318 Mb | MP3 CBR 320 kbps - 166 Mb | 01:12:17
Classical | Label: Pentatone

Dating from the 1970s, Rafael Kubelik's incisive and acclaimed reading of Beethoven's second and fifth symphonies is the latest release in the Remastered Classics series from PENTATONE, performed with panache by the Royal Concertgebouw Orchestra and the Boston Symphony Orchestra.

For a work that was written during an unhappy period of his life, Beethoven's second symphony nevertheless bristles with infectious humour and vitality. Its striking innovations startled contemporary audiences, from the imposing opening to the capricious scherzo and the witty, energetic finale, but Beethoven's indebtedness to the classical symphonies of Haydn and Mozart are still quite apparent.

Goethe described Beethoven's turbulent fifth symphony as "very great, quite wild; it makes one fear that the house might fall down." Its visceral energy is announced right from the start with its famous opening notes whose hammer blows drive the development of the symphony - from the dark, brooding drama of the opening movement to the spectacular and radiant outburst in the triumphant final movement. It's one of Beethoven's most riveting and compelling works and one of his deservedly most popular.

These recordings form part of the acclaimed cycle of Beethoven symphonies Rafael Kubelik made for Deutsche Grammophon in the 1970s, each symphony performed by a different orchestra. Although recorded in multi-channel sound, these winning performances have previously been available only in the conventional two-channel stereo format. Using state of the art technology which avoids the need for re-mixing, PENTATONE's engineers have remastered the original studio tapes to bring the performances to life as originally intended: in compelling and pristine multi-channel sound.
Tracklist:
1. Adagio Molto - Allegro Con Brio (13:08)
2. Larghetto (12:34)
3. Scherzo (Allegro) (03:42)
4. Allegro Molto (06:34)
5. Allegro Con Brio (08:25)
6. Andante Con Moto (11:07)
7. Allegro (05:21)
8. Allegro (11:13)

Exact Audio Copy V1.3 from 2. September 2016

EAC extraction logfile from 21. July 2019, 21:53

Royal Concertgebouw Orchestra, Boston Symphony Orchestra, Rafael Kubelik / Symphonies Nos. 2 & 5

Used drive : HL-DT-STDVDRAM GH24NSD1 Adapter: 1 ID: 0

Read mode : Secure
Utilize accurate stream : Yes
Defeat audio cache : Yes
Make use of C2 pointers : No

Read offset correction : 6
Overread into Lead-In and Lead-Out : No
Fill up missing offset samples with silence : Yes
Delete leading and trailing silent blocks : No
Null samples used in CRC calculations : Yes
Used interface : Native Win32 interface for Win NT & 2000
Gap handling : Appended to previous track

Used output format : User Defined Encoder
Selected bitrate : 1024 kBit/s
Quality : High
Add ID3 tag : No
Command line compressor : C:\Program Files (x86)\Exact Audio Copy\Flac\flac.exe
Additional command line options : -8 -V -T "ARTIST=%artist%" -T "TITLE=%title%" -T "ALBUM=%albumtitle%" -T "DATE=%year%" -T "TRACKNUMBER=%tracknr%" -T "GENRE=%genre%" -T "PERFORMER=%albuminterpret%" -T "COMPOSER=%composer%" %haslyrics%–tag-from-file=LYRICS="%lyricsfile%"%haslyrics% -T "ALBUMARTIST=%albumartist%" -T "DISCNUMBER=%cdnumber%" -T "TOTALDISCS=%totalcds%" -T "TOTALTRACKS=%numtracks%" -T "COMMENT=%comment%" %source% -o %dest%


TOC of the extracted CD

Track | Start | Length | Start sector | End sector
––––––––––––––––––––––––––––-
1 | 0:00.00 | 13:09.49 | 0 | 59223
2 | 13:09.49 | 12:33.37 | 59224 | 115735
3 | 25:43.11 | 3:43.04 | 115736 | 132464
4 | 29:26.15 | 6:43.02 | 132465 | 162691
5 | 36:09.17 | 8:23.40 | 162692 | 200456
6 | 44:32.57 | 11:07.43 | 200457 | 250524
7 | 55:40.25 | 5:19.67 | 250525 | 274516
8 | 61:00.17 | 11:17.46 | 274517 | 325337


Track 1

Filename E:\WHAT.CD\000TEMP\Beethoven - Symphonies Nos. 2 & 5 - Kubelik (2017 remastered) [FLAC]\01 - Symphony No.2 in D, Op.36 - I. Adagio molto – Allegro con brio.wav

Pre-gap length 0:00:02.00

Peak level 78.6 %
Extraction speed 5.5 X
Track quality 100.0 %
Test CRC EDEC9C85
Copy CRC EDEC9C85
Accurately ripped (confidence 3) [0F4B3B95] (AR v2)
Copy OK

Track 2

Filename E:\WHAT.CD\000TEMP\Beethoven - Symphonies Nos. 2 & 5 - Kubelik (2017 remastered) [FLAC]\02 - Symphony No.2 in D, Op.36 - II. Larghetto.wav

Peak level 51.0 %
Extraction speed 7.0 X
Track quality 100.0 %
Test CRC 0E7F05C8
Copy CRC 0E7F05C8
Accurately ripped (confidence 3) [35129706] (AR v2)
Copy OK

Track 3

Filename E:\WHAT.CD\000TEMP\Beethoven - Symphonies Nos. 2 & 5 - Kubelik (2017 remastered) [FLAC]\03 - Symphony No.2 in D, Op.36 - III. Scherzo (Allegro).wav

Peak level 92.2 %
Extraction speed 7.0 X
Track quality 100.0 %
Test CRC 175194A5
Copy CRC 175194A5
Accurately ripped (confidence 3) [35E49534] (AR v2)
Copy OK

Track 4

Filename E:\WHAT.CD\000TEMP\Beethoven - Symphonies Nos. 2 & 5 - Kubelik (2017 remastered) [FLAC]\04 - Symphony No.2 in D, Op.36 - IV. Allegro molto.wav

Peak level 91.2 %
Extraction speed 7.1 X
Track quality 99.9 %
Test CRC C96BBD15
Copy CRC C96BBD15
Accurately ripped (confidence 3) [4C4871A2] (AR v2)
Copy OK

Track 5

Filename E:\WHAT.CD\000TEMP\Beethoven - Symphonies Nos. 2 & 5 - Kubelik (2017 remastered) [FLAC]\05 - Symphony No.5 in C minor, Op.67 - I. Allegro con brio.wav

Peak level 83.4 %
Extraction speed 8.4 X
Track quality 100.0 %
Test CRC C7B00D97
Copy CRC C7B00D97
Accurately ripped (confidence 3) [8EBF5445] (AR v2)
Copy OK

Track 6

Filename E:\WHAT.CD\000TEMP\Beethoven - Symphonies Nos. 2 & 5 - Kubelik (2017 remastered) [FLAC]\06 - Symphony No.5 in C minor, Op.67 - II. Andante con moto.wav

Peak level 82.2 %
Extraction speed 9.2 X
Track quality 100.0 %
Test CRC BD5C3499
Copy CRC BD5C3499
Accurately ripped (confidence 3) [73492D9D] (AR v2)
Copy OK

Track 7

Filename E:\WHAT.CD\000TEMP\Beethoven - Symphonies Nos. 2 & 5 - Kubelik (2017 remastered) [FLAC]\07 - Symphony No.5 in C minor, Op.67 - III. Allegro.wav

Peak level 76.8 %
Extraction speed 9.1 X
Track quality 100.0 %
Test CRC 55FD5F84
Copy CRC 55FD5F84
Accurately ripped (confidence 3) [F4B81C94] (AR v2)
Copy OK

Track 8

Filename E:\WHAT.CD\000TEMP\Beethoven - Symphonies Nos. 2 & 5 - Kubelik (2017 remastered) [FLAC]\08 - Symphony No.5 in C minor, Op.67 - IV. Allegro.wav

Peak level 88.0 %
Extraction speed 9.5 X
Track quality 99.9 %
Test CRC B04E20D3
Copy CRC B04E20D3
Accurately ripped (confidence 3) [CCA64050] (AR v2)
Copy OK


All tracks accurately ripped

No errors occurred

End of status report

–– CUETools DB Plugin V2.1.6

[CTDB TOCID: F3mhEV1lgsmFMkVKWJ9_0BtcQe4-] found
Submit result: F3mhEV1lgsmFMkVKWJ9_0BtcQe4- has been confirmed
Track | CTDB Status
1 | (8/8) Accurately ripped
2 | (8/8) Accurately ripped
3 | (8/8) Accurately ripped
4 | (8/8) Accurately ripped
5 | (8/8) Accurately ripped
6 | (8/8) Accurately ripped
7 | (8/8) Accurately ripped
8 | (8/8) Accurately ripped


==== Log checksum 256D9B66D25B9803518F4A2FCEB0194E0B7DC514A4FD19FB1B49F5F51EB8C30E ====

Thanks to the Original ripper !