Subcategories

Reynaldo Hahn - Works for piano solo (2012) {4CD+DVD Box Set, Concerto Box 2015}

Posted By: ruskaval
Reynaldo Hahn - Works for piano solo (2012) {4CD+DVD Box Set, Concerto Box 2015}

Reynaldo Hahn - Works for piano solo (2012) {4CD+DVD Box Set, Concerto Box 2015}
EAC rip (secure mode) | FLAC (tracks)+CUE+LOG -> 778 Mb | MP3 @320 -> 669 Mb
DVD5 -> 2.67 Gb | All Regions | NTSC 16:9 | LinearPCM, 2 ch | ~ 57 min | ISO Image
Subs: Francais, Italiano, English
Full Artwork @ 300 dpi (png) -> 130 Mb | 5% repair rar
© 2012 Concerto | Box 2015
Classical / Romantic / Belle Époque / Mélodie / Piano Solo

This album is a feast for the ears–4 CDs of little-played, virtually unknown solo piano music by Reynaldo Hahn, born in Venezuela but a resident of France from the age of 4, and therefore sounding more like French romantics like Debussy than Argentine composers like Piazolla–there's nary a tango in sight. What we have here are dozens of brief (many as short as 1 minute), delicious melodies expertly played by the hyper-talented Cristina Araiagno. There's also a bonus DVD about the making of the CD with more info on the composer and the pianist. Just when you thought you'd heard the entire piano repertoire, here comes a delightful surprise.
Reynaldo Hahn - Works for piano solo (2012) {4CD+DVD Box Set, Concerto Box 2015}

Reynaldo Hahn - Works for piano solo (2012) {4CD+DVD Box Set, Concerto Box 2015}


Performers
Cristina Ariagno - piano solo

Track Listings

Disc: 1

1. Frontispice
2. Andromede Resignee
3. Douloureuse Rêverie Dans Un Bois De Sapins
4. Le Bouquet De Pensées
5. Soleil D'automne
6. Gretchen
7. Les Deux Echarpes
8. Liebe! Liebe!
9. Eros Cache Dans Les Bois
10. La Fausse Indifférence
11. Chanson De Midi
12. Antiochus
13. Nevermore
14. Portrait
15. L'enfant Au Perroquet
16. Les Reveries Du Prince Eglantine
17. Ivresse
18. L'arome Supreme
19. Berceuse Féroce
20. Passante
21. La Danse De L'amour Et De L'ennui
22. Ouranos
23. Les Heliotropes De Clos-Andre
24. Effet De Nuit Sur La Seine
25. Per I Piccoli Canali
26. Mirage
27. La Danse De L'amour Et Du Danger
28. Matinee Parisienne
29. Cherubin Tragique
30. Les Chenes Enlaces

Reynaldo Hahn - Works for piano solo (2012) {4CD+DVD Box Set, Concerto Box 2015}


Disc: 2
1. En Caique
2. Narghilé
3. Les Chiens Da Galata
4. Reverie Nocturne Sur Les Bosphore
5. La Rose De Blida
6. L'oasis
7. L'ange Verrier
8. Le Jardin De Petrarque
9. La Nativite
10. Faunesse Dansante
11. Les Noces Du Duc De Joyeuse
12. Le Petit Mail
13. Les Pages D'Elisabeth
14. Le Jeunesse Et L'ete Ornent De Fleurs Le Tombeau De Pergolese
15. Vieux Bahuts
16. Hommage a Martius
17. La Reine Au Jardin
18. Le Reveil De Flore
19. Le Banc Songeur
20. La Fete De Terpsichore
21. Adieux Au Soir Tombant
22. Hivernale
23. Le Pelerinage Inutile

Reynaldo Hahn - Works for piano solo (2012) {4CD+DVD Box Set, Concerto Box 2015}


Disc: 3
1. Notturno Alla Italiana
2. Good-bye
3. Tres Simple
4. Tristesse
5. Regrets
6. Contour Melodique Improvise En Voiture Ouverte
7. A Un Mouchoir
8. Grands Yeux
9. Grands Yeux
10. Mens Divinior
11. Avec Elegance Et Tres Calme
12. Chanson Reveuse De L'heliotrope
13. Valse De La Libellue En Deuil
14. L'inspiration
15. Portrait
16. La Promenade
17. Demi-sommeil
18. Feuillage
19. Phoebe
20. Les Regards Amoureux
21. Promenade
22. Babillage Et Soleil
23. Lune
24. Angelus
25. Tristesse Nocturne, L'oiseau De Nuit
26. Petit Ruisseau Murmurant
27. Ver Luisant
28. Le Lys
29. Les Orties
30. Le Vent
31. Retour
32. D'une Prison
33. Avant L'hommage Des Poetes
34. Pavane D'Angelo

Reynaldo Hahn - Works for piano solo (2012) {4CD+DVD Box Set, Concerto Box 2015}


Disc: 4
1. Albert Cuyp
2. Paulus Potter
3. Anton Van Dyck
4. Antoine Watteau
5. Invitation a La Valse
6. I.
7. II.
8. Ninette
9. Valse Noble
10. V.
11. VI.
12. Berceau
13. VIII.
14. La Feuille
15. X.
16. Allegro Non Troppo
17. Andantino Rubato
18. Final: En Forme De Tambourin
19. Theme Varie Sur Le Nom De Haydn
20. Bacchante
21. La Creation Du Monde

Reynaldo Hahn - Works for piano solo (2012) {4CD+DVD Box Set, Concerto Box 2015}


Disc: 5 (DVD)
1. Le Piano De Reynaldo Hahn - Various Performers

Reynaldo Hahn - Works for piano solo (2012) {4CD+DVD Box Set, Concerto Box 2015}


Exact Audio Copy V1.0 beta 4 from 7. December 2014

EAC extraction logfile from 11. March 2015, 15:11

Reynaldo Hahn / Works for piano solo CD1

Used drive : ATAPI iHBS112 2 Adapter: 1 ID: 0

Read mode : Secure
Utilize accurate stream : Yes
Defeat audio cache : Yes
Make use of C2 pointers : No

Read offset correction : 6
Overread into Lead-In and Lead-Out : No
Fill up missing offset samples with silence : Yes
Delete leading and trailing silent blocks : No
Null samples used in CRC calculations : Yes
Used interface : Native Win32 interface for Win NT & 2000
Gap handling : Appended to previous track

Used output format : User Defined Encoder
Selected bitrate : 1024 kBit/s
Quality : High
Add ID3 tag : No
Command line compressor : C:\Program Files\Exact Audio Copy\Flac\flac.exe
Additional command line options : -8 -V -T "ARTIST=%artist%" -T "TITLE=%title%" -T "ALBUM=%albumtitle%" -T "DATE=%year%" -T "TRACKNUMBER=%tracknr%" -T "TOTALTRACKS=%numtracks%" -T "GENRE=%genre%" -T "ALBUMARTIST=%albumartist%" -T "ALBUM ARTIST=%albumartist%" -T "COMPOSER=%composer%" -T "PERFORMER=%albuminterpret%" -T "DISCNUMBER=%cdnumber%" -T "TOTALDISCS=%totalcds%" -T "COMMENT=EAC Secure Mode, Test & Copy, AccurateRip, FLAC -8" %source%


TOC of the extracted CD

Track | Start | Length | Start sector | End sector
––––––––––––––––––––––––––––-
1 | 0:00.00 | 2:49.62 | 0 | 12736
2 | 2:49.62 | 1:59.00 | 12737 | 21661
3 | 4:48.62 | 9:16.37 | 21662 | 63398
4 | 14:05.24 | 1:15.38 | 63399 | 69061
5 | 15:20.62 | 2:15.37 | 69062 | 79223
6 | 17:36.24 | 2:59.00 | 79224 | 92648
7 | 20:35.24 | 1:41.00 | 92649 | 100223
8 | 22:16.24 | 0:54.38 | 100224 | 104311
9 | 23:10.62 | 2:40.00 | 104312 | 116311
10 | 25:50.62 | 1:41.37 | 116312 | 123923
11 | 27:32.24 | 1:24.38 | 123924 | 130261
12 | 28:56.62 | 3:27.37 | 130262 | 145823
13 | 32:24.24 | 1:23.00 | 145824 | 152048
14 | 33:47.24 | 0:39.00 | 152049 | 154973
15 | 34:26.24 | 1:55.00 | 154974 | 163598
16 | 36:21.24 | 2:33.00 | 163599 | 175073
17 | 38:54.24 | 1:57.00 | 175074 | 183848
18 | 40:51.24 | 1:23.00 | 183849 | 190073
19 | 42:14.24 | 4:29.00 | 190074 | 210248
20 | 46:43.24 | 1:16.00 | 210249 | 215948
21 | 47:59.24 | 3:08.00 | 215949 | 230048
22 | 51:07.24 | 3:17.38 | 230049 | 244861
23 | 54:24.62 | 1:32.37 | 244862 | 251798
24 | 55:57.24 | 2:02.00 | 251799 | 260948
25 | 57:59.24 | 6:48.38 | 260949 | 291586
26 | 64:47.62 | 2:15.00 | 291587 | 301711
27 | 67:02.62 | 3:00.00 | 301712 | 315211
28 | 70:02.62 | 3:45.00 | 315212 | 332086
29 | 73:47.62 | 2:12.37 | 332087 | 342023
30 | 76:00.24 | 3:54.24 | 342024 | 359597


Track 1

Filename P:\DL\Reynaldo Hahn - Works for piano solo CD1 (2012) [FLAC]\01 - Frontispice.wav

Pre-gap length 0:00:02.00

Peak level 37.4 %
Extraction speed 2.0 X
Track quality 100.0 %
Test CRC 37FFE0C6
Copy CRC 37FFE0C6
Track not present in AccurateRip database
Copy OK

Track 2

Filename P:\DL\Reynaldo Hahn - Works for piano solo CD1 (2012) [FLAC]\02 - Andromede Resignee.wav

Peak level 59.2 %
Extraction speed 2.0 X
Track quality 100.0 %
Test CRC 9B61AA9E
Copy CRC 9B61AA9E
Track not present in AccurateRip database
Copy OK

Track 3

Filename P:\DL\Reynaldo Hahn - Works for piano solo CD1 (2012) [FLAC]\03 - Douloureuse reverie dans un bois de sapins.wav

Peak level 52.4 %
Extraction speed 2.7 X
Track quality 100.0 %
Test CRC 1F1366DD
Copy CRC 1F1366DD
Track not present in AccurateRip database
Copy OK

Track 4

Filename P:\DL\Reynaldo Hahn - Works for piano solo CD1 (2012) [FLAC]\04 - Le Bouquet de Pensees.wav

Peak level 30.5 %
Extraction speed 2.1 X
Track quality 100.0 %
Test CRC 7A15441C
Copy CRC 7A15441C
Track not present in AccurateRip database
Copy OK

Track 5

Filename P:\DL\Reynaldo Hahn - Works for piano solo CD1 (2012) [FLAC]\05 - Soleil d'automne.wav

Peak level 44.5 %
Extraction speed 2.5 X
Track quality 100.0 %
Test CRC 4AAE35C2
Copy CRC 4AAE35C2
Track not present in AccurateRip database
Copy OK

Track 6

Filename P:\DL\Reynaldo Hahn - Works for piano solo CD1 (2012) [FLAC]\06 - Gretchen.wav

Peak level 45.3 %
Extraction speed 2.7 X
Track quality 100.0 %
Test CRC 86D9E752
Copy CRC 86D9E752
Track not present in AccurateRip database
Copy OK

Track 7

Filename P:\DL\Reynaldo Hahn - Works for piano solo CD1 (2012) [FLAC]\07 - Les deux Echarpes.wav

Peak level 40.3 %
Extraction speed 2.5 X
Track quality 100.0 %
Test CRC ADA6CCFC
Copy CRC ADA6CCFC
Track not present in AccurateRip database
Copy OK

Track 8

Filename P:\DL\Reynaldo Hahn - Works for piano solo CD1 (2012) [FLAC]\08 - Liebe! Liebe!.wav

Peak level 82.9 %
Extraction speed 2.0 X
Track quality 100.0 %
Test CRC 3BB1FD22
Copy CRC 3BB1FD22
Track not present in AccurateRip database
Copy OK

Track 9

Filename P:\DL\Reynaldo Hahn - Works for piano solo CD1 (2012) [FLAC]\09 - Eros cache dans les bois.wav

Peak level 41.2 %
Extraction speed 1.9 X
Track quality 99.9 %
Test CRC A96C398F
Copy CRC A96C398F
Track not present in AccurateRip database
Copy OK

Track 10

Filename P:\DL\Reynaldo Hahn - Works for piano solo CD1 (2012) [FLAC]\10 - La Fausse Indifference.wav

Peak level 47.0 %
Extraction speed 2.6 X
Track quality 100.0 %
Test CRC FAC3B539
Copy CRC FAC3B539
Track not present in AccurateRip database
Copy OK

Track 11

Filename P:\DL\Reynaldo Hahn - Works for piano solo CD1 (2012) [FLAC]\11 - Chanson de Midi.wav

Peak level 56.2 %
Extraction speed 2.6 X
Track quality 100.0 %
Test CRC E608D070
Copy CRC E608D070
Track not present in AccurateRip database
Copy OK

Track 12

Filename P:\DL\Reynaldo Hahn - Works for piano solo CD1 (2012) [FLAC]\12 - Antiochus.wav

Peak level 99.8 %
Extraction speed 2.3 X
Track quality 99.9 %
Test CRC A844A699
Copy CRC A844A699
Track not present in AccurateRip database
Copy OK

Track 13

Filename P:\DL\Reynaldo Hahn - Works for piano solo CD1 (2012) [FLAC]\13 - Nevermore.wav

Peak level 23.1 %
Extraction speed 1.5 X
Track quality 99.8 %
Test CRC 1A3AB4C8
Copy CRC 1A3AB4C8
Track not present in AccurateRip database
Copy OK

Track 14

Filename P:\DL\Reynaldo Hahn - Works for piano solo CD1 (2012) [FLAC]\14 - Portrait.wav

Peak level 35.2 %
Extraction speed 2.0 X
Track quality 100.0 %
Test CRC BDE1DDC4
Copy CRC BDE1DDC4
Track not present in AccurateRip database
Copy OK

Track 15

Filename P:\DL\Reynaldo Hahn - Works for piano solo CD1 (2012) [FLAC]\15 - L'Enfant au Perroquet.wav

Peak level 31.7 %
Extraction speed 2.4 X
Track quality 100.0 %
Test CRC 73E21959
Copy CRC 73E21959
Track not present in AccurateRip database
Copy OK

Track 16

Filename P:\DL\Reynaldo Hahn - Works for piano solo CD1 (2012) [FLAC]\16 - Les Reveries du Prince Eglantine.wav

Peak level 38.6 %
Extraction speed 3.2 X
Track quality 100.0 %
Test CRC 5E188317
Copy CRC 5E188317
Track not present in AccurateRip database
Copy OK

Track 17

Filename P:\DL\Reynaldo Hahn - Works for piano solo CD1 (2012) [FLAC]\17 - Ivresse.wav

Peak level 32.7 %
Extraction speed 3.0 X
Track quality 100.0 %
Test CRC 23BEF0CE
Copy CRC 23BEF0CE
Track not present in AccurateRip database
Copy OK

Track 18

Filename P:\DL\Reynaldo Hahn - Works for piano solo CD1 (2012) [FLAC]\18 - L'Arome supreme.wav

Peak level 25.4 %
Extraction speed 1.6 X
Track quality 99.8 %
Test CRC 30307DF1
Copy CRC 30307DF1
Track not present in AccurateRip database
Copy OK

Track 19

Filename P:\DL\Reynaldo Hahn - Works for piano solo CD1 (2012) [FLAC]\19 - Berceuse feroce.wav

Peak level 61.5 %
Extraction speed 3.6 X
Track quality 100.0 %
Test CRC 9654AA21
Copy CRC 9654AA21
Track not present in AccurateRip database
Copy OK

Track 20

Filename P:\DL\Reynaldo Hahn - Works for piano solo CD1 (2012) [FLAC]\20 - Passante.wav

Peak level 23.3 %
Extraction speed 1.6 X
Track quality 99.8 %
Test CRC 03F889A2
Copy CRC 03F889A2
Track not present in AccurateRip database
Copy OK

Track 21

Filename P:\DL\Reynaldo Hahn - Works for piano solo CD1 (2012) [FLAC]\21 - La Danse de l'Amour et de l'Ennui.wav

Peak level 40.3 %
Extraction speed 3.6 X
Track quality 100.0 %
Test CRC EBA52D47
Copy CRC EBA52D47
Track not present in AccurateRip database
Copy OK

Track 22

Filename P:\DL\Reynaldo Hahn - Works for piano solo CD1 (2012) [FLAC]\22 - Ouranos.wav

Peak level 35.4 %
Extraction speed 2.6 X
Track quality 99.9 %
Test CRC B9FCC426
Copy CRC B9FCC426
Track not present in AccurateRip database
Copy OK

Track 23

Filename P:\DL\Reynaldo Hahn - Works for piano solo CD1 (2012) [FLAC]\23 - Les Heliotropes du Clos-Andre.wav

Peak level 38.3 %
Extraction speed 3.3 X
Track quality 100.0 %
Test CRC 62C96664
Copy CRC 62C96664
Track not present in AccurateRip database
Copy OK

Track 24

Filename P:\DL\Reynaldo Hahn - Works for piano solo CD1 (2012) [FLAC]\24 - Effet de nuit sur la Seine.wav

Peak level 42.6 %
Extraction speed 3.6 X
Track quality 100.0 %
Test CRC 58C9F7B4
Copy CRC 58C9F7B4
Track not present in AccurateRip database
Copy OK

Track 25

Filename P:\DL\Reynaldo Hahn - Works for piano solo CD1 (2012) [FLAC]\25 - Per i piccoli canali.wav

Peak level 52.2 %
Extraction speed 4.4 X
Track quality 100.0 %
Test CRC 3DBEC72B
Copy CRC 3DBEC72B
Track not present in AccurateRip database
Copy OK

Track 26

Filename P:\DL\Reynaldo Hahn - Works for piano solo CD1 (2012) [FLAC]\26 - Mirage.wav

Peak level 13.4 %
Extraction speed 3.9 X
Track quality 100.0 %
Test CRC 89BA331F
Copy CRC 89BA331F
Track not present in AccurateRip database
Copy OK

Track 27

Filename P:\DL\Reynaldo Hahn - Works for piano solo CD1 (2012) [FLAC]\27 - La Danse de l'Amour et du Danger.wav

Peak level 45.5 %
Extraction speed 4.1 X
Track quality 100.0 %
Test CRC 2489FAA2
Copy CRC 2489FAA2
Track not present in AccurateRip database
Copy OK

Track 28

Filename P:\DL\Reynaldo Hahn - Works for piano solo CD1 (2012) [FLAC]\28 - Matinee Parisienne.wav

Peak level 62.1 %
Extraction speed 4.3 X
Track quality 100.0 %
Test CRC 3828E9DA
Copy CRC 3828E9DA
Track not present in AccurateRip database
Copy OK

Track 29

Filename P:\DL\Reynaldo Hahn - Works for piano solo CD1 (2012) [FLAC]\29 - Cherubin Tragique.wav

Peak level 62.5 %
Extraction speed 2.6 X
Track quality 99.9 %
Test CRC 11D4C6A1
Copy CRC 11D4C6A1
Track not present in AccurateRip database
Copy OK

Track 30

Filename P:\DL\Reynaldo Hahn - Works for piano solo CD1 (2012) [FLAC]\30 - Les Chenes Enlaces.wav

Peak level 58.0 %
Extraction speed 4.5 X
Track quality 100.0 %
Test CRC 0BD66FAE
Copy CRC 0BD66FAE
Track not present in AccurateRip database
Copy OK


None of the tracks are present in the AccurateRip database

No errors occurred

End of status report

–– CUETools DB Plugin V2.1.4

[CTDB TOCID: q6NKlXIvFHF09kOA4Rss_0f0Ymk-] disk not present in database
Submit result:


==== Log checksum A736BA3A0F9BA1E88DECB2F1230587144BA7AAB239D8791C4AFE68E728A35180 ====
Exact Audio Copy V1.0 beta 4 from 7. December 2014

EAC extraction logfile from 9. March 2015, 16:23

Reynaldo Hahn / Works For Piano Solo CD2

Used drive : ATAPI iHBS112 2 Adapter: 1 ID: 0

Read mode : Secure
Utilize accurate stream : Yes
Defeat audio cache : Yes
Make use of C2 pointers : No

Read offset correction : 6
Overread into Lead-In and Lead-Out : No
Fill up missing offset samples with silence : Yes
Delete leading and trailing silent blocks : No
Null samples used in CRC calculations : Yes
Used interface : Native Win32 interface for Win NT & 2000
Gap handling : Appended to previous track

Used output format : User Defined Encoder
Selected bitrate : 1024 kBit/s
Quality : High
Add ID3 tag : No
Command line compressor : C:\Program Files\Exact Audio Copy\Flac\flac.exe
Additional command line options : -8 -V -T "ARTIST=%artist%" -T "TITLE=%title%" -T "ALBUM=%albumtitle%" -T "DATE=%year%" -T "TRACKNUMBER=%tracknr%" -T "TOTALTRACKS=%numtracks%" -T "GENRE=%genre%" -T "ALBUMARTIST=%albumartist%" -T "ALBUM ARTIST=%albumartist%" -T "COMPOSER=%composer%" -T "PERFORMER=%albuminterpret%" -T "DISCNUMBER=%cdnumber%" -T "TOTALDISCS=%totalcds%" -T "COMMENT=EAC Secure Mode, Test & Copy, AccurateRip, FLAC -8" %source%


TOC of the extracted CD

Track | Start | Length | Start sector | End sector
––––––––––––––––––––––––––––-
1 | 0:00.00 | 3:28.73 | 0 | 15672
2 | 3:28.73 | 3:31.00 | 15673 | 31497
3 | 6:59.73 | 3:39.00 | 31498 | 47922
4 | 10:38.73 | 2:43.00 | 47923 | 60147
5 | 13:21.73 | 2:17.00 | 60148 | 70422
6 | 15:38.73 | 1:53.00 | 70423 | 78897
7 | 17:31.73 | 3:11.00 | 78898 | 93222
8 | 20:42.73 | 2:06.00 | 93223 | 102672
9 | 22:48.73 | 4:05.00 | 102673 | 121047
10 | 26:53.73 | 1:33.00 | 121048 | 128022
11 | 28:26.73 | 2:35.00 | 128023 | 139647
12 | 31:01.73 | 1:13.00 | 139648 | 145122
13 | 32:14.73 | 2:54.00 | 145123 | 158172
14 | 35:08.73 | 2:08.00 | 158173 | 167772
15 | 37:16.73 | 3:47.00 | 167773 | 184797
16 | 41:03.73 | 1:13.00 | 184798 | 190272
17 | 42:16.73 | 1:24.00 | 190273 | 196572
18 | 43:40.73 | 3:28.00 | 196573 | 212172
19 | 47:08.73 | 2:37.00 | 212173 | 223947
20 | 49:45.73 | 3:03.00 | 223948 | 237672
21 | 52:48.73 | 2:47.00 | 237673 | 250197
22 | 55:35.73 | 4:09.00 | 250198 | 268872
23 | 59:44.73 | 4:47.25 | 268873 | 290422


Track 1

Filename P:\DL\Reynaldo Hahn - Works For Piano Solo CD2 (2012) [FLAC]\01 - En Caique.wav

Pre-gap length 0:00:02.00

Peak level 34.3 %
Extraction speed 2.0 X
Track quality 100.0 %
Test CRC EDC557D7
Copy CRC EDC557D7
Track not present in AccurateRip database
Copy OK

Track 2

Filename P:\DL\Reynaldo Hahn - Works For Piano Solo CD2 (2012) [FLAC]\02 - Narghile.wav

Peak level 29.7 %
Extraction speed 2.2 X
Track quality 100.0 %
Test CRC 13CC7BEA
Copy CRC 13CC7BEA
Track not present in AccurateRip database
Copy OK

Track 3

Filename P:\DL\Reynaldo Hahn - Works For Piano Solo CD2 (2012) [FLAC]\03 - Les Chiens De Galata.wav

Peak level 24.1 %
Extraction speed 2.4 X
Track quality 100.0 %
Test CRC E41CA1A8
Copy CRC E41CA1A8
Track not present in AccurateRip database
Copy OK

Track 4

Filename P:\DL\Reynaldo Hahn - Works For Piano Solo CD2 (2012) [FLAC]\04 - Reverie Nocturne Sur Le Bosphore.wav

Peak level 46.8 %
Extraction speed 1.6 X
Track quality 99.9 %
Test CRC 190835DA
Copy CRC 190835DA
Track not present in AccurateRip database
Copy OK

Track 5

Filename P:\DL\Reynaldo Hahn - Works For Piano Solo CD2 (2012) [FLAC]\05 - La Rose De Blida.wav

Peak level 21.5 %
Extraction speed 2.4 X
Track quality 100.0 %
Test CRC D2DE895B
Copy CRC D2DE895B
Track not present in AccurateRip database
Copy OK

Track 6

Filename P:\DL\Reynaldo Hahn - Works For Piano Solo CD2 (2012) [FLAC]\06 - L'Oasis (Biskra).wav

Peak level 21.0 %
Extraction speed 2.4 X
Track quality 100.0 %
Test CRC 3B4646E0
Copy CRC 3B4646E0
Track not present in AccurateRip database
Copy OK

Track 7

Filename P:\DL\Reynaldo Hahn - Works For Piano Solo CD2 (2012) [FLAC]\07 - L'Ange Verrier.wav

Peak level 48.5 %
Extraction speed 2.7 X
Track quality 100.0 %
Test CRC 0DC78A49
Copy CRC 0DC78A49
Track not present in AccurateRip database
Copy OK

Track 8

Filename P:\DL\Reynaldo Hahn - Works For Piano Solo CD2 (2012) [FLAC]\08 - Le Jardin De Petrarque.wav

Peak level 22.2 %
Extraction speed 2.6 X
Track quality 100.0 %
Test CRC 399F6C1E
Copy CRC 399F6C1E
Track not present in AccurateRip database
Copy OK

Track 9

Filename P:\DL\Reynaldo Hahn - Works For Piano Solo CD2 (2012) [FLAC]\09 - La Nativite.wav

Peak level 34.4 %
Extraction speed 2.3 X
Track quality 99.9 %
Test CRC 3619DB6C
Copy CRC 3619DB6C
Track not present in AccurateRip database
Copy OK

Track 10

Filename P:\DL\Reynaldo Hahn - Works For Piano Solo CD2 (2012) [FLAC]\10 - Faunesse Dansante.wav

Peak level 53.2 %
Extraction speed 2.6 X
Track quality 100.0 %
Test CRC 4E4DFCC9
Copy CRC 4E4DFCC9
Track not present in AccurateRip database
Copy OK

Track 11

Filename P:\DL\Reynaldo Hahn - Works For Piano Solo CD2 (2012) [FLAC]\11 - Les Noces Du Duc De Joyeuse.wav

Peak level 57.6 %
Extraction speed 2.0 X
Track quality 99.9 %
Test CRC 0426465E
Copy CRC 0426465E
Track not present in AccurateRip database
Copy OK

Track 12

Filename P:\DL\Reynaldo Hahn - Works For Piano Solo CD2 (2012) [FLAC]\12 - Le Petit Mail.wav

Peak level 31.4 %
Extraction speed 2.5 X
Track quality 100.0 %
Test CRC 562BCB7A
Copy CRC 562BCB7A
Track not present in AccurateRip database
Copy OK

Track 13

Filename P:\DL\Reynaldo Hahn - Works For Piano Solo CD2 (2012) [FLAC]\13 - Les Pages D'Elisabeth.wav

Peak level 89.7 %
Extraction speed 3.2 X
Track quality 100.0 %
Test CRC 74899AA7
Copy CRC 74899AA7
Track not present in AccurateRip database
Copy OK

Track 14

Filename P:\DL\Reynaldo Hahn - Works For Piano Solo CD2 (2012) [FLAC]\14 - La Jeunesse Et L'Ete Ornent De Fleurs Le Tombeau.wav

Peak level 28.8 %
Extraction speed 3.1 X
Track quality 100.0 %
Test CRC 89726B8E
Copy CRC 89726B8E
Track not present in AccurateRip database
Copy OK

Track 15

Filename P:\DL\Reynaldo Hahn - Works For Piano Solo CD2 (2012) [FLAC]\15 - Vieux Bahuts (Musee D'Orleans).wav

Peak level 35.6 %
Extraction speed 3.5 X
Track quality 100.0 %
Test CRC 9E176264
Copy CRC 9E176264
Track not present in AccurateRip database
Copy OK

Track 16

Filename P:\DL\Reynaldo Hahn - Works For Piano Solo CD2 (2012) [FLAC]\16 - Hommage A Martius.wav

Peak level 20.8 %
Extraction speed 2.7 X
Track quality 100.0 %
Test CRC A6B75FF0
Copy CRC A6B75FF0
Track not present in AccurateRip database
Copy OK

Track 17

Filename P:\DL\Reynaldo Hahn - Works For Piano Solo CD2 (2012) [FLAC]\17 - La Reine Au Jardin.wav

Peak level 37.1 %
Extraction speed 1.6 X
Track quality 99.8 %
Test CRC 0D5B37F9
Copy CRC 0D5B37F9
Track not present in AccurateRip database
Copy OK

Track 18

Filename P:\DL\Reynaldo Hahn - Works For Piano Solo CD2 (2012) [FLAC]\18 - Le Reveil De Flore.wav

Peak level 43.9 %
Extraction speed 3.6 X
Track quality 100.0 %
Test CRC DD9F8001
Copy CRC DD9F8001
Track not present in AccurateRip database
Copy OK

Track 19

Filename P:\DL\Reynaldo Hahn - Works For Piano Solo CD2 (2012) [FLAC]\19 - Le Banc Songeur.wav

Peak level 18.1 %
Extraction speed 2.4 X
Track quality 99.9 %
Test CRC C1AA4649
Copy CRC C1AA4649
Track not present in AccurateRip database
Copy OK

Track 20

Filename P:\DL\Reynaldo Hahn - Works For Piano Solo CD2 (2012) [FLAC]\20 - Le Fete De Terpsichore.wav

Peak level 48.0 %
Extraction speed 3.7 X
Track quality 100.0 %
Test CRC 0C653C56
Copy CRC 0C653C56
Track not present in AccurateRip database
Copy OK

Track 21

Filename P:\DL\Reynaldo Hahn - Works For Piano Solo CD2 (2012) [FLAC]\21 - Adieux Au Soir Tombant.wav

Peak level 32.9 %
Extraction speed 2.5 X
Track quality 99.9 %
Test CRC CBC87A4F
Copy CRC CBC87A4F
Track not present in AccurateRip database
Copy OK

Track 22

Filename P:\DL\Reynaldo Hahn - Works For Piano Solo CD2 (2012) [FLAC]\22 - Hivernale.wav

Peak level 25.2 %
Extraction speed 3.0 X
Track quality 99.9 %
Test CRC 82382FD3
Copy CRC 82382FD3
Track not present in AccurateRip database
Copy OK

Track 23

Filename P:\DL\Reynaldo Hahn - Works For Piano Solo CD2 (2012) [FLAC]\23 - Le Pelerinage Inutile.wav

Peak level 52.8 %
Extraction speed 4.2 X
Track quality 100.0 %
Test CRC AAFE9D29
Copy CRC AAFE9D29
Track not present in AccurateRip database
Copy OK


None of the tracks are present in the AccurateRip database

No errors occurred

End of status report

–– CUETools DB Plugin V2.1.4

[CTDB TOCID: XHt9Bfe4a3BXf1WeqcQaxonzzzk-] disk not present in database
Submit result:


==== Log checksum 6248566A4E0D7EF1F61D1DF1EC56FD6582FE15329B75D7479DDC6C59919D7625 ====
Exact Audio Copy V1.0 beta 4 from 7. December 2014

EAC extraction logfile from 11. March 2015, 18:29

Reynaldo Hahn / Works for piano solo CD3

Used drive : ATAPI iHBS112 2 Adapter: 1 ID: 0

Read mode : Secure
Utilize accurate stream : Yes
Defeat audio cache : Yes
Make use of C2 pointers : No

Read offset correction : 6
Overread into Lead-In and Lead-Out : No
Fill up missing offset samples with silence : Yes
Delete leading and trailing silent blocks : No
Null samples used in CRC calculations : Yes
Used interface : Native Win32 interface for Win NT & 2000
Gap handling : Appended to previous track

Used output format : User Defined Encoder
Selected bitrate : 1024 kBit/s
Quality : High
Add ID3 tag : No
Command line compressor : C:\Program Files\Exact Audio Copy\Flac\flac.exe
Additional command line options : -8 -V -T "ARTIST=%artist%" -T "TITLE=%title%" -T "ALBUM=%albumtitle%" -T "DATE=%year%" -T "TRACKNUMBER=%tracknr%" -T "TOTALTRACKS=%numtracks%" -T "GENRE=%genre%" -T "ALBUMARTIST=%albumartist%" -T "ALBUM ARTIST=%albumartist%" -T "COMPOSER=%composer%" -T "PERFORMER=%albuminterpret%" -T "DISCNUMBER=%cdnumber%" -T "TOTALDISCS=%totalcds%" -T "COMMENT=EAC Secure Mode, Test & Copy, AccurateRip, FLAC -8" %source%


TOC of the extracted CD

Track | Start | Length | Start sector | End sector
––––––––––––––––––––––––––––-
1 | 0:00.00 | 1:45.00 | 0 | 7874
2 | 1:45.00 | 0:55.00 | 7875 | 11999
3 | 2:40.00 | 2:02.00 | 12000 | 21149
4 | 4:42.00 | 1:33.00 | 21150 | 28124
5 | 6:15.00 | 1:59.00 | 28125 | 37049
6 | 8:14.00 | 0:40.00 | 37050 | 40049
7 | 8:54.00 | 1:36.00 | 40050 | 47249
8 | 10:30.00 | 1:29.00 | 47250 | 53924
9 | 11:59.00 | 1:35.00 | 53925 | 61049
10 | 13:34.00 | 0:56.00 | 61050 | 65249
11 | 14:30.00 | 0:46.00 | 65250 | 68699
12 | 15:16.00 | 0:36.00 | 68700 | 71399
13 | 15:52.00 | 3:11.00 | 71400 | 85724
14 | 19:03.00 | 2:57.00 | 85725 | 98999
15 | 22:00.00 | 3:29.00 | 99000 | 114674
16 | 25:29.00 | 2:06.00 | 114675 | 124124
17 | 27:35.00 | 2:37.00 | 124125 | 135899
18 | 30:12.00 | 2:49.00 | 135900 | 148574
19 | 33:01.00 | 2:01.00 | 148575 | 157649
20 | 35:02.00 | 1:04.00 | 157650 | 162449
21 | 36:06.00 | 2:59.14 | 162450 | 175888
22 | 39:05.14 | 1:54.01 | 175889 | 184439
23 | 40:59.15 | 1:59.00 | 184440 | 193364
24 | 42:58.15 | 1:22.00 | 193365 | 199514
25 | 44:20.15 | 0:59.00 | 199515 | 203939
26 | 45:19.15 | 0:35.00 | 203940 | 206564
27 | 45:54.15 | 1:31.00 | 206565 | 213389
28 | 47:25.15 | 1:03.00 | 213390 | 218114
29 | 48:28.15 | 2:00.00 | 218115 | 227114
30 | 50:28.15 | 1:25.00 | 227115 | 233489
31 | 51:53.15 | 2:29.00 | 233490 | 244664
32 | 54:22.15 | 1:58.00 | 244665 | 253514
33 | 56:20.15 | 5:06.25 | 253515 | 276489


Track 1

Filename P:\DL\Reynaldo Hahn - Works for piano solo CD3 (2012) [FLAC]\01 - Notturno Alla Italiana.wav

Pre-gap length 0:00:02.00

Peak level 53.3 %
Extraction speed 1.6 X
Track quality 100.0 %
Test CRC 9C58527C
Copy CRC 9C58527C
Track not present in AccurateRip database
Copy OK

Track 2

Filename P:\DL\Reynaldo Hahn - Works for piano solo CD3 (2012) [FLAC]\02 - Good-Bye.wav

Peak level 29.6 %
Extraction speed 1.3 X
Track quality 100.0 %
Test CRC 879B97C6
Copy CRC 879B97C6
Track not present in AccurateRip database
Copy OK

Track 3

Filename P:\DL\Reynaldo Hahn - Works for piano solo CD3 (2012) [FLAC]\03 - Tres Simple (Les Impressions N.7).wav

Peak level 39.5 %
Extraction speed 1.8 X
Track quality 100.0 %
Test CRC 3B532834
Copy CRC 3B532834
Track not present in AccurateRip database
Copy OK

Track 4

Filename P:\DL\Reynaldo Hahn - Works for piano solo CD3 (2012) [FLAC]\04 - Tristesse (Les Impressions).wav

Peak level 39.8 %
Extraction speed 1.8 X
Track quality 100.0 %
Test CRC 94BF55AD
Copy CRC 94BF55AD
Track not present in AccurateRip database
Copy OK

Track 5

Filename P:\DL\Reynaldo Hahn - Works for piano solo CD3 (2012) [FLAC]\05 - Regrets (Les Impressions N.2).wav

Peak level 36.4 %
Extraction speed 1.9 X
Track quality 100.0 %
Test CRC DFB86076
Copy CRC DFB86076
Track not present in AccurateRip database
Copy OK

Track 6

Filename P:\DL\Reynaldo Hahn - Works for piano solo CD3 (2012) [FLAC]\06 - Contour Melodique Improvise En Voiture Ouverte.wav

Peak level 37.2 %
Extraction speed 1.4 X
Track quality 100.0 %
Test CRC BF69E342
Copy CRC BF69E342
Track not present in AccurateRip database
Copy OK

Track 7

Filename P:\DL\Reynaldo Hahn - Works for piano solo CD3 (2012) [FLAC]\07 - A Un Mouchoir (!) (Pieces D'Amour N.2).wav

Peak level 40.6 %
Extraction speed 1.9 X
Track quality 100.0 %
Test CRC 17DEF2FB
Copy CRC 17DEF2FB
Track not present in AccurateRip database
Copy OK

Track 8

Filename P:\DL\Reynaldo Hahn - Works for piano solo CD3 (2012) [FLAC]\08 - Grands Yeux (Pieces D'Amour N.5).wav

Peak level 57.3 %
Extraction speed 1.9 X
Track quality 100.0 %
Test CRC B5A0ADE7
Copy CRC B5A0ADE7
Track not present in AccurateRip database
Copy OK

Track 9

Filename P:\DL\Reynaldo Hahn - Works for piano solo CD3 (2012) [FLAC]\09 - Mens Divinior (Souffle Plus Divin !) (Pieces D'amour).wav

Peak level 32.3 %
Extraction speed 2.0 X
Track quality 100.0 %
Test CRC 3B488FF5
Copy CRC 3B488FF5
Track not present in AccurateRip database
Copy OK

Track 10

Filename P:\DL\Reynaldo Hahn - Works for piano solo CD3 (2012) [FLAC]\10 - Avec Elegance, Et Tres Calme (Pieces D'Amour).wav

Peak level 26.2 %
Extraction speed 1.7 X
Track quality 100.0 %
Test CRC E465836E
Copy CRC E465836E
Track not present in AccurateRip database
Copy OK

Track 11

Filename P:\DL\Reynaldo Hahn - Works for piano solo CD3 (2012) [FLAC]\11 - Chanson Reveuse De L'Heliotrope.wav

Peak level 18.5 %
Extraction speed 1.7 X
Track quality 100.0 %
Test CRC D17A4480
Copy CRC D17A4480
Track not present in AccurateRip database
Copy OK

Track 12

Filename P:\DL\Reynaldo Hahn - Works for piano solo CD3 (2012) [FLAC]\12 - Valse De La Libellule.wav

Peak level 13.5 %
Extraction speed 1.4 X
Track quality 100.0 %
Test CRC C47D4689
Copy CRC C47D4689
Track not present in AccurateRip database
Copy OK

Track 13

Filename P:\DL\Reynaldo Hahn - Works for piano solo CD3 (2012) [FLAC]\13 - L'Inspiration - Valse Pour Piano (1883).wav

Peak level 64.0 %
Extraction speed 2.6 X
Track quality 100.0 %
Test CRC 310EBCE6
Copy CRC 310EBCE6
Track not present in AccurateRip database
Copy OK

Track 14

Filename P:\DL\Reynaldo Hahn - Works for piano solo CD3 (2012) [FLAC]\14 - Juvenilia - Portrait.wav

Peak level 31.3 %
Extraction speed 2.7 X
Track quality 100.0 %
Test CRC 653D5847
Copy CRC 653D5847
Track not present in AccurateRip database
Copy OK

Track 15

Filename P:\DL\Reynaldo Hahn - Works for piano solo CD3 (2012) [FLAC]\15 - Juvenilia - La Promenade.wav

Peak level 28.1 %
Extraction speed 2.8 X
Track quality 100.0 %
Test CRC AC8A4B7F
Copy CRC AC8A4B7F
Track not present in AccurateRip database
Copy OK

Track 16

Filename P:\DL\Reynaldo Hahn - Works for piano solo CD3 (2012) [FLAC]\16 - Juvenilia - Demi - Sommeil.wav

Peak level 9.2 %
Extraction speed 2.6 X
Track quality 100.0 %
Test CRC 0D3F7D53
Copy CRC 0D3F7D53
Track not present in AccurateRip database
Copy OK

Track 17

Filename P:\DL\Reynaldo Hahn - Works for piano solo CD3 (2012) [FLAC]\17 - Juvenilia - Feuillage.wav

Peak level 31.7 %
Extraction speed 1.9 X
Track quality 99.9 %
Test CRC 120D24B4
Copy CRC 120D24B4
Track not present in AccurateRip database
Copy OK

Track 18

Filename P:\DL\Reynaldo Hahn - Works for piano solo CD3 (2012) [FLAC]\18 - Juvenilia - Phoebe.wav

Peak level 28.5 %
Extraction speed 2.1 X
Track quality 99.9 %
Test CRC 1ABEF0E8
Copy CRC 1ABEF0E8
Track not present in AccurateRip database
Copy OK

Track 19

Filename P:\DL\Reynaldo Hahn - Works for piano solo CD3 (2012) [FLAC]\19 - Juvenilia - Les Regards Amoureux.wav

Peak level 29.5 %
Extraction speed 2.9 X
Track quality 100.0 %
Test CRC AF9A535E
Copy CRC AF9A535E
Track not present in AccurateRip database
Copy OK

Track 20

Filename P:\DL\Reynaldo Hahn - Works for piano solo CD3 (2012) [FLAC]\20 - Au Clair De Lune - Promenade.wav

Peak level 35.3 %
Extraction speed 2.3 X
Track quality 100.0 %
Test CRC 107760F9
Copy CRC 107760F9
Track not present in AccurateRip database
Copy OK

Track 21

Filename P:\DL\Reynaldo Hahn - Works for piano solo CD3 (2012) [FLAC]\21 - Au Clair De Lune - Babillage Et Soleil.wav

Peak level 51.9 %
Extraction speed 3.2 X
Track quality 100.0 %
Test CRC D5ADACE0
Copy CRC D5ADACE0
Track not present in AccurateRip database
Copy OK

Track 22

Filename P:\DL\Reynaldo Hahn - Works for piano solo CD3 (2012) [FLAC]\22 - Au Clair De Lune - Lune.wav

Pre-gap length 0:00:01.94

Peak level 30.4 %
Extraction speed 3.0 X
Track quality 100.0 %
Test CRC 29A3FD94
Copy CRC 29A3FD94
Track not present in AccurateRip database
Copy OK

Track 23

Filename P:\DL\Reynaldo Hahn - Works for piano solo CD3 (2012) [FLAC]\23 - Au Clair De Lune - Angelus.wav

Peak level 16.2 %
Extraction speed 3.1 X
Track quality 100.0 %
Test CRC 65F875CB
Copy CRC 65F875CB
Track not present in AccurateRip database
Copy OK

Track 24

Filename P:\DL\Reynaldo Hahn - Works for piano solo CD3 (2012) [FLAC]\24 - Au Clair De Lune - Tristesse Nocturne, L'Oiseau De Nuit.wav

Peak level 16.2 %
Extraction speed 1.5 X
Track quality 99.8 %
Test CRC 2CFC37BC
Copy CRC 2CFC37BC
Track not present in AccurateRip database
Copy OK

Track 25

Filename P:\DL\Reynaldo Hahn - Works for piano solo CD3 (2012) [FLAC]\25 - Au Clair De Lune - Petit Ruisseau Murmurant.wav

Peak level 18.6 %
Extraction speed 2.6 X
Track quality 100.0 %
Test CRC 0C5721BF
Copy CRC 0C5721BF
Track not present in AccurateRip database
Copy OK

Track 26

Filename P:\DL\Reynaldo Hahn - Works for piano solo CD3 (2012) [FLAC]\26 - Au Clair De Lune - Ver Luisant.wav

Peak level 16.9 %
Extraction speed 2.0 X
Track quality 100.0 %
Test CRC 966B055B
Copy CRC 966B055B
Track not present in AccurateRip database
Copy OK

Track 27

Filename P:\DL\Reynaldo Hahn - Works for piano solo CD3 (2012) [FLAC]\27 - Au Clair De Lune - Le Lys.wav

Peak level 22.9 %
Extraction speed 2.9 X
Track quality 100.0 %
Test CRC E960BA8E
Copy CRC E960BA8E
Track not present in AccurateRip database
Copy OK

Track 28

Filename P:\DL\Reynaldo Hahn - Works for piano solo CD3 (2012) [FLAC]\28 - Au Clair De Lune - Les Orties.wav

Peak level 39.4 %
Extraction speed 2.7 X
Track quality 100.0 %
Test CRC 9B2ABE93
Copy CRC 9B2ABE93
Track not present in AccurateRip database
Copy OK

Track 29

Filename P:\DL\Reynaldo Hahn - Works for piano solo CD3 (2012) [FLAC]\29 - Au Clair De Lune - Le Vent.wav

Peak level 53.1 %
Extraction speed 3.3 X
Track quality 100.0 %
Test CRC 0263ABFE
Copy CRC 0263ABFE
Track not present in AccurateRip database
Copy OK

Track 30

Filename P:\DL\Reynaldo Hahn - Works for piano solo CD3 (2012) [FLAC]\30 - Au Clair De Lune - Retour.wav

Peak level 24.4 %
Extraction speed 1.7 X
Track quality 99.8 %
Test CRC 8EEBB1CE
Copy CRC 8EEBB1CE
Track not present in AccurateRip database
Copy OK

Track 31

Filename P:\DL\Reynaldo Hahn - Works for piano solo CD3 (2012) [FLAC]\31 - D'Une Prison (1892).wav

Peak level 46.7 %
Extraction speed 3.5 X
Track quality 100.0 %
Test CRC DE62028C
Copy CRC DE62028C
Track not present in AccurateRip database
Copy OK

Track 32

Filename P:\DL\Reynaldo Hahn - Works for piano solo CD3 (2012) [FLAC]\32 - Avant L'Hommage Des Poetes (1914).wav

Peak level 46.5 %
Extraction speed 3.4 X
Track quality 100.0 %
Test CRC CC07B994
Copy CRC CC07B994
Track not present in AccurateRip database
Copy OK

Track 33

Filename P:\DL\Reynaldo Hahn - Works for piano solo CD3 (2012) [FLAC]\33 - Pavane D'angelo (1905).wav

Peak level 78.6 %
Extraction speed 4.0 X
Track quality 100.0 %
Test CRC D825E2FA
Copy CRC D825E2FA
Track not present in AccurateRip database
Copy OK


None of the tracks are present in the AccurateRip database

No errors occurred

End of status report

–– CUETools DB Plugin V2.1.4

[CTDB TOCID: YFmu.88PnoDdYdl97jFT58GR4y4-] disk not present in database
Submit result:


==== Log checksum 9C198CA4DAA737AE4612E8F82A55145D4D2B73AAC4F1D755952AAC03D499F0F2 ====
Exact Audio Copy V1.0 beta 4 from 7. December 2014

EAC extraction logfile from 10. March 2015, 18:59

Reynaldo Hahn / Works for piano solo CD4

Used drive : ATAPI iHBS112 2 Adapter: 1 ID: 0

Read mode : Secure
Utilize accurate stream : Yes
Defeat audio cache : Yes
Make use of C2 pointers : No

Read offset correction : 6
Overread into Lead-In and Lead-Out : No
Fill up missing offset samples with silence : Yes
Delete leading and trailing silent blocks : No
Null samples used in CRC calculations : Yes
Used interface : Native Win32 interface for Win NT & 2000
Gap handling : Appended to previous track

Used output format : User Defined Encoder
Selected bitrate : 1024 kBit/s
Quality : High
Add ID3 tag : No
Command line compressor : C:\Program Files\Exact Audio Copy\Flac\flac.exe
Additional command line options : -8 -V -T "ARTIST=%artist%" -T "TITLE=%title%" -T "ALBUM=%albumtitle%" -T "DATE=%year%" -T "TRACKNUMBER=%tracknr%" -T "TOTALTRACKS=%numtracks%" -T "GENRE=%genre%" -T "ALBUMARTIST=%albumartist%" -T "ALBUM ARTIST=%albumartist%" -T "COMPOSER=%composer%" -T "PERFORMER=%albuminterpret%" -T "DISCNUMBER=%cdnumber%" -T "TOTALDISCS=%totalcds%" -T "COMMENT=EAC Secure Mode, Test & Copy, AccurateRip, FLAC -8" %source%


TOC of the extracted CD

Track | Start | Length | Start sector | End sector
––––––––––––––––––––––––––––-
1 | 0:00.00 | 3:14.44 | 0 | 14593
2 | 3:14.44 | 1:39.00 | 14594 | 22018
3 | 4:53.44 | 2:27.00 | 22019 | 33043
4 | 7:20.44 | 3:21.00 | 33044 | 48118
5 | 10:41.44 | 0:56.00 | 48119 | 52318
6 | 11:37.44 | 1:33.00 | 52319 | 59293
7 | 13:10.44 | 1:41.00 | 59294 | 66868
8 | 14:51.44 | 1:07.00 | 66869 | 71893
9 | 15:58.44 | 1:19.00 | 71894 | 77818
10 | 17:17.44 | 1:48.00 | 77819 | 85918
11 | 19:05.44 | 2:08.00 | 85919 | 95518
12 | 21:13.44 | 1:58.00 | 95519 | 104368
13 | 23:11.44 | 2:24.00 | 104369 | 115168
14 | 25:35.44 | 1:59.00 | 115169 | 124093
15 | 27:34.44 | 3:04.00 | 124094 | 137893
16 | 30:38.44 | 4:29.00 | 137894 | 158068
17 | 35:07.44 | 7:24.00 | 158069 | 191368
18 | 42:31.44 | 3:22.00 | 191369 | 206518
19 | 45:53.44 | 2:59.00 | 206519 | 219943
20 | 48:52.44 | 1:34.00 | 219944 | 226993
21 | 50:26.44 | 5:22.25 | 226994 | 251168


Track 1

Filename P:\DL\Reynaldo Hahn - Works for piano solo CD4 (2012) [FLAC]\01 - Portraits de peintres - Albert Cuyp.wav

Pre-gap length 0:00:02.00

Peak level 56.3 %
Extraction speed 4.8 X
Track quality 100.0 %
Test CRC 510E89AD
Copy CRC 510E89AD
Track not present in AccurateRip database
Copy OK

Track 2

Filename P:\DL\Reynaldo Hahn - Works for piano solo CD4 (2012) [FLAC]\02 - Portraits de peintres - Paulus Potter.wav

Peak level 37.5 %
Extraction speed 4.5 X
Track quality 100.0 %
Test CRC 576FB4A1
Copy CRC 576FB4A1
Track not present in AccurateRip database
Copy OK

Track 3

Filename P:\DL\Reynaldo Hahn - Works for piano solo CD4 (2012) [FLAC]\03 - Portraits de peintres - Anton Van Dyck.wav

Peak level 50.8 %
Extraction speed 5.1 X
Track quality 100.0 %
Test CRC F22F1F21
Copy CRC F22F1F21
Track not present in AccurateRip database
Copy OK

Track 4

Filename P:\DL\Reynaldo Hahn - Works for piano solo CD4 (2012) [FLAC]\04 - Portraits de peintres - Antoine Watteau.wav

Peak level 50.4 %
Extraction speed 5.7 X
Track quality 100.0 %
Test CRC 513EAC9B
Copy CRC 513EAC9B
Track not present in AccurateRip database
Copy OK

Track 5

Filename P:\DL\Reynaldo Hahn - Works for piano solo CD4 (2012) [FLAC]\05 - Premieres valses - Invitation a la Valse.wav

Peak level 41.1 %
Extraction speed 4.3 X
Track quality 100.0 %
Test CRC 353FA3BF
Copy CRC 353FA3BF
Track not present in AccurateRip database
Copy OK

Track 6

Filename P:\DL\Reynaldo Hahn - Works for piano solo CD4 (2012) [FLAC]\06 - Premieres valses - I.wav

Peak level 45.6 %
Extraction speed 5.2 X
Track quality 100.0 %
Test CRC 8DF66EE6
Copy CRC 8DF66EE6
Track not present in AccurateRip database
Copy OK

Track 7

Filename P:\DL\Reynaldo Hahn - Works for piano solo CD4 (2012) [FLAC]\07 - Premieres valses - II.wav

Peak level 54.9 %
Extraction speed 5.4 X
Track quality 100.0 %
Test CRC 81581745
Copy CRC 81581745
Track not present in AccurateRip database
Copy OK

Track 8

Filename P:\DL\Reynaldo Hahn - Works for piano solo CD4 (2012) [FLAC]\08 - Premieres valses - III Ninette.wav

Peak level 40.6 %
Extraction speed 4.9 X
Track quality 100.0 %
Test CRC BEF60A72
Copy CRC BEF60A72
Track not present in AccurateRip database
Copy OK

Track 9

Filename P:\DL\Reynaldo Hahn - Works for piano solo CD4 (2012) [FLAC]\09 - Premieres valses - IV Valse Noble.wav

Peak level 63.4 %
Extraction speed 3.6 X
Track quality 99.8 %
Test CRC 68BB17C2
Copy CRC 68BB17C2
Track not present in AccurateRip database
Copy OK

Track 10

Filename P:\DL\Reynaldo Hahn - Works for piano solo CD4 (2012) [FLAC]\10 - Premieres valses - V.wav

Peak level 41.8 %
Extraction speed 5.8 X
Track quality 100.0 %
Test CRC F7460BA6
Copy CRC F7460BA6
Track not present in AccurateRip database
Copy OK

Track 11

Filename P:\DL\Reynaldo Hahn - Works for piano solo CD4 (2012) [FLAC]\11 - Premieres valses - VI.wav

Peak level 51.6 %
Extraction speed 6.2 X
Track quality 100.0 %
Test CRC ECB4C3F8
Copy CRC ECB4C3F8
Track not present in AccurateRip database
Copy OK

Track 12

Filename P:\DL\Reynaldo Hahn - Works for piano solo CD4 (2012) [FLAC]\12 - Premieres valses - VII Berceau.wav

Peak level 39.1 %
Extraction speed 6.3 X
Track quality 100.0 %
Test CRC B1F423B8
Copy CRC B1F423B8
Track not present in AccurateRip database
Copy OK

Track 13

Filename P:\DL\Reynaldo Hahn - Works for piano solo CD4 (2012) [FLAC]\13 - Premieres valses - VIII.wav

Peak level 70.2 %
Extraction speed 6.5 X
Track quality 100.0 %
Test CRC 4904C473
Copy CRC 4904C473
Track not present in AccurateRip database
Copy OK

Track 14

Filename P:\DL\Reynaldo Hahn - Works for piano solo CD4 (2012) [FLAC]\14 - Premieres valses - IX La Feuille.wav

Peak level 42.0 %
Extraction speed 6.7 X
Track quality 100.0 %
Test CRC 22A1049A
Copy CRC 22A1049A
Track not present in AccurateRip database
Copy OK

Track 15

Filename P:\DL\Reynaldo Hahn - Works for piano solo CD4 (2012) [FLAC]\15 - Premieres valses - X.wav

Peak level 76.2 %
Extraction speed 7.4 X
Track quality 100.0 %
Test CRC A4698A88
Copy CRC A4698A88
Track not present in AccurateRip database
Copy OK

Track 16

Filename P:\DL\Reynaldo Hahn - Works for piano solo CD4 (2012) [FLAC]\16 - Sonatine en Ut majeur - I. Allegro non troppo.wav

Peak level 69.9 %
Extraction speed 8.0 X
Track quality 100.0 %
Test CRC B2FAE5C7
Copy CRC B2FAE5C7
Track not present in AccurateRip database
Copy OK

Track 17

Filename P:\DL\Reynaldo Hahn - Works for piano solo CD4 (2012) [FLAC]\17 - Sonatine en Ut majeur - II. Andantino rubato.wav

Peak level 47.3 %
Extraction speed 9.0 X
Track quality 100.0 %
Test CRC F50C768D
Copy CRC F50C768D
Track not present in AccurateRip database
Copy OK

Track 18

Filename P:\DL\Reynaldo Hahn - Works for piano solo CD4 (2012) [FLAC]\18 - Sonatine en Ut majeur - III. Final (en forme de Tambourin).wav

Peak level 77.0 %
Extraction speed 8.6 X
Track quality 100.0 %
Test CRC 1FA2614E
Copy CRC 1FA2614E
Track not present in AccurateRip database
Copy OK

Track 19

Filename P:\DL\Reynaldo Hahn - Works for piano solo CD4 (2012) [FLAC]\19 - Theme varie sur le nom de Haydn (1910).wav

Peak level 55.7 %
Extraction speed 8.5 X
Track quality 100.0 %
Test CRC 4DA487EA
Copy CRC 4DA487EA
Track not present in AccurateRip database
Copy OK

Track 20

Filename P:\DL\Reynaldo Hahn - Works for piano solo CD4 (2012) [FLAC]\20 - Bacchante endormie (1905).wav

Peak level 39.2 %
Extraction speed 7.6 X
Track quality 100.0 %
Test CRC 2017F552
Copy CRC 2017F552
Track not present in AccurateRip database
Copy OK

Track 21

Filename P:\DL\Reynaldo Hahn - Works for piano solo CD4 (2012) [FLAC]\21 - La creation du monde (1912).wav

Peak level 38.9 %
Extraction speed 9.5 X
Track quality 100.0 %
Test CRC 11236A72
Copy CRC 11236A72
Track not present in AccurateRip database
Copy OK


None of the tracks are present in the AccurateRip database

No errors occurred

End of status report

–– CUETools DB Plugin V2.1.4

[CTDB TOCID: mxz88SwD3v3kJL4BsIWQ2FIrYeA-] disk not present in database
Submit result:


==== Log checksum DC31BDF8B813B18466FBA23182B186E47540DD94EFB19FDBC5FFDD2ACA73F6C2 ====

I 23:20:43 DVD Decrypter Version 3.5.4.0 started!
I 23:20:43 Microsoft Windows XP Professional (5.1, Build 2600 : Service Pack 3)
I 23:20:43 Initialising SPTI…
I 23:20:43 Searching for SCSI / ATAPI devices…
I 23:20:43 Found 3 DVD-ROMs and 2 DVD-RAM/±RWs!
W 23:23:34 Possible Structure Protection Found!
W 23:23:34 1 area has been marked as 'suspect'.
W 23:23:34 Dummy sectors will be inserted where necessary.
I 23:23:40 Operation Started!
I 23:23:40 Source Device: [2:0:0] ATAPI iHBS112 2 PL06 (D:) (ATA)
I 23:23:40 Source Media Type: DVD-ROM
I 23:23:40 Source Media Region Code: 1; 2; 3; 4; 5; 6; 8
I 23:23:40 Source Media Copyright Protection System Type: None
I 23:23:40 Source Media Implementation Identifier: Apple Computer, Inc.
I 23:23:40 Destination File: P:\RH.ISO
I 23:23:40 File Splitting: None
I 23:23:40 Hardware Read Error Retries: 20
I 23:23:40 Remove Structure Protection: No
I 23:23:40 Bad Sector Removal Method: Normal
I 23:23:40 Detect Mastering Errors: No
I 23:23:40 Remove Macrovision Protection: Yes
I 23:23:40 Extracting Sectors… (LBA: 0 - 1597039)
I 23:23:40 Found IFO File: VIDEO_TS.IFO - (LBA: 295 - 301)
I 23:23:40 Found VOB File: VIDEO_TS.VOB - (LBA: 302 - 358) - KEY: N/A
I 23:23:40 Found BUP File: VIDEO_TS.BUP - (LBA: 359 - 365)
I 23:23:40 Found IFO File: VTS_01_0.IFO - (LBA: 366 - 392)
I 23:23:40 Found VOB File: VTS_01_0.VOB - (LBA: 393 - 44942) - KEY: N/A
I 23:24:05 Found VOB File: VTS_01_1.VOB - (LBA: 44943 - 569144) - KEY: N/A
I 23:28:03 Found VOB File: VTS_01_2.VOB - (LBA: 569145 - 1093346) - KEY: N/A
I 23:31:04 Found VOB File: VTS_01_3.VOB - (LBA: 1093347 - 1597006) - KEY: N/A
I 23:33:32 Found BUP File: VTS_01_0.BUP - (LBA: 1597007 - 1597033)
I 23:33:32 Operation Successfully Completed! - Duration: 00:09:52
I 23:33:32 Average Read Rate: 5 395 KB/s (3.9x) - Maximum Read Rate: 7 468 KB/s (5.4x)


Reynaldo Hahn - Works for piano solo (2012) {4CD+DVD Box Set, Concerto Box 2015}

Reynaldo Hahn - Works for piano solo (2012) {4CD+DVD Box Set, Concerto Box 2015}

Reynaldo Hahn - Works for piano solo (2012) {4CD+DVD Box Set, Concerto Box 2015}

Reynaldo Hahn - Works for piano solo (2012) {4CD+DVD Box Set, Concerto Box 2015}

Reynaldo Hahn - Works for piano solo (2012) {4CD+DVD Box Set, Concerto Box 2015}



===