Tags
Language
Tags

Robert Michaels - Fabric of Time (2017)

Posted By: aasana
Robert Michaels - Fabric of Time (2017)

Robert Michaels - Fabric of Time (2017)
EAC Rip | FLAC (tracks, cue, log) | 1:01:07 | 415 MB
Electronic, Alternative | Label: Robert Michaels

Juno Award-nominated artist Robert Michaels is a platinum-selling guitarist who made a name for himself with two impressive independent releases even before the Warner Music Canada label put their backing behind a third album in 1998. His instrumental music crosses over into samples and tastes from many genres, including flamenco guitar numbers. Michaels started his musical career in Canada, though his parents aren't Canadian natives, but immigrated there from Italy. As a child, and than as a teen, Michaels was raised on a varied musical diet that found him being influenced by many different kinds of musicians and styles along the way, like Jimmy Page, Carlos Santana, and Wes Montgomery, and everything from rock, to tango, to jazz.

In 1996, without befit of a label, Michaels completed and released a debut album titled Paradiso. Surprisingly, his first full-length outing sold better than he could have hoped. It was soon followed by a second recording, Arizona. The sophomore not only sold better than the first album, but even earned him a nomination for a coveted Juno Award for Best Instrumental Artist of the Year. Reviews and press from his popular albums and from his Juno nomination, drew enough interest toward Michaels that when he went to work on a third album, Utopia, he did so working under the major Warner Music Canada label. For the new millennium he completed an album filled with Christmas music. The holiday offering is titled Merry Christmas From Robert Michaels.

Some of the tunes fans will find on releases from Robert Michaels include "Seduction," "Forbidden Fruit," "Cupid's Dance," "Sunset Samba," and "Melania."

Tracklist:

01. Robert Michaels - Fabric of Time
02. Robert Michaels - Santa Ray
03. Robert Michaels - Blind Smile
04. Robert Michaels - Nylon
05. Robert Michaels - Here on After
06. Robert Michaels - Chill Out
07. Robert Michaels - Spotlight
08. Robert Michaels - Better Place
09. Robert Michaels - We Dance the Dawn
10. Robert Michaels - Simple Lie
11. Robert Michaels - Fell Asleep in the Rain
12. Robert Michaels - The Air We Breathe
13. Robert Michaels - Feels Like You're Gone
14. Robert Michaels - Blue Spain

Exact Audio Copy V1.1 from 23. June 2015

EAC extraction logfile from 23. June 2017, 14:19

Robert Michaels / Fabric of Time

Used drive : HL-DT-STDVD-RAM GH70N Adapter: 1 ID: 0

Read mode : Secure
Utilize accurate stream : Yes
Defeat audio cache : Yes
Make use of C2 pointers : No

Read offset correction : 667
Overread into Lead-In and Lead-Out : No
Fill up missing offset samples with silence : Yes
Delete leading and trailing silent blocks : No
Null samples used in CRC calculations : Yes
Used interface : Native Win32 interface for Win NT & 2000
Gap handling : Appended to previous track

Used output format : User Defined Encoder
Selected bitrate : 128 kBit/s
Quality : High
Add ID3 tag : No
Command line compressor : C:\Program Files (x86)\Exact Audio Copy\Flac\flac.exe
Additional command line options : -8 -e -V -T "ARTIST=%artist%" -T "TITLE=%title%" -T "ALBUM=%albumtitle%" -T "DATE=%year%" -T "TRACKNUMBER=%tracknr%" -T "GENRE=%genre%" -T "PERFORMER=%albuminterpret%" -T "COMPOSER=%composer%" %haslyrics%–tag-from-file=LYRICS="%lyricsfile%"%haslyrics% -T "ALBUMARTIST=%albumartist%" -T "DISCNUMBER=%cdnumber%" -T "TOTALDISCS=%totalcds%" -T "TOTALTRACKS=%numtracks%" -T "COMMENT=%comment%" %source% -o %dest%


TOC of the extracted CD

Track | Start | Length | Start sector | End sector
––––––––––––––––––––––––––––-
1 | 0:00.00 | 3:55.61 | 0 | 17685
2 | 3:55.61 | 4:50.12 | 17686 | 39447
3 | 8:45.73 | 4:06.51 | 39448 | 57948
4 | 12:52.49 | 5:11.39 | 57949 | 81312
5 | 18:04.13 | 4:23.20 | 81313 | 101057
6 | 22:27.33 | 3:08.37 | 101058 | 115194
7 | 25:35.70 | 3:52.08 | 115195 | 132602
8 | 29:28.03 | 4:24.41 | 132603 | 152443
9 | 33:52.44 | 4:00.10 | 152444 | 170453
10 | 37:52.54 | 4:13.64 | 170454 | 189492
11 | 42:06.43 | 4:59.47 | 189493 | 211964
12 | 47:06.15 | 4:41.21 | 211965 | 233060
13 | 51:47.36 | 4:49.43 | 233061 | 254778
14 | 56:37.04 | 4:30.01 | 254779 | 275029


Track 1

Filename O:\My Music\Robert Michaels\01 Fabric of Time.wav

Pre-gap length 0:00:02.00

Peak level 98.3 %
Extraction speed 3.6 X
Track quality 100.0 %
Test CRC 12031390
Copy CRC 12031390
Track not present in AccurateRip database
Copy OK

Track 2

Filename O:\My Music\Robert Michaels\02 Santa Ray.wav

Peak level 100.0 %
Extraction speed 3.3 X
Track quality 99.9 %
Test CRC B4E50614
Copy CRC B4E50614
Track not present in AccurateRip database
Copy OK

Track 3

Filename O:\My Music\Robert Michaels\03 Blind Smile.wav

Peak level 100.0 %
Extraction speed 3.4 X
Track quality 99.9 %
Test CRC A0CEFA07
Copy CRC A0CEFA07
Track not present in AccurateRip database
Copy OK

Track 4

Filename O:\My Music\Robert Michaels\04 Nylon.wav

Peak level 100.0 %
Extraction speed 4.8 X
Track quality 100.0 %
Test CRC 173F903A
Copy CRC 173F903A
Track not present in AccurateRip database
Copy OK

Track 5

Filename O:\My Music\Robert Michaels\05 Here on After.wav

Peak level 98.4 %
Extraction speed 4.0 X
Track quality 99.9 %
Test CRC E72E9D04
Copy CRC E72E9D04
Track not present in AccurateRip database
Copy OK

Track 6

Filename O:\My Music\Robert Michaels\06 Chill Out.wav

Peak level 98.8 %
Extraction speed 4.6 X
Track quality 100.0 %
Test CRC 0868817B
Copy CRC 0868817B
Track not present in AccurateRip database
Copy OK

Track 7

Filename O:\My Music\Robert Michaels\07 Spotlight.wav

Peak level 99.8 %
Extraction speed 5.1 X
Track quality 100.0 %
Test CRC 73E43D6C
Copy CRC 73E43D6C
Track not present in AccurateRip database
Copy OK

Track 8

Filename O:\My Music\Robert Michaels\08 Better Place.wav

Peak level 97.7 %
Extraction speed 5.4 X
Track quality 100.0 %
Test CRC 307494DC
Copy CRC 307494DC
Track not present in AccurateRip database
Copy OK

Track 9

Filename O:\My Music\Robert Michaels\09 We Dance the Dawn.wav

Peak level 98.7 %
Extraction speed 5.4 X
Track quality 100.0 %
Test CRC 82864C4F
Copy CRC 82864C4F
Track not present in AccurateRip database
Copy OK

Track 10

Filename O:\My Music\Robert Michaels\10 Simple Lie.wav

Peak level 99.1 %
Extraction speed 5.8 X
Track quality 100.0 %
Test CRC 6BFE3B8E
Copy CRC 6BFE3B8E
Track not present in AccurateRip database
Copy OK

Track 11

Filename O:\My Music\Robert Michaels\11 Fell Asleep in the Rain.wav

Peak level 100.0 %
Extraction speed 6.1 X
Track quality 100.0 %
Test CRC 271DA6C7
Copy CRC 271DA6C7
Track not present in AccurateRip database
Copy OK

Track 12

Filename O:\My Music\Robert Michaels\12 The Air We Breathe.wav

Peak level 97.7 %
Extraction speed 6.3 X
Track quality 100.0 %
Test CRC 3F51B713
Copy CRC 3F51B713
Track not present in AccurateRip database
Copy OK

Track 13

Filename O:\My Music\Robert Michaels\13 Feels Like You're Gone.wav

Peak level 98.9 %
Extraction speed 6.6 X
Track quality 100.0 %
Test CRC 19B767F1
Copy CRC 19B767F1
Track not present in AccurateRip database
Copy OK

Track 14

Filename O:\My Music\Robert Michaels\14 Blue Spain.wav

Peak level 97.1 %
Extraction speed 6.8 X
Track quality 100.0 %
Test CRC ABA7CAA7
Copy CRC ABA7CAA7
Track not present in AccurateRip database
Copy OK


None of the tracks are present in the AccurateRip database

No errors occurred

End of status report

–– CUETools DB Plugin V2.1.6

[CTDB TOCID: C0r5sEqs6Jl2SK8954wySzmK5yk-] disk not present in database
Submit result: C0r5sEqs6Jl2SK8954wySzmK5yk- has been uploaded


==== Log checksum 3FD2DBD8DE06458CEF3ADFD2D177BD1753541DD396B404CAABB91995DA51C316 ====