Subcategories

Roberto Carcassés - Invitation (2000)

Posted By: Manavgat
Roberto Carcassés - Invitation (2000)

Roberto Carcassés - Invitation (2000)
EAC RIP | Flac+CUE+LOG ~ 313 MB | 09 Tracks | MP3 CBR 320 Kbps ~ 125 MB | ArtWork
Genre: World, Jazz, Latin & Instrumental | Label: VELAS Records | Release date: May 16, 2000

Although Velas' main focus has been Brazilian music, the label has also put out some noteworthy Afro-Cuban and Latin jazz releases. One of Velas' Latin jazz CDs is Roberto Carcassés' Invitation, which was recorded in Havana, Cuba in November 1999 and came out in the U.S. in 2000. This decent, if conventional, CD shows Carcassés to be a swinging hard bop pianist who uses Afro-Cuban rhythms extensively. Though the improviser provides a Cuban-minded, unusually uptempo interpretation of the Thelonious Monk standard "Monk's Mood," most of the material was written by Carcassés himself. Afro-Cuban jazz dominates the session, although Carcassés detours into vocal-oriented salsa on "De la Habana a Nueva York" (an ode to Latin jazz/salsa legend Mario Bauzá). The disc's most interesting track is "Velas Icadas," an Ivan Lins gem that features vocalist Liliam. This Brazilian song was written in Portuguese, but Rodolfo de Athayde (Invitation's musical director and arranger) gives the listener a very pleasant surprise by translating the lyrics into Spanish. Most of the album, however, is more conventional than that–conventional, but pleasing. While Invitation isn't a gem, it lets us know that Carcassés is someone to keep an eye on. ~ Alex Henderson

Cuban Jazz;Pianist/Composer

Personnel: Roberto Carcasses (piano); Francis Del Rio, Liliam, Pancho Terry (vocals); Cesar Lopez (alto saxphone); Alfredo Thompson (tenor saxophone); Mario "El Indio" Hernandez, Yazek Manzano (trumpet); Elmer Ferrer (guitar); Jorge "Zagua" Perez (bass); Oliver Valdes, Hilario Bell (drums); Alejandro "El Picaro" Aparicio (congas).

Recording information: EGREM Studios, Havana, Cuba (11/1999).

JazzTimes (6/01, p.116) - "…Young Roberto shines with creative sparkle on this INVITATION…"

* * * * * * * * * * * * * * * * * * *

Tracklist:
01- Llegó, Llegó
02- De la Habana a Nueva York
03- Puerto Padre
04- Velas Içadas
05- California en Clave
06- Monk's Mood
07- Descargasses
08- … Y Llegó el Invierno
09- Tonada Para Robin


Exact Audio Copy V0.99 prebeta 4 from 23. January 2008

EAC extraction logfile from 31. August 2010, 17:10

Roberto Carcassés / Invitation

Used drive : TSSTcorpCDDVDW TS-H653N Adapter: 2 ID: 2

Read mode : Secure
Utilize accurate stream : Yes
Defeat audio cache : Yes
Make use of C2 pointers : No

Read offset correction : 6
Overread into Lead-In and Lead-Out : No
Fill up missing offset samples with silence : Yes
Delete leading and trailing silent blocks : No
Null samples used in CRC calculations : Yes
Used interface : Native Win32 interface for Win NT & 2000
Gap handling : Appended to previous track

Used output format : User Defined Encoder
Selected bitrate : 1024 kBit/s
Quality : High
Add ID3 tag : No
Command line compressor : C:\Program Files\FLAC -\flac.exe
Additional command line options : -5 -V -T "artist=%a" -T "title=%t" -T "album=%g" -T "date=%y" -T "tracknumber=%n" -T "genre=%m" -T comment="shared by pastafari cubensis" %s


TOC of the extracted CD

Track | Start | Length | Start sector | End sector
––––––––––––––––––––––––––––-
1 | 0:00.00 | 6:03.17 | 0 | 27241
2 | 6:03.17 | 6:25.50 | 27242 | 56166
3 | 12:28.67 | 8:12.18 | 56167 | 93084
4 | 20:41.10 | 5:02.70 | 93085 | 115804
5 | 25:44.05 | 7:43.40 | 115805 | 150569
6 | 33:27.45 | 6:50.67 | 150570 | 181386
7 | 40:18.37 | 4:42.70 | 181387 | 202606
8 | 45:01.32 | 4:25.55 | 202607 | 222536
9 | 49:27.12 | 2:47.00 | 222537 | 235061


Track 1

Filename C:\pastafari\Roberto Carcassés - 2000 - Invitation [FLAC]\01- Llegó, Llegó.wav

Pre-gap length 0:00:02.00

Peak level 99.9 %
Track quality 100.0 %
Test CRC D29A6BD9
Copy CRC D29A6BD9
Copy OK

Track 2

Filename C:\pastafari\Roberto Carcassés - 2000 - Invitation [FLAC]\02- De la Habana a Nueva York.wav

Pre-gap length 0:00:01.56

Peak level 99.9 %
Track quality 100.0 %
Test CRC EAFCEBD6
Copy CRC EAFCEBD6
Copy OK

Track 3

Filename C:\pastafari\Roberto Carcassés - 2000 - Invitation [FLAC]\03- Puerto Padre.wav

Pre-gap length 0:00:01.56

Peak level 99.9 %
Track quality 100.0 %
Test CRC 89778F31
Copy CRC 89778F31
Copy OK

Track 4

Filename C:\pastafari\Roberto Carcassés - 2000 - Invitation [FLAC]\04- Velas Içadas.wav

Pre-gap length 0:00:01.57

Peak level 99.9 %
Track quality 100.0 %
Test CRC 855B66A2
Copy CRC 855B66A2
Copy OK

Track 5

Filename C:\pastafari\Roberto Carcassés - 2000 - Invitation [FLAC]\05- California en Clave.wav

Pre-gap length 0:00:01.57

Peak level 99.9 %
Track quality 99.9 %
Test CRC FEAD5D59
Copy CRC FEAD5D59
Copy OK

Track 6

Filename C:\pastafari\Roberto Carcassés - 2000 - Invitation [FLAC]\06- Monk's Mood.wav

Pre-gap length 0:00:01.57

Peak level 97.7 %
Track quality 100.0 %
Test CRC BA04CF9E
Copy CRC BA04CF9E
Copy OK

Track 7

Filename C:\pastafari\Roberto Carcassés - 2000 - Invitation [FLAC]\07- Descargasses.wav

Pre-gap length 0:00:01.56

Peak level 99.9 %
Track quality 99.9 %
Test CRC 32DCA345
Copy CRC 32DCA345
Copy OK

Track 8

Filename C:\pastafari\Roberto Carcassés - 2000 - Invitation [FLAC]\08- … Y Llegó el Invierno.wav

Pre-gap length 0:00:02.56

Peak level 99.9 %
Track quality 100.0 %
Test CRC 8441A847
Copy CRC 8441A847
Copy OK

Track 9

Filename C:\pastafari\Roberto Carcassés - 2000 - Invitation [FLAC]\09- Tonada Para Robin.wav

Pre-gap length 0:00:01.56

Peak level 99.9 %
Track quality 100.0 %
Test CRC C451C5B7
Copy CRC C451C5B7
Copy OK

No errors occurred

End of status report



Thanks to orginal ripper pastafari

Lossless–Flac+CUE+LOG
Download from Filesonic.com
~~~~~~~~ ~~~~~~~~
Download from Uploaded.to

Mp3 @ CBR 320Kbps
Download from Filesonic.com
~~~~~~~~ ~~~~~~~~
Download from Uploaded.to