Subcategories

The Rowallan Consort - Note Of Noy, Notes Of Joy: Early Scottish Music for Lute, Clarsach and Voice (1995) {Temple Records}

Posted By: ruskaval
The Rowallan Consort - Note Of Noy, Notes Of Joy: Early Scottish Music for Lute, Clarsach and Voice (1995) {Temple Records}

The Rowallan Consort - Note Of Noy, Notes Of Joy: Early Scottish Music for Lute, Clarsach and Voice (1995) {Temple Records}
EAC rip (secure mode) | FLAC (tracks)+CUE+LOG -> 237 Mb | MP3 @320 -> 129 Mb
Full Artwork @ 600 dpi (png) -> 58 Mb | 5% repair rar
© 1995 Temple Records | COMD 20158
Classical / Medieval / Early Music / Celtic / Scottish Folk

This venture into Scottish early music is a first for Temple Records - the label known mainly for its emphasis on traditional Scottish music. It is also the recording debut for The Rowallan Consort. Formed in 1994 by Robert Phillips and William Taylor, they uniquely combine the sound of the lute and the wire-strung harp (clarsach) to beautiful effect. With guest singers Mhairi Lawson and Paul Rendall, they have researched and perform songs and music dating from 1400-1700.

templerecords.co.uk INFO

Artists on this album:
The Rowallan Consort

Robert Phillip - lute
William (Bill) Taylor - Harp [Clarsach]

Mhairi Lawson - vocals
Paul Rendall - vocals

Works on This Recording

The Rowallan Consort - Note Of Noy, Notes Of Joy: Early Scottish Music for Lute, Clarsach and Voice (1995) {Temple Records}


Exact Audio Copy V1.3 from 2. September 2016

EAC extraction logfile from 16. September 2019, 0:30

The Rowallan Consort / Notes of Noy, Notes of Joy

Used drive : PIONEER BD-RW BDR-208M Adapter: 1 ID: 0

Read mode : Secure
Utilize accurate stream : Yes
Defeat audio cache : Yes
Make use of C2 pointers : No

Read offset correction : 667
Overread into Lead-In and Lead-Out : No
Fill up missing offset samples with silence : Yes
Delete leading and trailing silent blocks : No
Null samples used in CRC calculations : Yes
Used interface : Native Win32 interface for Win NT & 2000
Gap handling : Appended to previous track

Used output format : User Defined Encoder
Selected bitrate : 640 kBit/s
Quality : High
Add ID3 tag : No
Command line compressor : C:\Program Files (x86)\Exact Audio Copy\Flac\flac.exe
Additional command line options : -8 -e -V -T "ARTIST=%artist%" -T "TITLE=%title%" -T "ALBUM=%albumtitle%" -T "DATE=%year%" -T "TRACKNUMBER=%tracknr%" -T "GENRE=%genre%" -T "PERFORMER=%albuminterpret%" -T "COMPOSER=%composer%" %haslyrics%–tag-from-file=LYRICS="%lyricsfile%"%haslyrics% -T "ALBUMARTIST=%albumartist%" -T "DISCNUMBER=%cdnumber%" -T "TOTALDISCS=%totalcds%" -T "TOTALTRACKS=%numtracks%" -T "COMMENT=%comment%" %source% -o %dest%


TOC of the extracted CD

Track | Start | Length | Start sector | End sector
––––––––––––––––––––––––––––-
1 | 0:00.30 | 2:26.45 | 30 | 11024
2 | 2:27.00 | 4:50.64 | 11025 | 32838
3 | 7:17.64 | 0:51.68 | 32839 | 36731
4 | 8:09.57 | 1:36.60 | 36732 | 43991
5 | 9:46.42 | 0:51.04 | 43992 | 47820
6 | 10:37.46 | 0:42.26 | 47821 | 50996
7 | 11:19.72 | 1:01.31 | 50997 | 55602
8 | 12:21.28 | 2:04.36 | 55603 | 64938
9 | 14:25.64 | 3:03.52 | 64939 | 78715
10 | 17:29.41 | 2:39.34 | 78716 | 90674
11 | 20:09.00 | 1:54.45 | 90675 | 99269
12 | 22:03.45 | 1:09.50 | 99270 | 104494
13 | 23:13.20 | 0:39.22 | 104495 | 107441
14 | 23:52.42 | 0:52.09 | 107442 | 111350
15 | 24:44.51 | 2:10.17 | 111351 | 121117
16 | 26:54.68 | 4:06.37 | 121118 | 139604
17 | 31:01.30 | 1:58.21 | 139605 | 148475
18 | 32:59.51 | 5:35.23 | 148476 | 173623
19 | 38:34.74 | 1:32.74 | 173624 | 180597
20 | 40:07.73 | 3:09.25 | 180598 | 194797
21 | 43:17.23 | 3:17.17 | 194798 | 209589
22 | 46:34.40 | 1:47.02 | 209590 | 217616
23 | 48:21.42 | 1:59.39 | 217617 | 226580
24 | 50:21.06 | 3:24.20 | 226581 | 241900


Track 1

Filename C:\RIPS\CD\incomplet\The Rowallan Consort - Notes of Noy, Notes of Joy (1994) [FLAC] {CD}\01 Come my Children, dere.wav

Pre-gap length 0:00:02.40

Peak level 100.0 %
Extraction speed 3.8 X
Track quality 100.0 %
Test CRC 99748CE3
Copy CRC 99748CE3
Accurately ripped (confidence 1) [1666FFCA] (AR v2)
Copy OK

Track 2

Filename C:\RIPS\CD\incomplet\The Rowallan Consort - Notes of Noy, Notes of Joy (1994) [FLAC] {CD}\02 Joy to the personne of my love.wav

Peak level 100.0 %
Extraction speed 4.5 X
Track quality 99.9 %
Test CRC C840F14C
Copy CRC C840F14C
Accurately ripped (confidence 1) [51124BAE] (AR v2)
Copy OK

Track 3

Filename C:\RIPS\CD\incomplet\The Rowallan Consort - Notes of Noy, Notes of Joy (1994) [FLAC] {CD}\03 Canaries.wav

Peak level 59.8 %
Extraction speed 3.5 X
Track quality 100.0 %
Test CRC 403FFADF
Copy CRC 403FFADF
Accurately ripped (confidence 1) [B5C4D781] (AR v2)
Copy OK

Track 4

Filename C:\RIPS\CD\incomplet\The Rowallan Consort - Notes of Noy, Notes of Joy (1994) [FLAC] {CD}\04 A Port.wav

Peak level 72.6 %
Extraction speed 4.4 X
Track quality 100.0 %
Test CRC 76966340
Copy CRC 76966340
Accurately ripped (confidence 1) [AD8A44D4] (AR v2)
Copy OK

Track 5

Filename C:\RIPS\CD\incomplet\The Rowallan Consort - Notes of Noy, Notes of Joy (1994) [FLAC] {CD}\05 A Daunces- Grein Greus ye Rasses.wav

Peak level 84.2 %
Extraction speed 3.6 X
Track quality 100.0 %
Test CRC F6979287
Copy CRC F6979287
Accurately ripped (confidence 1) [8E036443] (AR v2)
Copy OK

Track 6

Filename C:\RIPS\CD\incomplet\The Rowallan Consort - Notes of Noy, Notes of Joy (1994) [FLAC] {CD}\06 I long for thy virginitie (lute solo).wav

Peak level 65.9 %
Extraction speed 3.3 X
Track quality 100.0 %
Test CRC 649A66DE
Copy CRC 649A66DE
Accurately ripped (confidence 1) [D176B81A] (AR v2)
Copy OK

Track 7

Filename C:\RIPS\CD\incomplet\The Rowallan Consort - Notes of Noy, Notes of Joy (1994) [FLAC] {CD}\07 I long for thy virginitie (clarsach solo).wav

Peak level 55.4 %
Extraction speed 2.9 X
Track quality 99.8 %
Test CRC C26D4C81
Copy CRC C26D4C81
Accurately ripped (confidence 1) [D8EF53FA] (AR v2)
Copy OK

Track 8

Filename C:\RIPS\CD\incomplet\The Rowallan Consort - Notes of Noy, Notes of Joy (1994) [FLAC] {CD}\08 The Canaries.wav

Peak level 95.9 %
Extraction speed 4.1 X
Track quality 99.9 %
Test CRC E8DB8D24
Copy CRC E8DB8D24
Accurately ripped (confidence 1) [650C678B] (AR v2)
Copy OK

Track 9

Filename C:\RIPS\CD\incomplet\The Rowallan Consort - Notes of Noy, Notes of Joy (1994) [FLAC] {CD}\09 Defiled is my name.wav

Peak level 77.3 %
Extraction speed 5.7 X
Track quality 100.0 %
Test CRC 9E42DC44
Copy CRC 9E42DC44
Accurately ripped (confidence 1) [FE126C6E] (AR v2)
Copy OK

Track 10

Filename C:\RIPS\CD\incomplet\The Rowallan Consort - Notes of Noy, Notes of Joy (1994) [FLAC] {CD}\10 In Nominie.wav

Peak level 81.5 %
Extraction speed 5.7 X
Track quality 100.0 %
Test CRC 633BA749
Copy CRC 633BA749
Accurately ripped (confidence 1) [A1FE99AB] (AR v2)
Copy OK

Track 11

Filename C:\RIPS\CD\incomplet\The Rowallan Consort - Notes of Noy, Notes of Joy (1994) [FLAC] {CD}\11 Com palefaced death.wav

Peak level 88.2 %
Extraction speed 5.5 X
Track quality 100.0 %
Test CRC 54C01C92
Copy CRC 54C01C92
Accurately ripped (confidence 1) [C9978B4E] (AR v2)
Copy OK

Track 12

Filename C:\RIPS\CD\incomplet\The Rowallan Consort - Notes of Noy, Notes of Joy (1994) [FLAC] {CD}\12 The Lady Louthian's Lilte.wav

Peak level 60.0 %
Extraction speed 4.8 X
Track quality 100.0 %
Test CRC 1309CD6C
Copy CRC 1309CD6C
Accurately ripped (confidence 1) [28565C03] (AR v2)
Copy OK

Track 13

Filename C:\RIPS\CD\incomplet\The Rowallan Consort - Notes of Noy, Notes of Joy (1994) [FLAC] {CD}\13 Ladie Laudian's Lilte.wav

Peak level 71.4 %
Extraction speed 3.9 X
Track quality 100.0 %
Test CRC C11A45AA
Copy CRC C11A45AA
Accurately ripped (confidence 1) [596E2ED6] (AR v2)
Copy OK

Track 14

Filename C:\RIPS\CD\incomplet\The Rowallan Consort - Notes of Noy, Notes of Joy (1994) [FLAC] {CD}\14 My Ladie Laudian's Lilt.wav

Peak level 46.0 %
Extraction speed 3.1 X
Track quality 99.7 %
Test CRC A0AE2B99
Copy CRC A0AE2B99
Accurately ripped (confidence 1) [9990762B] (AR v2)
Copy OK

Track 15

Filename C:\RIPS\CD\incomplet\The Rowallan Consort - Notes of Noy, Notes of Joy (1994) [FLAC] {CD}\15 Lyk as the lark.wav

Peak level 77.5 %
Extraction speed 6.0 X
Track quality 100.0 %
Test CRC 44C69914
Copy CRC 44C69914
Accurately ripped (confidence 1) [905B0F24] (AR v2)
Copy OK

Track 16

Filename C:\RIPS\CD\incomplet\The Rowallan Consort - Notes of Noy, Notes of Joy (1994) [FLAC] {CD}\16 Lyk as the dumb solsequium.wav

Peak level 93.1 %
Extraction speed 6.9 X
Track quality 100.0 %
Test CRC 07CA4091
Copy CRC 07CA4091
Accurately ripped (confidence 1) [EB7E856B] (AR v2)
Copy OK

Track 17

Filename C:\RIPS\CD\incomplet\The Rowallan Consort - Notes of Noy, Notes of Joy (1994) [FLAC] {CD}\17 Depairte, depairte.wav

Peak level 59.5 %
Extraction speed 6.3 X
Track quality 100.0 %
Test CRC B17698FA
Copy CRC B17698FA
Accurately ripped (confidence 1) [A8AD7E9D] (AR v2)
Copy OK

Track 18

Filename C:\RIPS\CD\incomplet\The Rowallan Consort - Notes of Noy, Notes of Joy (1994) [FLAC] {CD}\18 For lov of one.wav

Peak level 63.3 %
Extraction speed 7.0 X
Track quality 99.9 %
Test CRC 6D181A78
Copy CRC 6D181A78
Accurately ripped (confidence 1) [37857819] (AR v2)
Copy OK

Track 19

Filename C:\RIPS\CD\incomplet\The Rowallan Consort - Notes of Noy, Notes of Joy (1994) [FLAC] {CD}\19 Ane Exempil of Tripla.wav

Peak level 82.9 %
Extraction speed 6.2 X
Track quality 100.0 %
Test CRC DB92C94B
Copy CRC DB92C94B
Accurately ripped (confidence 1) [4AC0AE4E] (AR v2)
Copy OK

Track 20

Filename C:\RIPS\CD\incomplet\The Rowallan Consort - Notes of Noy, Notes of Joy (1994) [FLAC] {CD}\20 Ane lessone upon the first psalme.wav

Peak level 91.9 %
Extraction speed 7.2 X
Track quality 100.0 %
Test CRC 687C4AF3
Copy CRC 687C4AF3
Accurately ripped (confidence 1) [9D0E9967] (AR v2)
Copy OK

Track 21

Filename C:\RIPS\CD\incomplet\The Rowallan Consort - Notes of Noy, Notes of Joy (1994) [FLAC] {CD}\21 Ane lessone upon the secund psalme.wav

Peak level 68.0 %
Extraction speed 5.7 X
Track quality 99.9 %
Test CRC 48C96E5D
Copy CRC 48C96E5D
Accurately ripped (confidence 1) [B7D3E7A6] (AR v2)
Copy OK

Track 22

Filename C:\RIPS\CD\incomplet\The Rowallan Consort - Notes of Noy, Notes of Joy (1994) [FLAC] {CD}\22 Gypsies Lilt.wav

Peak level 70.6 %
Extraction speed 6.7 X
Track quality 100.0 %
Test CRC DF2D6A69
Copy CRC DF2D6A69
Accurately ripped (confidence 1) [FA419253] (AR v2)
Copy OK

Track 23

Filename C:\RIPS\CD\incomplet\The Rowallan Consort - Notes of Noy, Notes of Joy (1994) [FLAC] {CD}\23 Corne Yairds.wav

Peak level 60.9 %
Extraction speed 5.7 X
Track quality 99.9 %
Test CRC 892985AF
Copy CRC 892985AF
Accurately ripped (confidence 1) [E4B5AD62] (AR v2)
Copy OK

Track 24

Filename C:\RIPS\CD\incomplet\The Rowallan Consort - Notes of Noy, Notes of Joy (1994) [FLAC] {CD}\24 (A Scots Tune).wav

Peak level 90.4 %
Extraction speed 8.0 X
Track quality 100.0 %
Test CRC EB984F94
Copy CRC EB984F94
Accurately ripped (confidence 1) [19655F8A] (AR v2)
Copy OK


All tracks accurately ripped

No errors occurred

End of status report

–– CUETools DB Plugin V2.1.6

[CTDB TOCID: TvBc0VJbLHywKJLOFeYrAp.R2Ow-] found
Submit result: TvBc0VJbLHywKJLOFeYrAp.R2Ow- has been confirmed
Track | CTDB Status
1 | (2/2) Accurately ripped
2 | (2/2) Accurately ripped
3 | (2/2) Accurately ripped
4 | (2/2) Accurately ripped
5 | (2/2) Accurately ripped
6 | (2/2) Accurately ripped
7 | (2/2) Accurately ripped
8 | (2/2) Accurately ripped
9 | (2/2) Accurately ripped
10 | (2/2) Accurately ripped
11 | (2/2) Accurately ripped
12 | (2/2) Accurately ripped
13 | (2/2) Accurately ripped
14 | (2/2) Accurately ripped
15 | (2/2) Accurately ripped
16 | (2/2) Accurately ripped
17 | (2/2) Accurately ripped
18 | (2/2) Accurately ripped
19 | (2/2) Accurately ripped
20 | (2/2) Accurately ripped
21 | (2/2) Accurately ripped
22 | (2/2) Accurately ripped
23 | (2/2) Accurately ripped
24 | (2/2) Accurately ripped


==== Log checksum 83DCD1F19FF193877E9852D9C7D86CBE5C2CB13B4316406188C958CC82692537 ====


The Rowallan Consort - Note Of Noy, Notes Of Joy: Early Scottish Music for Lute, Clarsach and Voice (1995) {Temple Records}



===