Subcategories

Sally Shapiro - Disco Romance

Posted By: jetset
Sally Shapiro - Disco Romance

Sally Shapiro - Disco Romance (2006)
EAC Rip | FLAC (Tracks)+CUE, LOG | 363 MB
Nu Disco, Italo-Disco, Electro | Label: Diskokaine | Catalog Number: DK007CD | Hotfile + Depositfiles + Filefactory


Tracklist:

1 I'll Be By Your Side (5:29)
2 I Know (6:13)
3 Find My Soul (4:52)
4 Time To Let Go (5:21)
5 Anorak Christmas (4:18)
6 Hold Me So Tight (6:00)
7 Find My Soul (Norwegian Electrojazz Mix) (5:00)
8 Sleep In My Arms (5:39)
9 I'll Be By Your Side (Rude 66 808 Remix) (6:43)


Myspace

Sally Shapiro is a "disco princess" whose music is heavily influenced by 80s italo disco. The project also includes the composer and producer Johan Agebjörn, both live in Gothenburg, Sweden. Their debut maxi-single "I'll Be By Your Side" was released on the Austrian Diskokaine label in the summer of 2006, and was later followed up by the album "Disco Romance" and the maxi-single "Anorak Christmas".
Little is known about the person behind Sally Shapiro, whose real name is something else. So far she has been to shy to record a music video or to perform live. When once asked what she does other than singing, she replied: "I dance all nights long on small disco clubs and walk in the moonshine thinking about my love affairs."

EAC extraction logfile from 5. May 2008, 4:54 for CD
Sally Shapiro / Disco Romance

Used drive : LITE-ON LTR-24102B Adapter: 1 ID: 0
Read mode : Secure with NO C2, accurate stream, disable cache
Read offset correction : 12
Overread into Lead-In and Lead-Out : No

Used output format : C:\Program Files\flac\flac.exe (User Defined Encoder)
192 kBit/s
Additional command line options : -T "artist=%a" -T "title=%t" -T "album=%g" -T "date=%y" -T "tracknumber=%n" -T "genre=%m" %s

Other options :
Fill up missing offset samples with silence : Yes
Delete leading and trailing silent blocks : No
Native Win32 interface for Win NT & 2000


Track 1
Filename h:\audio1\music\sally shapiro\disco romance\01-Sally Shapiro-I'll Be By Your Side.wav

Pre-gap length 0:00:02.00

Peak level 100.0 %
Track quality 100.0 %
Test CRC 8C50C3F4
Copy CRC 8C50C3F4
Copy OK

Track 2
Filename h:\audio1\music\sally shapiro\disco romance\02-Sally Shapiro-I Know.wav

Pre-gap length 0:00:00.74

Peak level 100.0 %
Track quality 99.9 %
Test CRC 68C24F8C
Copy CRC 68C24F8C
Copy OK

Track 3
Filename h:\audio1\music\sally shapiro\disco romance\03-Sally Shapiro-Find My Soul.wav

Pre-gap length 0:00:01.13

Peak level 100.0 %
Track quality 100.0 %
Test CRC C6BCA685
Copy CRC C6BCA685
Copy OK

Track 4
Filename h:\audio1\music\sally shapiro\disco romance\04-Sally Shapiro-Time To Let Go.wav

Pre-gap length 0:00:01.26

Peak level 100.0 %
Track quality 100.0 %
Test CRC 2C19A694
Copy CRC 2C19A694
Copy OK

Track 5
Filename h:\audio1\music\sally shapiro\disco romance\05-Sally Shapiro-Anorak Christmas.wav

Pre-gap length 0:00:02.44

Peak level 100.0 %
Track quality 99.9 %
Test CRC 42AD6877
Copy CRC 42AD6877
Copy OK

Track 6
Filename h:\audio1\music\sally shapiro\disco romance\06-Sally Shapiro-Hold Me So Tight.wav

Pre-gap length 0:00:01.09

Peak level 100.0 %
Track quality 100.0 %
Test CRC E1F2D659
Copy CRC E1F2D659
Copy OK

Track 7
Filename h:\audio1\music\sally shapiro\disco romance\07-Sally Shapiro-Find My Soul (Norwegian Electrojazz Mix).wav

Pre-gap length 0:00:01.05

Peak level 100.0 %
Track quality 100.0 %
Test CRC 76659F53
Copy CRC 76659F53
Copy OK

Track 8
Filename h:\audio1\music\sally shapiro\disco romance\08-Sally Shapiro-Sleep In My Arms.wav

Pre-gap length 0:00:00.33

Peak level 100.0 %
Track quality 100.0 %
Test CRC 4A8D7285
Copy CRC 4A8D7285
Copy OK

Track 9
Filename h:\audio1\music\sally shapiro\disco romance\09-Sally Shapiro-I'll Be By Your Side (Rude 66 808 Remix).wav

Pre-gap length 0:00:03.48

Peak level 100.0 %
Track quality 100.0 %
Test CRC 751A999D
Copy CRC 751A999D
Copy OK

No errors occured


End of status report




Download FREE


NO Mirror Please!