Tags
Language
Tags

Sam Fender - Hypersonic Missiles (2019)

Posted By: Domestos
Sam Fender - Hypersonic Missiles (2019)

Sam Fender - Hypersonic Missiles (2019)
EAC Rip | FLAC (tracks+.cue, log) ~ 318.14 Mb | 48:50 | Cover
Indie Rock | Label: Polydor - 7742875

In the two-and-a-half years between his first single, the urgent and atmospheric "Play God," and the release of his full-length debut in 2019, much was made of U.K. singer and songwriter Sam Fender's relatively young age – 23 by the arrival of the latter. After all, he was drawing frequent comparisons to influence Bruce Springsteen, both for the sound of his early singles and for the working-class compassion on display in his lyrics, and he won the Critics' Choice Brit Award in late 2018, an honor previously bestowed upon, among others, Adele and Sam Smith.

He opened for Bob Dylan and Neil Young in Hyde Park in July of 2019, two months before the arrival of Hypersonic Missiles. Recorded in his own studio in his hometown outside of Newcastle, and produced by his longtime friend, engineer Bramwell Bronte, its 13 songs include "Play God" as well as selections from his 2018 EP, Dead Boys. Fender's sticky melodies, assertive tone, and gritty guitar hooks are evident from the opening moments of the title track, a song that offers lines like "Dutch kids huff balloons in the parking lot/The golden arches illuminate the business park/I eat myself to death, feed the corporate machine." Its rousing chorus asks, "When the bombs drop, darling/Can you say that you've lived your life?" Later, the striking "White Privilege" is a voluble entry along the lines of a more-ruminative "It's the End of the World as We Know It" or "We Didn't Start the Fire." It goes on record with: "The patriarchy is real; the proof is here in my song." Hypersonic Missiles isn't all political; romantic interests and the healing powers of music are also topics at hand. In fact, as the album unfolds and traverses sociopolitical angst, romantic infatuation ("Call Me Lover"), and the urge to let loose (the infectious "Saturday"), it reveals itself to be a fitting soundtrack to the weekend, addressing hopes and frustrations with a persistent intensity and rousing melodies that fall in line with the catharsis at hand. The album ends with an impressive live performance (the piano ballad "Use"), which demonstrates that Fender's soaring vocals are just as authentic as his sentiments. Taken altogether, Hypersonic Missiles is smart, passionate, and loaded with rock-solid anthems that surpass the "promising" designation. ~ AllMusic Review by Marcy Donelson



Track List:
01. Hypersonic Missiles (03:57)
02. The Borders (05:32)
03. White Privilege (03:29)
04. Dead Boys (03:23)
05. You’re Not The Only One (04:35)
06. Play God (03:45)
07. That Sound (03:48)
08. Saturday (03:01)
09. Will We Talk (02:42)
10. Two People (03:56)
11. Call Me Lover (03:21)
12. Leave Fast (03:44)
13. Use (Live) (03:31)

Exact Audio Copy V1.3 from 2. September 2016

EAC extraction logfile from 23. October 2019, 11:46

Sam Fender / Hypersonic Missiles

Used drive : PLEXTOR PX-891SAF Adapter: 1 ID: 0

Read mode : Secure
Utilize accurate stream : Yes
Defeat audio cache : Yes
Make use of C2 pointers : No

Read offset correction : 6
Overread into Lead-In and Lead-Out : No
Fill up missing offset samples with silence : Yes
Delete leading and trailing silent blocks : No
Null samples used in CRC calculations : Yes
Used interface : Native Win32 interface for Win NT & 2000
Gap handling : Appended to previous track

Used output format : User Defined Encoder
Selected bitrate : 1024 kBit/s
Quality : High
Add ID3 tag : No
Command line compressor : C:\Program Files (x86)\Exact Audio Copy\Flac\flac.exe
Additional command line options : -8 -V -T "ARTIST=%artist%" -T "TITLE=%title%" -T "ALBUM=%albumtitle%" -T "DATE=%year%" -T "TRACKNUMBER=%tracknr%" -T "GENRE=%genre%" -T "PERFORMER=%albuminterpret%" -T "COMPOSER=%composer%" %haslyrics%–tag-from-file=LYRICS="%lyricsfile%"%haslyrics% -T "ALBUMARTIST=%albumartist%" -T "DISCNUMBER=%cdnumber%" -T "TOTALDISCS=%totalcds%" -T "TOTALTRACKS=%numtracks%" -T "COMMENT=%comment%" %source% -o %dest%


TOC of the extracted CD

Track | Start | Length | Start sector | End sector
––––––––––––––––––––––––––––-
1 | 0:00.00 | 3:57.74 | 0 | 17848
2 | 3:57.74 | 5:32.31 | 17849 | 42779
3 | 9:30.30 | 3:29.64 | 42780 | 58518
4 | 13:00.19 | 3:23.46 | 58519 | 73789
5 | 16:23.65 | 4:35.14 | 73790 | 94428
6 | 20:59.04 | 3:45.45 | 94429 | 111348
7 | 24:44.49 | 3:48.24 | 111349 | 128472
8 | 28:32.73 | 3:01.22 | 128473 | 142069
9 | 31:34.20 | 2:42.45 | 142070 | 154264
10 | 34:16.65 | 3:56.49 | 154265 | 172013
11 | 38:13.39 | 3:21.08 | 172014 | 187096
12 | 41:34.47 | 3:44.04 | 187097 | 203900
13 | 45:18.51 | 3:31.59 | 203901 | 219784


Track 1

Filename D:\#New Wav + flac\Sam Fender - Hypersonic Missiles\01. Sam Fender - Hypersonic Missiles.wav

Pre-gap length 0:00:02.00

Peak level 100.0 %
Extraction speed 5.1 X
Track quality 100.0 %
Test CRC 93D1B430
Copy CRC 93D1B430
Accurately ripped (confidence 4) [7380752F] (AR v2)
Copy OK

Track 2

Filename D:\#New Wav + flac\Sam Fender - Hypersonic Missiles\02. Sam Fender - The Borders.wav

Peak level 100.0 %
Extraction speed 6.0 X
Track quality 100.0 %
Test CRC 224EDE76
Copy CRC 224EDE76
Accurately ripped (confidence 4) [B86B787A] (AR v2)
Copy OK

Track 3

Filename D:\#New Wav + flac\Sam Fender - Hypersonic Missiles\03. Sam Fender - White Privilege.wav

Peak level 100.0 %
Extraction speed 6.1 X
Track quality 100.0 %
Test CRC A4CB9450
Copy CRC A4CB9450
Accurately ripped (confidence 4) [D1EF6518] (AR v2)
Copy OK

Track 4

Filename D:\#New Wav + flac\Sam Fender - Hypersonic Missiles\04. Sam Fender - Dead Boys.wav

Peak level 100.0 %
Extraction speed 6.5 X
Track quality 100.0 %
Test CRC 23B541BA
Copy CRC 23B541BA
Accurately ripped (confidence 4) [C94B4891] (AR v2)
Copy OK

Track 5

Filename D:\#New Wav + flac\Sam Fender - Hypersonic Missiles\05. Sam Fender - You're Not The Only One.wav

Peak level 100.0 %
Extraction speed 6.2 X
Track quality 99.9 %
Test CRC 89E26016
Copy CRC 89E26016
Accurately ripped (confidence 4) [43C1BFDC] (AR v2)
Copy OK

Track 6

Filename D:\#New Wav + flac\Sam Fender - Hypersonic Missiles\06. Sam Fender - Play God.wav

Peak level 100.0 %
Extraction speed 7.4 X
Track quality 100.0 %
Test CRC AC9AEF5D
Copy CRC AC9AEF5D
Accurately ripped (confidence 4) [B3C99C52] (AR v2)
Copy OK

Track 7

Filename D:\#New Wav + flac\Sam Fender - Hypersonic Missiles\07. Sam Fender - That Sound.wav

Peak level 100.0 %
Extraction speed 7.7 X
Track quality 100.0 %
Test CRC 40DB91A3
Copy CRC 40DB91A3
Accurately ripped (confidence 4) [D3C99C83] (AR v2)
Copy OK

Track 8

Filename D:\#New Wav + flac\Sam Fender - Hypersonic Missiles\08. Sam Fender - Saturday.wav

Peak level 100.0 %
Extraction speed 7.7 X
Track quality 100.0 %
Test CRC 3DE26399
Copy CRC 3DE26399
Accurately ripped (confidence 4) [52A2DB5C] (AR v2)
Copy OK

Track 9

Filename D:\#New Wav + flac\Sam Fender - Hypersonic Missiles\09. Sam Fender - Will We Talk.wav

Peak level 100.0 %
Extraction speed 7.8 X
Track quality 100.0 %
Test CRC 969AE9D6
Copy CRC 969AE9D6
Accurately ripped (confidence 4) [C3592487] (AR v2)
Copy OK

Track 10

Filename D:\#New Wav + flac\Sam Fender - Hypersonic Missiles\10. Sam Fender - Two People.wav

Peak level 98.9 %
Extraction speed 8.6 X
Track quality 100.0 %
Test CRC F99F34B0
Copy CRC F99F34B0
Accurately ripped (confidence 4) [3769E743] (AR v2)
Copy OK

Track 11

Filename D:\#New Wav + flac\Sam Fender - Hypersonic Missiles\11. Sam Fender - Call Me Lover.wav

Peak level 100.0 %
Extraction speed 8.6 X
Track quality 100.0 %
Test CRC 858B55D6
Copy CRC 858B55D6
Accurately ripped (confidence 4) [EE21F8CE] (AR v2)
Copy OK

Track 12

Filename D:\#New Wav + flac\Sam Fender - Hypersonic Missiles\12. Sam Fender - Leave Fast.wav

Peak level 98.9 %
Extraction speed 9.0 X
Track quality 100.0 %
Test CRC 6AB9A0C0
Copy CRC 6AB9A0C0
Accurately ripped (confidence 4) [F7CAEEEB] (AR v2)
Copy OK

Track 13

Filename D:\#New Wav + flac\Sam Fender - Hypersonic Missiles\13. Sam Fender - Use (Live).wav

Peak level 93.8 %
Extraction speed 9.0 X
Track quality 100.0 %
Test CRC AF319B4A
Copy CRC AF319B4A
Accurately ripped (confidence 4) [BE57E34D] (AR v2)
Copy OK


All tracks accurately ripped

No errors occurred

End of status report

–– CUETools DB Plugin V2.1.6

[CTDB TOCID: EPTFDAa27ODiR5Fjb80XS2fm9uo-] found
Submit result: EPTFDAa27ODiR5Fjb80XS2fm9uo- has been confirmed
Track | CTDB Status
1 | (47/47) Accurately ripped
2 | (47/47) Accurately ripped
3 | (47/47) Accurately ripped
4 | (47/47) Accurately ripped
5 | (47/47) Accurately ripped
6 | (47/47) Accurately ripped
7 | (46/47) Accurately ripped
8 | (46/47) Accurately ripped
9 | (46/47) Accurately ripped
10 | (46/47) Accurately ripped
11 | (46/47) Accurately ripped
12 | (46/47) Accurately ripped
13 | (46/47) Accurately ripped


==== Log checksum C48E40539118B298B2B3F1A05C3594AC551248ECA271AA482BF3120C555B553F ====

––––––––––––––––––––––––––––––

Exact Audio Copy V1.3 from 2. September 2016

EAC extraction logfile from 23. October 2019, 11:46

Sam Fender / Hypersonic Missiles

Used drive : PLEXTOR PX-891SAF Adapter: 1 ID: 0

Read mode : Secure
Utilize accurate stream : Yes
Defeat audio cache : Yes
Make use of C2 pointers : No

Read offset correction : 6
Overread into Lead-In and Lead-Out : No
Fill up missing offset samples with silence : Yes
Delete leading and trailing silent blocks : No
Null samples used in CRC calculations : Yes
Used interface : Native Win32 interface for Win NT & 2000
Gap handling : Appended to previous track

Used output format : User Defined Encoder
Selected bitrate : 1024 kBit/s
Quality : High
Add ID3 tag : No
Command line compressor : C:\Program Files (x86)\Exact Audio Copy\Flac\flac.exe
Additional command line options : -8 -V -T "ARTIST=%artist%" -T "TITLE=%title%" -T "ALBUM=%albumtitle%" -T "DATE=%year%" -T "TRACKNUMBER=%tracknr%" -T "GENRE=%genre%" -T "PERFORMER=%albuminterpret%" -T "COMPOSER=%composer%" %haslyrics%–tag-from-file=LYRICS="%lyricsfile%"%haslyrics% -T "ALBUMARTIST=%albumartist%" -T "DISCNUMBER=%cdnumber%" -T "TOTALDISCS=%totalcds%" -T "TOTALTRACKS=%numtracks%" -T "COMMENT=%comment%" %source% -o %dest%


TOC of the extracted CD

Track | Start | Length | Start sector | End sector
––––––––––––––––––––––––––––-
1 | 0:00.00 | 3:57.74 | 0 | 17848
2 | 3:57.74 | 5:32.31 | 17849 | 42779
3 | 9:30.30 | 3:29.64 | 42780 | 58518
4 | 13:00.19 | 3:23.46 | 58519 | 73789
5 | 16:23.65 | 4:35.14 | 73790 | 94428
6 | 20:59.04 | 3:45.45 | 94429 | 111348
7 | 24:44.49 | 3:48.24 | 111349 | 128472
8 | 28:32.73 | 3:01.22 | 128473 | 142069
9 | 31:34.20 | 2:42.45 | 142070 | 154264
10 | 34:16.65 | 3:56.49 | 154265 | 172013
11 | 38:13.39 | 3:21.08 | 172014 | 187096
12 | 41:34.47 | 3:44.04 | 187097 | 203900
13 | 45:18.51 | 3:31.59 | 203901 | 219784


Track 1

Filename D:\#New Wav + flac\Sam Fender - Hypersonic Missiles\01. Sam Fender - Hypersonic Missiles.wav

Pre-gap length 0:00:02.00

Peak level 100.0 %
Extraction speed 5.1 X
Track quality 100.0 %
Test CRC 93D1B430
Copy CRC 93D1B430
Accurately ripped (confidence 4) [7380752F] (AR v2)
Copy OK

Track 2

Filename D:\#New Wav + flac\Sam Fender - Hypersonic Missiles\02. Sam Fender - The Borders.wav

Peak level 100.0 %
Extraction speed 6.0 X
Track quality 100.0 %
Test CRC 224EDE76
Copy CRC 224EDE76
Accurately ripped (confidence 4) [B86B787A] (AR v2)
Copy OK

Track 3

Filename D:\#New Wav + flac\Sam Fender - Hypersonic Missiles\03. Sam Fender - White Privilege.wav

Peak level 100.0 %
Extraction speed 6.1 X
Track quality 100.0 %
Test CRC A4CB9450
Copy CRC A4CB9450
Accurately ripped (confidence 4) [D1EF6518] (AR v2)
Copy OK

Track 4

Filename D:\#New Wav + flac\Sam Fender - Hypersonic Missiles\04. Sam Fender - Dead Boys.wav

Peak level 100.0 %
Extraction speed 6.5 X
Track quality 100.0 %
Test CRC 23B541BA
Copy CRC 23B541BA
Accurately ripped (confidence 4) [C94B4891] (AR v2)
Copy OK

Track 5

Filename D:\#New Wav + flac\Sam Fender - Hypersonic Missiles\05. Sam Fender - You're Not The Only One.wav

Peak level 100.0 %
Extraction speed 6.2 X
Track quality 99.9 %
Test CRC 89E26016
Copy CRC 89E26016
Accurately ripped (confidence 4) [43C1BFDC] (AR v2)
Copy OK

Track 6

Filename D:\#New Wav + flac\Sam Fender - Hypersonic Missiles\06. Sam Fender - Play God.wav

Peak level 100.0 %
Extraction speed 7.4 X
Track quality 100.0 %
Test CRC AC9AEF5D
Copy CRC AC9AEF5D
Accurately ripped (confidence 4) [B3C99C52] (AR v2)
Copy OK

Track 7

Filename D:\#New Wav + flac\Sam Fender - Hypersonic Missiles\07. Sam Fender - That Sound.wav

Peak level 100.0 %
Extraction speed 7.7 X
Track quality 100.0 %
Test CRC 40DB91A3
Copy CRC 40DB91A3
Accurately ripped (confidence 4) [D3C99C83] (AR v2)
Copy OK

Track 8

Filename D:\#New Wav + flac\Sam Fender - Hypersonic Missiles\08. Sam Fender - Saturday.wav

Peak level 100.0 %
Extraction speed 7.7 X
Track quality 100.0 %
Test CRC 3DE26399
Copy CRC 3DE26399
Accurately ripped (confidence 4) [52A2DB5C] (AR v2)
Copy OK

Track 9

Filename D:\#New Wav + flac\Sam Fender - Hypersonic Missiles\09. Sam Fender - Will We Talk.wav

Peak level 100.0 %
Extraction speed 7.8 X
Track quality 100.0 %
Test CRC 969AE9D6
Copy CRC 969AE9D6
Accurately ripped (confidence 4) [C3592487] (AR v2)
Copy OK

Track 10

Filename D:\#New Wav + flac\Sam Fender - Hypersonic Missiles\10. Sam Fender - Two People.wav

Peak level 98.9 %
Extraction speed 8.6 X
Track quality 100.0 %
Test CRC F99F34B0
Copy CRC F99F34B0
Accurately ripped (confidence 4) [3769E743] (AR v2)
Copy OK

Track 11

Filename D:\#New Wav + flac\Sam Fender - Hypersonic Missiles\11. Sam Fender - Call Me Lover.wav

Peak level 100.0 %
Extraction speed 8.6 X
Track quality 100.0 %
Test CRC 858B55D6
Copy CRC 858B55D6
Accurately ripped (confidence 4) [EE21F8CE] (AR v2)
Copy OK

Track 12

Filename D:\#New Wav + flac\Sam Fender - Hypersonic Missiles\12. Sam Fender - Leave Fast.wav

Peak level 98.9 %
Extraction speed 9.0 X
Track quality 100.0 %
Test CRC 6AB9A0C0
Copy CRC 6AB9A0C0
Accurately ripped (confidence 4) [F7CAEEEB] (AR v2)
Copy OK

Track 13

Filename D:\#New Wav + flac\Sam Fender - Hypersonic Missiles\13. Sam Fender - Use (Live).wav

Peak level 93.8 %
Extraction speed 9.0 X
Track quality 100.0 %
Test CRC AF319B4A
Copy CRC AF319B4A
Accurately ripped (confidence 4) [BE57E34D] (AR v2)
Copy OK


All tracks accurately ripped

No errors occurred

End of status report

–– CUETools DB Plugin V2.1.6

[CTDB TOCID: EPTFDAa27ODiR5Fjb80XS2fm9uo-] found
Submit result: EPTFDAa27ODiR5Fjb80XS2fm9uo- has been confirmed
Track | CTDB Status
1 | (47/47) Accurately ripped
2 | (47/47) Accurately ripped
3 | (47/47) Accurately ripped
4 | (47/47) Accurately ripped
5 | (47/47) Accurately ripped
6 | (47/47) Accurately ripped
7 | (46/47) Accurately ripped
8 | (46/47) Accurately ripped
9 | (46/47) Accurately ripped
10 | (46/47) Accurately ripped
11 | (46/47) Accurately ripped
12 | (46/47) Accurately ripped
13 | (46/47) Accurately ripped


==== Log checksum C48E40539118B298B2B3F1A05C3594AC551248ECA271AA482BF3120C555B553F ====

All thanks go to the Original ripper (unknown)

More Music in My Blog
Follow My RSS Channel