Tags
Language
Tags

Jordi Savall & Hesperion XXI - Mare Nostrum - Orient - Occident: Dialogues (2011) {2CD Set Alia Vox AVSA 9888}

Posted By: ruskaval
Jordi Savall & Hesperion XXI - Mare Nostrum - Orient - Occident: Dialogues (2011) {2CD Set Alia Vox AVSA 9888}

Jordi Savall & Hesperion XXI - Mare Nostrum - Orient - Occident: Dialogues (2011) {2CD Set Alia Vox AVSA 9888}
EAC rip (secure mode) | FLAC (tracks)+CUE+LOG -> 777 Mb | MP3 @320 -> 363 Mb
Full Artwork @ 600 dpi (jpg) -> 323 Mb | 5% repair rar
© 2011 Alia Vox | AVSA 9888
Classical / Medieval / Choral

Mare Nostrum (Latin for Our Sea ) was a Roman name for the Mediterranean Sea, one of the most important focal points of cultural, political and intellectual growth and exchange and dialogue in the history of humankind. In this lavishly illustrated CD-book, Jordi Savall and the musicians of Hespèrion XXI invite us to explore the facts, myths and legends of the Mediterranean and the sway it has had over many peoples and cultures from Morocco to Israel, from Spain to Lebanon. Also featured on the recording are soprano Montserrat Figueras and Israeli singer Lior Elmaleh, one of the leading representatives of the new generation of performers of Andalusian music.
Jordi Savall & Hesperion XXI - Mare Nostrum - Orient - Occident: Dialogues (2011) {2CD Set Alia Vox AVSA 9888}

One of three ensembles led by Catalan viola da gambist Jordi Savall, Hesperion XXI is devoted to the interpretation of deeply rooted early musical traditions. Released on his Alia Vox label near the close of 2011, Mare Nostrum could be seen to exist near the very center and apex of Savall's massive discography. The project was completed only months before the passing of his wife and longtime collaborator, vocalist Montserrat Figueras. It stands as her parting prayer for tolerance, peace, and reconciliation between peoples and their nations, not despite but rather in celebration of their contrasting cultures and intermingled religions. The melodies in this collection and the individuals who interpret them come from an assortment of lands surrounding the Mediterranean Sea. Drawing upon multiple oral traditions and an intensively researched medieval manuscript repertory, Hesperion XXI present a gently inspiring blend of traditional melodies, calmly played and sung with elegance and improvised precision. If the prevailing mood is ruminative, there are many centuries of shared history on which to ruminate. Mare Nostrum literally means "Our Sea". While the phrase is traceable to Roman hubris following the Punic Wars and has since been abused by nationalists and other extremists who misconstrue the concept behind the word "our", Savall, Figueras, and Hesperion XXI propose a more humane and realistic application. As a "meeting point between different peoples", the Mediterranean has long served as "space for dialogue" between Christians, Muslims, and Jews.

Jordi Savall & Hesperion XXI - Mare Nostrum - Orient - Occident: Dialogues (2011) {2CD Set Alia Vox AVSA 9888}


Figueras was an ethereal soprano and multi-instrumentalist whose spirit and methodology enabled musicians and listeners to enter into a state of grace. Mare Nostrum also features Turkish singer Gursoy Dinçer and the Israeli Andalusian Orchestra's resident solo vocalist Lior Elmaleh. The 28 selections include the Sephardic air, the Berber berçeuse, and the Turkish gazel or ghazal. Here are lullabies from Egypt, Greece, Morocco, Andalusia, and Jerusalem, and traditional airs from Tunisia, Bulgaria, Catalonia, Istanbul, Agadir, Rhodes, and Sarajevo. Mare Nostrum transcends all national boundaries while rendering prevalent notions of entertainment more or less meaningless. The listener should reserve time and space for the playback experience, so as to fully engage with the 11th century Hebrew song and the 14th century Italian stamping dance or istanpitta. Make time for an improvisation on the Song of Solomon and the setting of a Cabalistic text from the Sephardic Book of Creation. The collection closes with a setting of verses by contemporary Spanish poet, translator, and educator Manuel Forcano. It features Ferran Savall, who sings and plays guitar.

Jordi Savall & Hesperion XXI - Mare Nostrum - Orient - Occident: Dialogues (2011) {2CD Set Alia Vox AVSA 9888}


Anyone investing in a copy of Mare Nostrum will want to assign it a special place among the most treasured tomes on the bookshelf, for the two CDs come in a 450-page hardbound book printed in ten languages, richly illustrated with centuries-old artwork and illumined cartography, as well as a schematic chronology of historic events extending from the 8th to 6th centuries BCE through 2010-2011. Context for the music is provided through intelligent and insightful texts by eight different essayists, including Savall himself. This is his seventh CD book. The spirit embodied in Savall and Figueras' Mare Nostrum is most beautifully articulated in this passage by French-Lebanese novelist Amin Maalouf: "If we are to restore some hope to our disoriented humanity, we must go beyond a mere dialogue of cultures and beliefs towards a dialogue of souls. As we stand at the beginning of the 21st century, that is the irreplaceable mission of art."
Jordi Savall & Hesperion XXI - Mare Nostrum - Orient - Occident: Dialogues (2011) {2CD Set Alia Vox AVSA 9888}


INFO
More INFO


Personnel: Montserrat Figueras, Lior Elmaleh, Hespèrion XXI, Jordi Savall

tracklist:
Disc: 1

01. Una matica de ruda
02. Saltarello (after Alfonso X El Sabio, Cantigas de Santa Maria Nos. 77-1
03. Kamti Beivshan Layla (Improvisation after the Song of Songs)
04. Gagauski
05. Amazigh Lullaby
06. A la una yo nací
07. Üsküdar
08. Las Estrellas de los cielos
09. LaMoledet shuvi roni
10. Kurdi Pesrev (taksim & makam)
11. Alef, mem, shin (The Three Principles)
12. Pesendîde "Saz Semârsi"
13. Noumi noumi yaldati
14. La Armada Turca

Jordi Savall & Hesperion XXI - Mare Nostrum - Orient - Occident: Dialogues (2011) {2CD Set Alia Vox AVSA 9888}


Disc: 2
01. En la santa Helena
02. Shaar, petakh dodi
03. Taksim Kanun (Improvisation)
04. Nana andaluza "Duerme mi niña"
05. El Rey que tanto madruga
06. Ana Av Rajman
07. Chominciamento di gioia
08. Koimnsou khaidemeno mou
09. El cant dels Aucells
10. Hon Tahon
11. Rast Murass'a
12. Adonenu Elohenu
13. Taksim and Dance
14. Mireu el nostre mar (Improvisation)

Exact Audio Copy V1.0 beta 1 from 15. November 2010

EAC extraction logfile from 18. November 2012, 12:59

Various / Mare Nostrum: Orient - Occident Dialogues: Dialogue des musiques chretiennes, musulmanes et juives autour de la Mediterranee

Used drive : Optiarc DVD RW AD-5280S Adapter: 4 ID: 0

Read mode : Secure
Utilize accurate stream : Yes
Defeat audio cache : Yes
Make use of C2 pointers : No

Read offset correction : 48
Overread into Lead-In and Lead-Out : No
Fill up missing offset samples with silence : Yes
Delete leading and trailing silent blocks : No
Null samples used in CRC calculations : Yes
Used interface : Native Win32 interface for Win NT & 2000
Gap handling : Appended to previous track

Used output format : User Defined Encoder
Selected bitrate : 256 kBit/s
Quality : High
Add ID3 tag : No
Command line compressor : D:\Program Files\FLAC\flac.exe
Additional command line options : -8 -V -T "ARTIST=%a" -T "TITLE=%t" -T "ALBUM=%g" -T "DATE=%y" -T "TRACKNUMBER=%n" -T "TOTALTRACKS=%x" -T "GENRE=%m" -T "ALBUMARTIST=%v" -T "ALBUM ARTIST=%v" -T "COMMENT=EAC Secure Mode, Test & Copy, AccurateRip, FLAC -8" %s


TOC of the extracted CD

Track | Start | Length | Start sector | End sector
––––––––––––––––––––––––––––-
1 | 0:00.00 | 7:21.62 | 0 | 33136
2 | 7:21.62 | 4:41.54 | 33137 | 54265
3 | 12:03.41 | 6:10.36 | 54266 | 82051
4 | 18:14.02 | 3:46.35 | 82052 | 99036
5 | 22:00.37 | 5:13.21 | 99037 | 122532
6 | 27:13.58 | 4:10.35 | 122533 | 141317
7 | 31:24.18 | 6:00.04 | 141318 | 168321
8 | 37:24.22 | 7:42.51 | 168322 | 203022
9 | 45:06.73 | 4:37.32 | 203023 | 223829
10 | 49:44.30 | 5:22.70 | 223830 | 248049
11 | 55:07.25 | 6:55.01 | 248050 | 279175
12 | 62:02.26 | 4:09.50 | 279176 | 297900
13 | 66:12.01 | 6:05.09 | 297901 | 325284
14 | 72:17.10 | 3:56.18 | 325285 | 343002


Track 1

Filename J:\Mare Nostrum (Disc 1) {Alia Vox AVSA 9888}\01 - Anonymous - La Guirnalda de rosas- Una matica de ruda.wav

Pre-gap length 0:00:02.00

Peak level 97.3 %
Extraction speed 2.9 X
Track quality 100.0 %
Test CRC C0B468B7
Copy CRC C0B468B7
Accurately ripped (confidence 4) [EDAA3D43]
Copy OK

Track 2

Filename J:\Mare Nostrum (Disc 1) {Alia Vox AVSA 9888}\02 - Alfonso X El Sabio - Saltarello.wav

Peak level 70.1 %
Extraction speed 3.1 X
Track quality 100.0 %
Test CRC 93D980FF
Copy CRC 93D980FF
Accurately ripped (confidence 4) [C42CB598]
Copy OK

Track 3

Filename J:\Mare Nostrum (Disc 1) {Alia Vox AVSA 9888}\03 - Anonymous - Kamti Beivshan Layla.wav

Peak level 35.5 %
Extraction speed 3.5 X
Track quality 100.0 %
Test CRC 3F17661D
Copy CRC 3F17661D
Accurately ripped (confidence 4) [6507F1D9]
Copy OK

Track 4

Filename J:\Mare Nostrum (Disc 1) {Alia Vox AVSA 9888}\04 - Anonymous - Gagauski.wav

Peak level 49.6 %
Extraction speed 3.1 X
Track quality 99.9 %
Test CRC 374661EB
Copy CRC 374661EB
Accurately ripped (confidence 4) [48EAF056]
Copy OK

Track 5

Filename J:\Mare Nostrum (Disc 1) {Alia Vox AVSA 9888}\05 - Anonymous - Berceuse Amazig.wav

Peak level 66.9 %
Extraction speed 4.0 X
Track quality 100.0 %
Test CRC 84701867
Copy CRC 84701867
Accurately ripped (confidence 4) [31F3C076]
Copy OK

Track 6

Filename J:\Mare Nostrum (Disc 1) {Alia Vox AVSA 9888}\06 - Anonymous - A la una yo naci.wav

Peak level 86.5 %
Extraction speed 4.1 X
Track quality 100.0 %
Test CRC 13D02B00
Copy CRC 13D02B00
Accurately ripped (confidence 4) [BABFFDF6]
Copy OK

Track 7

Filename J:\Mare Nostrum (Disc 1) {Alia Vox AVSA 9888}\07 - Anonymous - Uskudar.wav

Peak level 58.5 %
Extraction speed 4.4 X
Track quality 100.0 %
Test CRC 6A291D9C
Copy CRC 6A291D9C
Accurately ripped (confidence 4) [63B57572]
Copy OK

Track 8

Filename J:\Mare Nostrum (Disc 1) {Alia Vox AVSA 9888}\08 - Anonymous - Las Estrellas de los cielos.wav

Peak level 74.1 %
Extraction speed 4.8 X
Track quality 100.0 %
Test CRC E9D81A33
Copy CRC E9D81A33
Accurately ripped (confidence 4) [5A9C86F8]
Copy OK

Track 9

Filename J:\Mare Nostrum (Disc 1) {Alia Vox AVSA 9888}\09 - Asher Mizrahi - LaMoledet shuvi roni.wav

Peak level 81.3 %
Extraction speed 4.8 X
Track quality 100.0 %
Test CRC 4E451FF3
Copy CRC 4E451FF3
Accurately ripped (confidence 4) [2A737C30]
Copy OK

Track 10

Filename J:\Mare Nostrum (Disc 1) {Alia Vox AVSA 9888}\10 - Anonymous - Taksim & Makam Kurdi Pesrev.wav

Peak level 59.4 %
Extraction speed 5.1 X
Track quality 100.0 %
Test CRC 235C9D1E
Copy CRC 235C9D1E
Accurately ripped (confidence 4) [456425D2]
Copy OK

Track 11

Filename J:\Mare Nostrum (Disc 1) {Alia Vox AVSA 9888}\11 - Anonymous - Les Trois Principes Alef, mem, shin.wav

Peak level 97.9 %
Extraction speed 5.4 X
Track quality 100.0 %
Test CRC 1292D68B
Copy CRC 1292D68B
Accurately ripped (confidence 4) [48376807]
Copy OK

Track 12

Filename J:\Mare Nostrum (Disc 1) {Alia Vox AVSA 9888}\12 - Anonymous - Taksim - Pesendide Saz Semarsi.wav

Peak level 58.1 %
Extraction speed 5.3 X
Track quality 100.0 %
Test CRC 2969E76D
Copy CRC 2969E76D
Accurately ripped (confidence 4) [9F38B7B5]
Copy OK

Track 13

Filename J:\Mare Nostrum (Disc 1) {Alia Vox AVSA 9888}\13 - Anonymous - Noumi noumi yaldati.wav

Peak level 91.2 %
Extraction speed 5.7 X
Track quality 100.0 %
Test CRC 819F322A
Copy CRC 819F322A
Accurately ripped (confidence 4) [B0E44BBC]
Copy OK

Track 14

Filename J:\Mare Nostrum (Disc 1) {Alia Vox AVSA 9888}\14 - Anonymous - La Armada Turca.wav

Peak level 87.7 %
Extraction speed 5.5 X
Track quality 100.0 %
Test CRC 1FAEC97E
Copy CRC 1FAEC97E
Accurately ripped (confidence 4) [CD238575]
Copy OK


All tracks accurately ripped

No errors occurred

End of status report

==== Log checksum 35D59A2A74E82E6A2C0838D44CF7302855760B7423C0D669D4D04F7FB4C43815 ====

Exact Audio Copy V1.0 beta 1 from 15. November 2010

EAC extraction logfile from 29. November 2012, 19:29

Various / Mare Nostrum: Orient - Occident Dialogues: Dialogue des musiques chretiennes, musulmanes et juives autour de la Mediterranee

Used drive : Optiarc DVD RW AD-5280S Adapter: 4 ID: 0

Read mode : Secure
Utilize accurate stream : Yes
Defeat audio cache : Yes
Make use of C2 pointers : No

Read offset correction : 48
Overread into Lead-In and Lead-Out : No
Fill up missing offset samples with silence : Yes
Delete leading and trailing silent blocks : No
Null samples used in CRC calculations : Yes
Used interface : Native Win32 interface for Win NT & 2000
Gap handling : Appended to previous track

Used output format : User Defined Encoder
Selected bitrate : 256 kBit/s
Quality : High
Add ID3 tag : No
Command line compressor : D:\Program Files\FLAC\flac.exe
Additional command line options : -8 -V -T "ARTIST=%a" -T "TITLE=%t" -T "ALBUM=%g" -T "DATE=%y" -T "TRACKNUMBER=%n" -T "TOTALTRACKS=%x" -T "GENRE=%m" -T "ALBUMARTIST=%v" -T "ALBUM ARTIST=%v" -T "COMMENT=EAC Secure Mode, Test & Copy, AccurateRip, FLAC -8" %s


TOC of the extracted CD

Track | Start | Length | Start sector | End sector
––––––––––––––––––––––––––––-
1 | 0:00.00 | 4:26.43 | 0 | 19992
2 | 4:26.43 | 3:40.32 | 19993 | 36524
3 | 8:07.00 | 2:30.51 | 36525 | 47825
4 | 10:37.51 | 8:43.16 | 47826 | 87066
5 | 19:20.67 | 4:21.09 | 87067 | 106650
6 | 23:42.01 | 7:03.56 | 106651 | 138431
7 | 30:45.57 | 3:08.63 | 138432 | 152594
8 | 33:54.45 | 3:18.63 | 152595 | 167507
9 | 37:13.33 | 7:21.17 | 167508 | 200599
10 | 44:34.50 | 4:03.53 | 200600 | 218877
11 | 48:38.28 | 7:29.47 | 218878 | 252599
12 | 56:08.00 | 10:45.31 | 252600 | 301005
13 | 66:53.31 | 4:59.05 | 301006 | 323435
14 | 71:52.36 | 7:48.57 | 323436 | 358592


Track 1

Filename J:\Mare Nostrum (Disc 2)\01 - Anonymous - En la Santa Helena.wav

Pre-gap length 0:00:02.00

Peak level 64.6 %
Extraction speed 2.6 X
Track quality 100.0 %
Test CRC 023F8B77
Copy CRC 023F8B77
Accurately ripped (confidence 4) [BD72A313]
Copy OK

Track 2

Filename J:\Mare Nostrum (Disc 2)\02 - Anonymous - Shaar petach Dodi.wav

Peak level 73.7 %
Extraction speed 2.8 X
Track quality 100.0 %
Test CRC 27179B57
Copy CRC 27179B57
Accurately ripped (confidence 4) [A518FEC5]
Copy OK

Track 3

Filename J:\Mare Nostrum (Disc 2)\03 - Hakan Gungor - Taksim Kanun.wav

Peak level 36.3 %
Extraction speed 2.8 X
Track quality 100.0 %
Test CRC 2BEFFF18
Copy CRC 2BEFFF18
Accurately ripped (confidence 4) [C58B6232]
Copy OK

Track 4

Filename J:\Mare Nostrum (Disc 2)\04 - Anonymous - Nana andaluza - Duerme mi nina.wav

Peak level 88.2 %
Extraction speed 3.6 X
Track quality 100.0 %
Test CRC 4C84F7B3
Copy CRC 4C84F7B3
Accurately ripped (confidence 4) [8C3E5145]
Copy OK

Track 5

Filename J:\Mare Nostrum (Disc 2)\05 - Anonymous - El Rey que tanto madruga.wav

Peak level 93.9 %
Extraction speed 3.7 X
Track quality 100.0 %
Test CRC F1FA6223
Copy CRC F1FA6223
Accurately ripped (confidence 4) [D3CF6606]
Copy OK

Track 6

Filename J:\Mare Nostrum (Disc 2)\06 - Rabbi David Buzgalo, Rabbi Chaim HaKohen - Ana Av Rajman.wav

Peak level 83.8 %
Extraction speed 4.1 X
Track quality 100.0 %
Test CRC CAB5F7E5
Copy CRC CAB5F7E5
Accurately ripped (confidence 4) [936A62B7]
Copy OK

Track 7

Filename J:\Mare Nostrum (Disc 2)\07 - Anonymous - Chominciamento di gioia (Istanpitta).wav

Peak level 68.5 %
Extraction speed 3.9 X
Track quality 100.0 %
Test CRC 6D6E09E1
Copy CRC 6D6E09E1
Accurately ripped (confidence 4) [99E6BE77]
Copy OK

Track 8

Filename J:\Mare Nostrum (Disc 2)\08 - Anonymous - Dors mon cheri.wav

Peak level 82.3 %
Extraction speed 4.1 X
Track quality 100.0 %
Test CRC 5BDA8134
Copy CRC 5BDA8134
Accurately ripped (confidence 4) [3B52A5EF]
Copy OK

Track 9

Filename J:\Mare Nostrum (Disc 2)\09 - Anonymous - El cant dels Aucells.wav

Peak level 52.2 %
Extraction speed 4.7 X
Track quality 100.0 %
Test CRC 6E28CB96
Copy CRC 6E28CB96
Accurately ripped (confidence 4) [B49E8183]
Copy OK

Track 10

Filename J:\Mare Nostrum (Disc 2)\10 - Anonymous - Hon Tahon.wav

Peak level 69.8 %
Extraction speed 4.7 X
Track quality 100.0 %
Test CRC 5CCC36CA
Copy CRC 5CCC36CA
Accurately ripped (confidence 4) [A5E47CC3]
Copy OK

Track 11

Filename J:\Mare Nostrum (Disc 2)\11 - Anonymous - Taksim & Makam ''Rast Murass'a''.wav

Peak level 62.7 %
Extraction speed 4.8 X
Track quality 99.9 %
Test CRC 617FAC29
Copy CRC 617FAC29
Accurately ripped (confidence 4) [B55EF602]
Copy OK

Track 12

Filename J:\Mare Nostrum (Disc 2)\12 - Anonymous - Adonenu Elohenu.wav

Peak level 90.9 %
Extraction speed 5.7 X
Track quality 100.0 %
Test CRC 882F84C3
Copy CRC 882F84C3
Accurately ripped (confidence 4) [20CF30F8]
Copy OK

Track 13

Filename J:\Mare Nostrum (Disc 2)\13 - Anonymous - Intro & Danse Bulgare.wav

Peak level 50.3 %
Extraction speed 5.6 X
Track quality 100.0 %
Test CRC 7CD19302
Copy CRC 7CD19302
Accurately ripped (confidence 4) [F7997382]
Copy OK

Track 14

Filename J:\Mare Nostrum (Disc 2)\14 - Ferran Savall - Mireu el nostre mar.wav

Peak level 93.8 %
Extraction speed 6.0 X
Track quality 100.0 %
Test CRC 09E294D3
Copy CRC 09E294D3
Accurately ripped (confidence 3) [C82C399B]
Copy OK


All tracks accurately ripped

No errors occurred

End of status report

==== Log checksum F271192CE94F49A693A3139F79E8FDA9E1BA283C7E4CF0E4181AE1BF3E82030E ====


Jordi Savall & Hesperion XXI - Mare Nostrum - Orient - Occident: Dialogues (2011) {2CD Set Alia Vox AVSA 9888}

Jordi Savall & Hesperion XXI - Mare Nostrum - Orient - Occident: Dialogues (2011) {2CD Set Alia Vox AVSA 9888}

Jordi Savall & Hesperion XXI - Mare Nostrum - Orient - Occident: Dialogues (2011) {2CD Set Alia Vox AVSA 9888}


see more Jordi Savall…

NEXT -> more Jordi Savall on the way…


===