Subcategories
Tags
Language
Tags

Seven Steps To The Green Door - The? Lie (2019)

Posted By: delpotro
Seven Steps To The Green Door - The? Lie (2019)

Seven Steps To The Green Door - The? Lie (2019)
EAC Rip | FLAC (tracks+log+.cue) - 349 Mb | Scans - 599 Mb | 00:53:28
Progressive Rock | Label: Progressive Promotion Records

Seminal progressive crossover band "seven steps to the green door" from Germany is back with the new album "THE?LIE" -and surprise us with the second part of their concept trilogy "THE?BOOK", in which authors and band deal critically with religious fanaticism.
Tracklist:
1. AΩ I (02:56)
2. Salvation (03:18)
3. A Price To Pray I (02:51)
4. A Dream That Strayed I (04:35)
5. A Price To Pray II (05:10)
6. A Dream That Strayed II (03:00)
7. AΩ II (02:53)
8. Heaven (01:30)
9. The Word Made Flesh (07:05)
10. Hear My Voice Tonight (09:57)
11. Come To Your Father (10:07)

Exact Audio Copy V1.3 from 2. September 2016

EAC extraction logfile from 13. April 2019, 13:48

Seven Steps To The Green Door / The?Lie

Used drive : HL-DT-STDVDRAM GUC0N Adapter: 1 ID: 0

Read mode : Secure
Utilize accurate stream : Yes
Defeat audio cache : Yes
Make use of C2 pointers : No

Read offset correction : 6
Overread into Lead-In and Lead-Out : No
Fill up missing offset samples with silence : Yes
Delete leading and trailing silent blocks : No
Null samples used in CRC calculations : Yes
Used interface : Native Win32 interface for Win NT & 2000
Gap handling : Appended to previous track

Used output format : User Defined Encoder
Selected bitrate : 1024 kBit/s
Quality : High
Add ID3 tag : No
Command line compressor : C:\Program Files (x86)\Exact Audio Copy\Flac\flac.exe
Additional command line options : -8 -V -T "ARTIST=%artist%" -T "TITLE=%title%" -T "ALBUM=%albumtitle%" -T "DATE=%year%" -T "TRACKNUMBER=%tracknr%" -T "TOTALTRACKS=%numtracks%" -T "GENRE=%genre%" -T "ALBUMARTIST=%albumartist%" -T "ALBUM ARTIST=%albumartist%" -T "COMMENT=EAC Secure Mode, Test & Copy, AccurateRip, FLAC -8" %source%


TOC of the extracted CD

Track | Start | Length | Start sector | End sector
––––––––––––––––––––––––––––-
1 | 0:00.00 | 2:56.69 | 0 | 13268
2 | 2:56.69 | 3:18.58 | 13269 | 28176
3 | 6:15.52 | 2:51.23 | 28177 | 41024
4 | 9:07.00 | 4:35.24 | 41025 | 61673
5 | 13:42.24 | 5:10.58 | 61674 | 84981
6 | 18:53.07 | 3:00.33 | 84982 | 98514
7 | 21:53.40 | 2:53.74 | 98515 | 111563
8 | 24:47.39 | 1:30.44 | 111564 | 118357
9 | 26:18.08 | 7:05.43 | 118358 | 150275
10 | 33:23.51 | 9:57.06 | 150276 | 195056
11 | 43:20.57 | 10:07.44 | 195057 | 240625


Track 1

Filename D:\My RIPS\SEVEN STEPS TO THE GREEN DOOR - COLECTION\5. THE LIE ( THEBOOK, part 2)\01 - A - I.wav

Pre-gap length 0:00:02.00

Peak level 98.8 %
Extraction speed 1.0 X
Track quality 99.9 %
Test CRC 73482BCB
Copy CRC 73482BCB
Track not present in AccurateRip database
Copy OK

Track 2

Filename D:\My RIPS\SEVEN STEPS TO THE GREEN DOOR - COLECTION\5. THE LIE ( THEBOOK, part 2)\02 - Salvation.wav

Peak level 98.8 %
Extraction speed 1.3 X
Track quality 100.0 %
Test CRC C86C1DF4
Copy CRC C86C1DF4
Track not present in AccurateRip database
Copy OK

Track 3

Filename D:\My RIPS\SEVEN STEPS TO THE GREEN DOOR - COLECTION\5. THE LIE ( THEBOOK, part 2)\03 - A Price To Pray - I.wav

Peak level 98.8 %
Extraction speed 1.2 X
Track quality 99.9 %
Test CRC 1028A1F9
Copy CRC 1028A1F9
Track not present in AccurateRip database
Copy OK

Track 4

Filename D:\My RIPS\SEVEN STEPS TO THE GREEN DOOR - COLECTION\5. THE LIE ( THEBOOK, part 2)\04 - A Dream That Strayed - I.wav

Peak level 98.8 %
Extraction speed 1.6 X
Track quality 100.0 %
Test CRC 114CC852
Copy CRC 114CC852
Track not present in AccurateRip database
Copy OK

Track 5

Filename D:\My RIPS\SEVEN STEPS TO THE GREEN DOOR - COLECTION\5. THE LIE ( THEBOOK, part 2)\05 - A Price To Pray - II.wav

Peak level 98.8 %
Extraction speed 1.6 X
Track quality 99.9 %
Test CRC 1B83CD62
Copy CRC 1B83CD62
Track not present in AccurateRip database
Copy OK

Track 6

Filename D:\My RIPS\SEVEN STEPS TO THE GREEN DOOR - COLECTION\5. THE LIE ( THEBOOK, part 2)\06 - A Dream That Strayed - II.wav

Peak level 98.8 %
Extraction speed 1.7 X
Track quality 100.0 %
Test CRC 6E14744C
Copy CRC 6E14744C
Track not present in AccurateRip database
Copy OK

Track 7

Filename D:\My RIPS\SEVEN STEPS TO THE GREEN DOOR - COLECTION\5. THE LIE ( THEBOOK, part 2)\07 - A - Ii.wav

Peak level 98.8 %
Extraction speed 1.7 X
Track quality 100.0 %
Test CRC 6C4C9DC0
Copy CRC 6C4C9DC0
Track not present in AccurateRip database
Copy OK

Track 8

Filename D:\My RIPS\SEVEN STEPS TO THE GREEN DOOR - COLECTION\5. THE LIE ( THEBOOK, part 2)\08 - Heaven.wav

Peak level 98.8 %
Extraction speed 1.5 X
Track quality 100.0 %
Test CRC BD3D588D
Copy CRC BD3D588D
Track not present in AccurateRip database
Copy OK

Track 9

Filename D:\My RIPS\SEVEN STEPS TO THE GREEN DOOR - COLECTION\5. THE LIE ( THEBOOK, part 2)\09 - The Word Made Flesh.wav

Peak level 98.8 %
Extraction speed 0.0 X
Track quality 99.9 %
Test CRC 0D51CE01
Copy CRC 0D51CE01
Track not present in AccurateRip database
Copy OK

Track 10

Filename D:\My RIPS\SEVEN STEPS TO THE GREEN DOOR - COLECTION\5. THE LIE ( THEBOOK, part 2)\10 - Hear My Voice Tonight.wav

Peak level 98.8 %
Extraction speed 2.3 X
Track quality 100.0 %
Test CRC 05F5505D
Copy CRC 05F5505D
Track not present in AccurateRip database
Copy OK

Track 11

Filename D:\My RIPS\SEVEN STEPS TO THE GREEN DOOR - COLECTION\5. THE LIE ( THEBOOK, part 2)\11 - Come To Your Father.wav

Peak level 98.8 %
Extraction speed 2.4 X
Track quality 99.9 %
Test CRC ABA68A78
Copy CRC ABA68A78
Track not present in AccurateRip database
Copy OK


None of the tracks are present in the AccurateRip database

No errors occurred

End of status report

–– CUETools DB Plugin V2.1.6

[CTDB TOCID: eoM052j93mI6PA4is8Iwz2dykCQ-] database access error: The remote name could not be resolved: 'db.cuetools.net'


==== Log checksum AB771A53CF6FBD2403A395C69643ACB72EC679C03BC74D9B50DFF26278D5BDBA ====

Thanks to the Original ripper ggeorgi59 !