Tags
Language
Tags
June 2024
Su Mo Tu We Th Fr Sa
26 27 28 29 30 31 1
2 3 4 5 6 7 8
9 10 11 12 13 14 15
16 17 18 19 20 21 22
23 24 25 26 27 28 29
30 1 2 3 4 5 6

Shania Twain - The Woman in Me (Deluxe Edition) (1995/2020)

Posted By: delpotro
Shania Twain - The Woman in Me (Deluxe Edition) (1995/2020)

Shania Twain - The Woman in Me (Deluxe Edition) (1995/2020)
EAC Rip | FLAC (tracks+log+.cue) - 900 Mb | MP3 CBR 320 kbps - 297 Mb | 02:01:03
Country, Pop, Pop Rock, Female Vocal | Label: Mercury Nashville Records

The Deluxe 2CD set contains ‘The Woman In Me’ remastered, plus a second CD with five live performances recorded in December 2019 during Twain’s residency at Zappos Theater at Planet Hollywood, Las Vegas, plus the original single mixes, b-sides and bonus tracks.
Tracklist:
Disc 1 (48:08)
1. Home Ain't Where His Heart Is (Anymore) (04:12)
2. Any Man Of Mine (04:07)
3. Whose Bed Have Your Boots Been Under? (04:25)
4. (If You're Not In It For Love) I'm Outta Here! (04:30)
5. The Woman In Me (Needs The Man In You) (04:50)
6. Is There Life After Love? (04:39)
7. If It Don't Take Two (03:40)
8. You Win My Love (04:26)
9. Raining On Our Love (04:38)
10. Leaving Is The Only Way Out (04:07)
11. No One Needs To Know (03:04)
12. God Bless The Child (01:30)

Disc 2 (01:12:40)
1. You Win My Love (04:52)
2. No One Needs To Know (04:16)
3. Any Man Of Mine (04:08)
4. Whose Bed Have Your Boots Been Under (04:42)
5. (If You’re Not In It For Love) I’m Outta Here (04:57)
6. Whose Bed Have Your Boots Been Under (Dance Mix) (04:48)
7. Any Man Of Mine (Alternate Mix - Without Steel Guitar) (04:15)
8. The Woman In Me (Needs The Man In You) (International Acoustic Version - Without Steel Guitar) (04:41)
9. (If You’re Not In It For Love) I’m Outta Here (Dance Mix) (04:41)
10. (If You’re Not In It For Love) I’m Outta Here (Mutt Lange Mix) (04:22)
11. You Win My Love (Mutt Lange Mix) (04:40)
12. God Bless The Child (Single Mix - Country Version) (03:53)
13. God Bless The Child (Single Mix - Without Banjo) (03:51)
14. (If You’re Not In It For Love) I’m Outta Here (Live - DirecTV Mix) (07:08)
15. Home Ain’t Where His Heart Is (Anymore) / The Woman In Me (Needs The Man In You) / You’ve Got A Way (Medley - DirecTV Mix) (07:26)

Exact Audio Copy V1.3 from 2. September 2016

EAC extraction logfile from 10. August 2021, 9:23

Shania Twain / The Woman in Me

Used drive : HL-DT-STBD-RE BH16NS55 Adapter: 1 ID: 0

Read mode : Secure
Utilize accurate stream : Yes
Defeat audio cache : Yes
Make use of C2 pointers : No

Read offset correction : 6
Overread into Lead-In and Lead-Out : No
Fill up missing offset samples with silence : Yes
Delete leading and trailing silent blocks : No
Null samples used in CRC calculations : Yes
Used interface : Native Win32 interface for Win NT & 2000
Gap handling : Appended to previous track

Used output format : User Defined Encoder
Selected bitrate : 1024 kBit/s
Quality : High
Add ID3 tag : No
Command line compressor : C:\Program Files (x86)\Exact Audio Copy\Flac\flac.exe
Additional command line options : -8 -V -T "ARTIST=%artist%" -T "TITLE=%title%" -T "ALBUM=%albumtitle%" -T "DATE=%year%" -T "TRACKNUMBER=%tracknr%" -T "GENRE=%genre%" -T "PERFORMER=%albuminterpret%" -T "COMPOSER=%composer%" %haslyrics%–tag-from-file=LYRICS="%lyricsfile%"%haslyrics% -T "ALBUMARTIST=%albumartist%" -T "DISCNUMBER=%cdnumber%" -T "TOTALDISCS=%totalcds%" -T "TOTALTRACKS=%numtracks%" -T "COMMENT=%comment%" %source% -o %dest%


TOC of the extracted CD

Track | Start | Length | Start sector | End sector
––––––––––––––––––––––––––––-
1 | 0:00.00 | 4:12.08 | 0 | 18907
2 | 4:12.08 | 4:06.59 | 18908 | 37416
3 | 8:18.67 | 4:24.45 | 37417 | 57261
4 | 12:43.37 | 4:30.25 | 57262 | 77536
5 | 17:13.62 | 4:50.43 | 77537 | 99329
6 | 22:04.30 | 4:38.63 | 99330 | 120242
7 | 26:43.18 | 3:40.31 | 120243 | 136773
8 | 30:23.49 | 4:27.16 | 136774 | 156814
9 | 34:50.65 | 4:38.71 | 156815 | 177735
10 | 39:29.61 | 4:07.65 | 177736 | 196325
11 | 43:37.51 | 3:07.16 | 196326 | 210366
12 | 46:44.67 | 1:32.23 | 210367 | 217289


Track 1

Filename F:\#EAC wav+flac\#Add\Shania Twain - The Woman in Me\cd 1\01. Shania Twain - Home Ain’t Where His Heart Is (Anymore).wav

Pre-gap length 0:00:02.00

Peak level 96.5 %
Extraction speed 2.0 X
Track quality 100.0 %
Test CRC 03BADF49
Copy CRC 03BADF49
Accurately ripped (confidence 3) [B737B2A7] (AR v2)
Copy OK

Track 2

Filename F:\#EAC wav+flac\#Add\Shania Twain - The Woman in Me\cd 1\02. Shania Twain - Any Man of Mine.wav

Peak level 96.5 %
Extraction speed 2.2 X
Track quality 100.0 %
Test CRC BD44C3B8
Copy CRC BD44C3B8
Accurately ripped (confidence 3) [D819763D] (AR v2)
Copy OK

Track 3

Filename F:\#EAC wav+flac\#Add\Shania Twain - The Woman in Me\cd 1\03. Shania Twain - Whose Bed Have Your Boots Been Under.wav

Peak level 96.5 %
Extraction speed 1.8 X
Track quality 99.9 %
Test CRC 0A0266F9
Copy CRC 0A0266F9
Accurately ripped (confidence 3) [5849839D] (AR v2)
Copy OK

Track 4

Filename F:\#EAC wav+flac\#Add\Shania Twain - The Woman in Me\cd 1\04. Shania Twain - (If You’re Not in It for Love) I’m Outta Here!.wav

Peak level 96.5 %
Extraction speed 2.7 X
Track quality 100.0 %
Test CRC 5B0764AE
Copy CRC 5B0764AE
Accurately ripped (confidence 3) [E82ECFDB] (AR v2)
Copy OK

Track 5

Filename F:\#EAC wav+flac\#Add\Shania Twain - The Woman in Me\cd 1\05. Shania Twain - The Woman in Me (Needs the Man in You).wav

Peak level 96.5 %
Extraction speed 2.9 X
Track quality 100.0 %
Test CRC 6208F011
Copy CRC 6208F011
Accurately ripped (confidence 3) [C759955A] (AR v2)
Copy OK

Track 6

Filename F:\#EAC wav+flac\#Add\Shania Twain - The Woman in Me\cd 1\06. Shania Twain - Is There Life After Love.wav

Peak level 96.4 %
Extraction speed 3.1 X
Track quality 100.0 %
Test CRC A18DACBC
Copy CRC A18DACBC
Accurately ripped (confidence 3) [0CACFACC] (AR v2)
Copy OK

Track 7

Filename F:\#EAC wav+flac\#Add\Shania Twain - The Woman in Me\cd 1\07. Shania Twain - If It Don’t Take Two.wav

Peak level 96.5 %
Extraction speed 2.2 X
Track quality 99.9 %
Test CRC A2F78588
Copy CRC A2F78588
Accurately ripped (confidence 3) [9FA86F73] (AR v2)
Copy OK

Track 8

Filename F:\#EAC wav+flac\#Add\Shania Twain - The Woman in Me\cd 1\08. Shania Twain - You Win My Love.wav

Peak level 96.5 %
Extraction speed 2.5 X
Track quality 99.9 %
Test CRC 453BAA83
Copy CRC 453BAA83
Accurately ripped (confidence 3) [9604BF17] (AR v2)
Copy OK

Track 9

Filename F:\#EAC wav+flac\#Add\Shania Twain - The Woman in Me\cd 1\09. Shania Twain - Raining on Our Love.wav

Peak level 96.4 %
Extraction speed 3.5 X
Track quality 100.0 %
Test CRC 370F054B
Copy CRC 370F054B
Accurately ripped (confidence 3) [6F9343F8] (AR v2)
Copy OK

Track 10

Filename F:\#EAC wav+flac\#Add\Shania Twain - The Woman in Me\cd 1\10. Shania Twain - Leaving Is the Only Way Out.wav

Peak level 96.5 %
Extraction speed 3.6 X
Track quality 100.0 %
Test CRC 656438D7
Copy CRC 656438D7
Accurately ripped (confidence 3) [CD28930D] (AR v2)
Copy OK

Track 11

Filename F:\#EAC wav+flac\#Add\Shania Twain - The Woman in Me\cd 1\11. Shania Twain - No One Needs to Know.wav

Peak level 96.5 %
Extraction speed 2.4 X
Track quality 99.9 %
Test CRC 0C57FE9D
Copy CRC 0C57FE9D
Accurately ripped (confidence 3) [2D677BCA] (AR v2)
Copy OK

Track 12

Filename F:\#EAC wav+flac\#Add\Shania Twain - The Woman in Me\cd 1\12. Shania Twain - God Bless the Child.wav

Peak level 94.2 %
Extraction speed 1.7 X
Track quality 99.8 %
Test CRC EFA6BF74
Copy CRC EFA6BF74
Accurately ripped (confidence 3) [4DAEF702] (AR v2)
Copy OK


All tracks accurately ripped

No errors occurred

End of status report

–– CUETools DB Plugin V2.1.6

[CTDB TOCID: _dRpwn.fqpHRXzPu1ca6y4s7dr8-] found
Submit result: _dRpwn.fqpHRXzPu1ca6y4s7dr8- has been confirmed
Track | CTDB Status
1 | (23/23) Accurately ripped
2 | (23/23) Accurately ripped
3 | (23/23) Accurately ripped
4 | (23/23) Accurately ripped
5 | (23/23) Accurately ripped
6 | (23/23) Accurately ripped
7 | (23/23) Accurately ripped
8 | (23/23) Accurately ripped
9 | (23/23) Accurately ripped
10 | (23/23) Accurately ripped
11 | (23/23) Accurately ripped
12 | (23/23) Accurately ripped


==== Log checksum 8D8A634445A4E0289252BCCAF14B20CA695836578495BD60575F0CD7510CA524 ====

––––––––––––––––––––––––––––––

Exact Audio Copy V1.3 from 2. September 2016

EAC extraction logfile from 10. August 2021, 9:24

Shania Twain / The Woman in Me

Used drive : HL-DT-STBD-RE BH16NS55 Adapter: 1 ID: 0

Read mode : Secure
Utilize accurate stream : Yes
Defeat audio cache : Yes
Make use of C2 pointers : No

Read offset correction : 6
Overread into Lead-In and Lead-Out : No
Fill up missing offset samples with silence : Yes
Delete leading and trailing silent blocks : No
Null samples used in CRC calculations : Yes
Used interface : Native Win32 interface for Win NT & 2000
Gap handling : Appended to previous track

Used output format : User Defined Encoder
Selected bitrate : 1024 kBit/s
Quality : High
Add ID3 tag : No
Command line compressor : C:\Program Files (x86)\Exact Audio Copy\Flac\flac.exe
Additional command line options : -8 -V -T "ARTIST=%artist%" -T "TITLE=%title%" -T "ALBUM=%albumtitle%" -T "DATE=%year%" -T "TRACKNUMBER=%tracknr%" -T "GENRE=%genre%" -T "PERFORMER=%albuminterpret%" -T "COMPOSER=%composer%" %haslyrics%–tag-from-file=LYRICS="%lyricsfile%"%haslyrics% -T "ALBUMARTIST=%albumartist%" -T "DISCNUMBER=%cdnumber%" -T "TOTALDISCS=%totalcds%" -T "TOTALTRACKS=%numtracks%" -T "COMMENT=%comment%" %source% -o %dest%


TOC of the extracted CD

Track | Start | Length | Start sector | End sector
––––––––––––––––––––––––––––-
1 | 0:00.00 | 4:12.08 | 0 | 18907
2 | 4:12.08 | 4:06.59 | 18908 | 37416
3 | 8:18.67 | 4:24.45 | 37417 | 57261
4 | 12:43.37 | 4:30.25 | 57262 | 77536
5 | 17:13.62 | 4:50.43 | 77537 | 99329
6 | 22:04.30 | 4:38.63 | 99330 | 120242
7 | 26:43.18 | 3:40.31 | 120243 | 136773
8 | 30:23.49 | 4:27.16 | 136774 | 156814
9 | 34:50.65 | 4:38.71 | 156815 | 177735
10 | 39:29.61 | 4:07.65 | 177736 | 196325
11 | 43:37.51 | 3:07.16 | 196326 | 210366
12 | 46:44.67 | 1:32.23 | 210367 | 217289


Track 1

Filename F:\#EAC wav+flac\#Add\Shania Twain - The Woman in Me\cd 1\01. Shania Twain - Home Ain’t Where His Heart Is (Anymore).wav

Pre-gap length 0:00:02.00

Peak level 96.5 %
Extraction speed 2.0 X
Track quality 100.0 %
Test CRC 03BADF49
Copy CRC 03BADF49
Accurately ripped (confidence 3) [B737B2A7] (AR v2)
Copy OK

Track 2

Filename F:\#EAC wav+flac\#Add\Shania Twain - The Woman in Me\cd 1\02. Shania Twain - Any Man of Mine.wav

Peak level 96.5 %
Extraction speed 2.2 X
Track quality 100.0 %
Test CRC BD44C3B8
Copy CRC BD44C3B8
Accurately ripped (confidence 3) [D819763D] (AR v2)
Copy OK

Track 3

Filename F:\#EAC wav+flac\#Add\Shania Twain - The Woman in Me\cd 1\03. Shania Twain - Whose Bed Have Your Boots Been Under.wav

Peak level 96.5 %
Extraction speed 1.8 X
Track quality 99.9 %
Test CRC 0A0266F9
Copy CRC 0A0266F9
Accurately ripped (confidence 3) [5849839D] (AR v2)
Copy OK

Track 4

Filename F:\#EAC wav+flac\#Add\Shania Twain - The Woman in Me\cd 1\04. Shania Twain - (If You’re Not in It for Love) I’m Outta Here!.wav

Peak level 96.5 %
Extraction speed 2.7 X
Track quality 100.0 %
Test CRC 5B0764AE
Copy CRC 5B0764AE
Accurately ripped (confidence 3) [E82ECFDB] (AR v2)
Copy OK

Track 5

Filename F:\#EAC wav+flac\#Add\Shania Twain - The Woman in Me\cd 1\05. Shania Twain - The Woman in Me (Needs the Man in You).wav

Peak level 96.5 %
Extraction speed 2.9 X
Track quality 100.0 %
Test CRC 6208F011
Copy CRC 6208F011
Accurately ripped (confidence 3) [C759955A] (AR v2)
Copy OK

Track 6

Filename F:\#EAC wav+flac\#Add\Shania Twain - The Woman in Me\cd 1\06. Shania Twain - Is There Life After Love.wav

Peak level 96.4 %
Extraction speed 3.1 X
Track quality 100.0 %
Test CRC A18DACBC
Copy CRC A18DACBC
Accurately ripped (confidence 3) [0CACFACC] (AR v2)
Copy OK

Track 7

Filename F:\#EAC wav+flac\#Add\Shania Twain - The Woman in Me\cd 1\07. Shania Twain - If It Don’t Take Two.wav

Peak level 96.5 %
Extraction speed 2.2 X
Track quality 99.9 %
Test CRC A2F78588
Copy CRC A2F78588
Accurately ripped (confidence 3) [9FA86F73] (AR v2)
Copy OK

Track 8

Filename F:\#EAC wav+flac\#Add\Shania Twain - The Woman in Me\cd 1\08. Shania Twain - You Win My Love.wav

Peak level 96.5 %
Extraction speed 2.5 X
Track quality 99.9 %
Test CRC 453BAA83
Copy CRC 453BAA83
Accurately ripped (confidence 3) [9604BF17] (AR v2)
Copy OK

Track 9

Filename F:\#EAC wav+flac\#Add\Shania Twain - The Woman in Me\cd 1\09. Shania Twain - Raining on Our Love.wav

Peak level 96.4 %
Extraction speed 3.5 X
Track quality 100.0 %
Test CRC 370F054B
Copy CRC 370F054B
Accurately ripped (confidence 3) [6F9343F8] (AR v2)
Copy OK

Track 10

Filename F:\#EAC wav+flac\#Add\Shania Twain - The Woman in Me\cd 1\10. Shania Twain - Leaving Is the Only Way Out.wav

Peak level 96.5 %
Extraction speed 3.6 X
Track quality 100.0 %
Test CRC 656438D7
Copy CRC 656438D7
Accurately ripped (confidence 3) [CD28930D] (AR v2)
Copy OK

Track 11

Filename F:\#EAC wav+flac\#Add\Shania Twain - The Woman in Me\cd 1\11. Shania Twain - No One Needs to Know.wav

Peak level 96.5 %
Extraction speed 2.4 X
Track quality 99.9 %
Test CRC 0C57FE9D
Copy CRC 0C57FE9D
Accurately ripped (confidence 3) [2D677BCA] (AR v2)
Copy OK

Track 12

Filename F:\#EAC wav+flac\#Add\Shania Twain - The Woman in Me\cd 1\12. Shania Twain - God Bless the Child.wav

Peak level 94.2 %
Extraction speed 1.7 X
Track quality 99.8 %
Test CRC EFA6BF74
Copy CRC EFA6BF74
Accurately ripped (confidence 3) [4DAEF702] (AR v2)
Copy OK


All tracks accurately ripped

No errors occurred

End of status report

–– CUETools DB Plugin V2.1.6

[CTDB TOCID: _dRpwn.fqpHRXzPu1ca6y4s7dr8-] found
Submit result: _dRpwn.fqpHRXzPu1ca6y4s7dr8- has been confirmed
Track | CTDB Status
1 | (23/23) Accurately ripped
2 | (23/23) Accurately ripped
3 | (23/23) Accurately ripped
4 | (23/23) Accurately ripped
5 | (23/23) Accurately ripped
6 | (23/23) Accurately ripped
7 | (23/23) Accurately ripped
8 | (23/23) Accurately ripped
9 | (23/23) Accurately ripped
10 | (23/23) Accurately ripped
11 | (23/23) Accurately ripped
12 | (23/23) Accurately ripped


==== Log checksum 03F822245C736AC42EA2A2304D636E9FC2741A35DE1404CE3C6B6AFF71DC14B4 ====
Exact Audio Copy V1.3 from 2. September 2016

EAC extraction logfile from 10. August 2021, 10:10

Shania Twain / The Woman In Me

Used drive : HL-DT-STBD-RE BH16NS55 Adapter: 1 ID: 0

Read mode : Secure
Utilize accurate stream : Yes
Defeat audio cache : Yes
Make use of C2 pointers : No

Read offset correction : 6
Overread into Lead-In and Lead-Out : No
Fill up missing offset samples with silence : Yes
Delete leading and trailing silent blocks : No
Null samples used in CRC calculations : Yes
Used interface : Native Win32 interface for Win NT & 2000
Gap handling : Appended to previous track

Used output format : User Defined Encoder
Selected bitrate : 1024 kBit/s
Quality : High
Add ID3 tag : No
Command line compressor : C:\Program Files (x86)\Exact Audio Copy\Flac\flac.exe
Additional command line options : -8 -V -T "ARTIST=%artist%" -T "TITLE=%title%" -T "ALBUM=%albumtitle%" -T "DATE=%year%" -T "TRACKNUMBER=%tracknr%" -T "GENRE=%genre%" -T "PERFORMER=%albuminterpret%" -T "COMPOSER=%composer%" %haslyrics%–tag-from-file=LYRICS="%lyricsfile%"%haslyrics% -T "ALBUMARTIST=%albumartist%" -T "DISCNUMBER=%cdnumber%" -T "TOTALDISCS=%totalcds%" -T "TOTALTRACKS=%numtracks%" -T "COMMENT=%comment%" %source% -o %dest%


TOC of the extracted CD

Track | Start | Length | Start sector | End sector
––––––––––––––––––––––––––––-
1 | 0:00.00 | 4:52.02 | 0 | 21901
2 | 4:52.02 | 4:16.45 | 21902 | 41146
3 | 9:08.47 | 4:08.10 | 41147 | 59756
4 | 13:16.57 | 4:42.22 | 59757 | 80928
5 | 17:59.04 | 4:57.29 | 80929 | 103232
6 | 22:56.33 | 4:48.58 | 103233 | 124890
7 | 27:45.16 | 4:15.46 | 124891 | 144061
8 | 32:00.62 | 4:41.56 | 144062 | 165192
9 | 36:42.43 | 4:41.70 | 165193 | 186337
10 | 41:24.38 | 4:21.56 | 186338 | 205968
11 | 45:46.19 | 4:40.54 | 205969 | 227022
12 | 50:26.73 | 3:53.08 | 227023 | 244505
13 | 54:20.06 | 3:51.44 | 244506 | 261874
14 | 58:11.50 | 7:08.13 | 261875 | 293987
15 | 65:19.63 | 7:26.04 | 293988 | 327441


Track 1

Filename F:\#EAC wav+flac\#Add\Shania Twain - The Woman in Me\cd 2\01. Shania Twain - You Win My Love (Live From Vegas).wav

Pre-gap length 0:00:02.00

Peak level 96.5 %
Extraction speed 2.3 X
Track quality 100.0 %
Test CRC 3B115790
Copy CRC 3B115790
Accurately ripped (confidence 3) [8C20F51C] (AR v2)
Copy OK

Track 2

Filename F:\#EAC wav+flac\#Add\Shania Twain - The Woman in Me\cd 2\02. Shania Twain - No One Needs To Know (Live From Vegas).wav

Peak level 96.4 %
Extraction speed 1.9 X
Track quality 99.9 %
Test CRC 92E07223
Copy CRC 92E07223
Accurately ripped (confidence 3) [FC751B04] (AR v2)
Copy OK

Track 3

Filename F:\#EAC wav+flac\#Add\Shania Twain - The Woman in Me\cd 2\03. Shania Twain - Any Man Of Mine (Live From Vegas).wav

Peak level 96.4 %
Extraction speed 2.7 X
Track quality 100.0 %
Test CRC 58E3A9DE
Copy CRC 58E3A9DE
Accurately ripped (confidence 3) [7907A52F] (AR v2)
Copy OK

Track 4

Filename F:\#EAC wav+flac\#Add\Shania Twain - The Woman in Me\cd 2\04. Shania Twain - Whose Bed Have Your Boots Been Under (Live From Vegas).wav

Peak level 96.5 %
Extraction speed 3.0 X
Track quality 100.0 %
Test CRC 05B92F41
Copy CRC 05B92F41
Accurately ripped (confidence 3) [6C47C642] (AR v2)
Copy OK

Track 5

Filename F:\#EAC wav+flac\#Add\Shania Twain - The Woman in Me\cd 2\05. Shania Twain - (If You’re Not In It For Love) I’M Outta Here! (Live From Vegas).wav

Peak level 96.5 %
Extraction speed 3.2 X
Track quality 100.0 %
Test CRC 64D36FE2
Copy CRC 64D36FE2
Accurately ripped (confidence 3) [48B3E725] (AR v2)
Copy OK

Track 6

Filename F:\#EAC wav+flac\#Add\Shania Twain - The Woman in Me\cd 2\06. Shania Twain - Whose Bed Have Your Boots Been Under (Dance Mix).wav

Peak level 96.5 %
Extraction speed 3.4 X
Track quality 100.0 %
Test CRC 19EFC530
Copy CRC 19EFC530
Accurately ripped (confidence 3) [91052F36] (AR v2)
Copy OK

Track 7

Filename F:\#EAC wav+flac\#Add\Shania Twain - The Woman in Me\cd 2\07. Shania Twain - Any Man Of Mine (Alternate Mix Without Steel Guitar).wav

Peak level 96.5 %
Extraction speed 2.6 X
Track quality 99.9 %
Test CRC 597AC705
Copy CRC 597AC705
Accurately ripped (confidence 3) [19D2D69C] (AR v2)
Copy OK

Track 8

Filename F:\#EAC wav+flac\#Add\Shania Twain - The Woman in Me\cd 2\08. Shania Twain - The Woman In Me (Needs The Man In You) (International Acoustic Version Without Steel Guitar).wav

Peak level 96.5 %
Extraction speed 3.7 X
Track quality 100.0 %
Test CRC 214AED2C
Copy CRC 214AED2C
Accurately ripped (confidence 3) [4509F6C1] (AR v2)
Copy OK

Track 9

Filename F:\#EAC wav+flac\#Add\Shania Twain - The Woman in Me\cd 2\09. Shania Twain - (If You’re Not In It For Love) I’m Outta Here! (Dance Mix).wav

Peak level 96.5 %
Extraction speed 3.9 X
Track quality 100.0 %
Test CRC 23E1C4DA
Copy CRC 23E1C4DA
Accurately ripped (confidence 3) [2AC6D7E8] (AR v2)
Copy OK

Track 10

Filename F:\#EAC wav+flac\#Add\Shania Twain - The Woman in Me\cd 2\10. Shania Twain - (If You’re Not In It For Love) I’m Outta Here! (Mutt Lange Mix).wav

Peak level 96.5 %
Extraction speed 3.8 X
Track quality 100.0 %
Test CRC 384C55BB
Copy CRC 384C55BB
Accurately ripped (confidence 3) [3931F309] (AR v2)
Copy OK

Track 11

Filename F:\#EAC wav+flac\#Add\Shania Twain - The Woman in Me\cd 2\11. Shania Twain - You Win My Love (Mutt Lange Mix).wav

Peak level 96.5 %
Extraction speed 4.1 X
Track quality 100.0 %
Test CRC 2D8FB0B8
Copy CRC 2D8FB0B8
Accurately ripped (confidence 3) [DADA6B05] (AR v2)
Copy OK

Track 12

Filename F:\#EAC wav+flac\#Add\Shania Twain - The Woman in Me\cd 2\12. Shania Twain - God Bless The Child (Single Mix Country Version).wav

Peak level 96.4 %
Extraction speed 3.9 X
Track quality 100.0 %
Test CRC 3BF0E523
Copy CRC 3BF0E523
Accurately ripped (confidence 3) [CF876E85] (AR v2)
Copy OK

Track 13

Filename F:\#EAC wav+flac\#Add\Shania Twain - The Woman in Me\cd 2\13. Shania Twain - God Bless The Child (Single Mix Without Banjo).wav

Peak level 96.5 %
Extraction speed 4.3 X
Track quality 100.0 %
Test CRC 043CC63F
Copy CRC 043CC63F
Accurately ripped (confidence 3) [54938951] (AR v2)
Copy OK

Track 14

Filename F:\#EAC wav+flac\#Add\Shania Twain - The Woman in Me\cd 2\14. Shania Twain - (If You’re Not In It For Love) I’m Outta Here! (Live At Reunion Arena, Dallas, 1998).wav

Peak level 96.5 %
Extraction speed 4.7 X
Track quality 100.0 %
Test CRC 64C305CC
Copy CRC 64C305CC
Accurately ripped (confidence 3) [7F9C56A6] (AR v2)
Copy OK

Track 15

Filename F:\#EAC wav+flac\#Add\Shania Twain - The Woman in Me\cd 2\15. Shania Twain - Medley (Live At Reunion Arena, Dallas, 1998).wav

Peak level 96.5 %
Extraction speed 4.9 X
Track quality 100.0 %
Test CRC B7E67135
Copy CRC B7E67135
Accurately ripped (confidence 3) [6D5D5D9F] (AR v2)
Copy OK


All tracks accurately ripped

No errors occurred

End of status report

–– CUETools DB Plugin V2.1.6

[CTDB TOCID: 3wUxPtOgwkWfML7wZEi6eS0JSDY-] found
Submit result: 3wUxPtOgwkWfML7wZEi6eS0JSDY- has been confirmed
Track | CTDB Status
1 | (21/21) Accurately ripped
2 | (21/21) Accurately ripped
3 | (21/21) Accurately ripped
4 | (21/21) Accurately ripped
5 | (21/21) Accurately ripped
6 | (21/21) Accurately ripped
7 | (21/21) Accurately ripped
8 | (21/21) Accurately ripped
9 | (20/21) Accurately ripped
10 | (20/21) Accurately ripped
11 | (21/21) Accurately ripped
12 | (21/21) Accurately ripped
13 | (20/21) Accurately ripped
14 | (21/21) Accurately ripped
15 | (21/21) Accurately ripped


==== Log checksum F94DA202069425DFE11CB92EB1EEFEEB4DF260B6F047CDDA406D2DCD0A91F6F0 ====

––––––––––––––––––––––––––––––

Exact Audio Copy V1.3 from 2. September 2016

EAC extraction logfile from 10. August 2021, 10:10

Shania Twain / The Woman In Me

Used drive : HL-DT-STBD-RE BH16NS55 Adapter: 1 ID: 0

Read mode : Secure
Utilize accurate stream : Yes
Defeat audio cache : Yes
Make use of C2 pointers : No

Read offset correction : 6
Overread into Lead-In and Lead-Out : No
Fill up missing offset samples with silence : Yes
Delete leading and trailing silent blocks : No
Null samples used in CRC calculations : Yes
Used interface : Native Win32 interface for Win NT & 2000
Gap handling : Appended to previous track

Used output format : User Defined Encoder
Selected bitrate : 1024 kBit/s
Quality : High
Add ID3 tag : No
Command line compressor : C:\Program Files (x86)\Exact Audio Copy\Flac\flac.exe
Additional command line options : -8 -V -T "ARTIST=%artist%" -T "TITLE=%title%" -T "ALBUM=%albumtitle%" -T "DATE=%year%" -T "TRACKNUMBER=%tracknr%" -T "GENRE=%genre%" -T "PERFORMER=%albuminterpret%" -T "COMPOSER=%composer%" %haslyrics%–tag-from-file=LYRICS="%lyricsfile%"%haslyrics% -T "ALBUMARTIST=%albumartist%" -T "DISCNUMBER=%cdnumber%" -T "TOTALDISCS=%totalcds%" -T "TOTALTRACKS=%numtracks%" -T "COMMENT=%comment%" %source% -o %dest%


TOC of the extracted CD

Track | Start | Length | Start sector | End sector
––––––––––––––––––––––––––––-
1 | 0:00.00 | 4:52.02 | 0 | 21901
2 | 4:52.02 | 4:16.45 | 21902 | 41146
3 | 9:08.47 | 4:08.10 | 41147 | 59756
4 | 13:16.57 | 4:42.22 | 59757 | 80928
5 | 17:59.04 | 4:57.29 | 80929 | 103232
6 | 22:56.33 | 4:48.58 | 103233 | 124890
7 | 27:45.16 | 4:15.46 | 124891 | 144061
8 | 32:00.62 | 4:41.56 | 144062 | 165192
9 | 36:42.43 | 4:41.70 | 165193 | 186337
10 | 41:24.38 | 4:21.56 | 186338 | 205968
11 | 45:46.19 | 4:40.54 | 205969 | 227022
12 | 50:26.73 | 3:53.08 | 227023 | 244505
13 | 54:20.06 | 3:51.44 | 244506 | 261874
14 | 58:11.50 | 7:08.13 | 261875 | 293987
15 | 65:19.63 | 7:26.04 | 293988 | 327441


Track 1

Filename F:\#EAC wav+flac\#Add\Shania Twain - The Woman in Me\cd 2\01. Shania Twain - You Win My Love (Live From Vegas).wav

Pre-gap length 0:00:02.00

Peak level 96.5 %
Extraction speed 2.3 X
Track quality 100.0 %
Test CRC 3B115790
Copy CRC 3B115790
Accurately ripped (confidence 3) [8C20F51C] (AR v2)
Copy OK

Track 2

Filename F:\#EAC wav+flac\#Add\Shania Twain - The Woman in Me\cd 2\02. Shania Twain - No One Needs To Know (Live From Vegas).wav

Peak level 96.4 %
Extraction speed 1.9 X
Track quality 99.9 %
Test CRC 92E07223
Copy CRC 92E07223
Accurately ripped (confidence 3) [FC751B04] (AR v2)
Copy OK

Track 3

Filename F:\#EAC wav+flac\#Add\Shania Twain - The Woman in Me\cd 2\03. Shania Twain - Any Man Of Mine (Live From Vegas).wav

Peak level 96.4 %
Extraction speed 2.7 X
Track quality 100.0 %
Test CRC 58E3A9DE
Copy CRC 58E3A9DE
Accurately ripped (confidence 3) [7907A52F] (AR v2)
Copy OK

Track 4

Filename F:\#EAC wav+flac\#Add\Shania Twain - The Woman in Me\cd 2\04. Shania Twain - Whose Bed Have Your Boots Been Under (Live From Vegas).wav

Peak level 96.5 %
Extraction speed 3.0 X
Track quality 100.0 %
Test CRC 05B92F41
Copy CRC 05B92F41
Accurately ripped (confidence 3) [6C47C642] (AR v2)
Copy OK

Track 5

Filename F:\#EAC wav+flac\#Add\Shania Twain - The Woman in Me\cd 2\05. Shania Twain - (If You’re Not In It For Love) I’M Outta Here! (Live From Vegas).wav

Peak level 96.5 %
Extraction speed 3.2 X
Track quality 100.0 %
Test CRC 64D36FE2
Copy CRC 64D36FE2
Accurately ripped (confidence 3) [48B3E725] (AR v2)
Copy OK

Track 6

Filename F:\#EAC wav+flac\#Add\Shania Twain - The Woman in Me\cd 2\06. Shania Twain - Whose Bed Have Your Boots Been Under (Dance Mix).wav

Peak level 96.5 %
Extraction speed 3.4 X
Track quality 100.0 %
Test CRC 19EFC530
Copy CRC 19EFC530
Accurately ripped (confidence 3) [91052F36] (AR v2)
Copy OK

Track 7

Filename F:\#EAC wav+flac\#Add\Shania Twain - The Woman in Me\cd 2\07. Shania Twain - Any Man Of Mine (Alternate Mix Without Steel Guitar).wav

Peak level 96.5 %
Extraction speed 2.6 X
Track quality 99.9 %
Test CRC 597AC705
Copy CRC 597AC705
Accurately ripped (confidence 3) [19D2D69C] (AR v2)
Copy OK

Track 8

Filename F:\#EAC wav+flac\#Add\Shania Twain - The Woman in Me\cd 2\08. Shania Twain - The Woman In Me (Needs The Man In You) (International Acoustic Version Without Steel Guitar).wav

Peak level 96.5 %
Extraction speed 3.7 X
Track quality 100.0 %
Test CRC 214AED2C
Copy CRC 214AED2C
Accurately ripped (confidence 3) [4509F6C1] (AR v2)
Copy OK

Track 9

Filename F:\#EAC wav+flac\#Add\Shania Twain - The Woman in Me\cd 2\09. Shania Twain - (If You’re Not In It For Love) I’m Outta Here! (Dance Mix).wav

Peak level 96.5 %
Extraction speed 3.9 X
Track quality 100.0 %
Test CRC 23E1C4DA
Copy CRC 23E1C4DA
Accurately ripped (confidence 3) [2AC6D7E8] (AR v2)
Copy OK

Track 10

Filename F:\#EAC wav+flac\#Add\Shania Twain - The Woman in Me\cd 2\10. Shania Twain - (If You’re Not In It For Love) I’m Outta Here! (Mutt Lange Mix).wav

Peak level 96.5 %
Extraction speed 3.8 X
Track quality 100.0 %
Test CRC 384C55BB
Copy CRC 384C55BB
Accurately ripped (confidence 3) [3931F309] (AR v2)
Copy OK

Track 11

Filename F:\#EAC wav+flac\#Add\Shania Twain - The Woman in Me\cd 2\11. Shania Twain - You Win My Love (Mutt Lange Mix).wav

Peak level 96.5 %
Extraction speed 4.1 X
Track quality 100.0 %
Test CRC 2D8FB0B8
Copy CRC 2D8FB0B8
Accurately ripped (confidence 3) [DADA6B05] (AR v2)
Copy OK

Track 12

Filename F:\#EAC wav+flac\#Add\Shania Twain - The Woman in Me\cd 2\12. Shania Twain - God Bless The Child (Single Mix Country Version).wav

Peak level 96.4 %
Extraction speed 3.9 X
Track quality 100.0 %
Test CRC 3BF0E523
Copy CRC 3BF0E523
Accurately ripped (confidence 3) [CF876E85] (AR v2)
Copy OK

Track 13

Filename F:\#EAC wav+flac\#Add\Shania Twain - The Woman in Me\cd 2\13. Shania Twain - God Bless The Child (Single Mix Without Banjo).wav

Peak level 96.5 %
Extraction speed 4.3 X
Track quality 100.0 %
Test CRC 043CC63F
Copy CRC 043CC63F
Accurately ripped (confidence 3) [54938951] (AR v2)
Copy OK

Track 14

Filename F:\#EAC wav+flac\#Add\Shania Twain - The Woman in Me\cd 2\14. Shania Twain - (If You’re Not In It For Love) I’m Outta Here! (Live At Reunion Arena, Dallas, 1998).wav

Peak level 96.5 %
Extraction speed 4.7 X
Track quality 100.0 %
Test CRC 64C305CC
Copy CRC 64C305CC
Accurately ripped (confidence 3) [7F9C56A6] (AR v2)
Copy OK

Track 15

Filename F:\#EAC wav+flac\#Add\Shania Twain - The Woman in Me\cd 2\15. Shania Twain - Medley (Live At Reunion Arena, Dallas, 1998).wav

Peak level 96.5 %
Extraction speed 4.9 X
Track quality 100.0 %
Test CRC B7E67135
Copy CRC B7E67135
Accurately ripped (confidence 3) [6D5D5D9F] (AR v2)
Copy OK


All tracks accurately ripped

No errors occurred

End of status report

–– CUETools DB Plugin V2.1.6

[CTDB TOCID: 3wUxPtOgwkWfML7wZEi6eS0JSDY-] found
Submit result: 3wUxPtOgwkWfML7wZEi6eS0JSDY- has been confirmed
Track | CTDB Status
1 | (21/21) Accurately ripped
2 | (21/21) Accurately ripped
3 | (21/21) Accurately ripped
4 | (21/21) Accurately ripped
5 | (21/21) Accurately ripped
6 | (21/21) Accurately ripped
7 | (21/21) Accurately ripped
8 | (21/21) Accurately ripped
9 | (20/21) Accurately ripped
10 | (20/21) Accurately ripped
11 | (21/21) Accurately ripped
12 | (21/21) Accurately ripped
13 | (20/21) Accurately ripped
14 | (21/21) Accurately ripped
15 | (21/21) Accurately ripped


==== Log checksum F94DA202069425DFE11CB92EB1EEFEEB4DF260B6F047CDDA406D2DCD0A91F6F0 ====

Thanks to the Original ripper !