Tags
Language
Tags
April 2024
Su Mo Tu We Th Fr Sa
31 1 2 3 4 5 6
7 8 9 10 11 12 13
14 15 16 17 18 19 20
21 22 23 24 25 26 27
28 29 30 1 2 3 4

Shawn Pittman - Make It Right! (2020)

Posted By: delpotro
Shawn Pittman - Make It Right! (2020)

Shawn Pittman - Make It Right! (2020)
EAC Rip | FLAC (tracks+log+.cue) - 327 Mb | MP3 CBR 320 kbps - 113 Mb | 00:47:17
Electric Blues, Blues Rock | Label: Continental Blue Heaven

Although he’s often closely associated with the Lone Star State since originally taking up residence in Dallas, Texas in the early ’90s, vocalist/guitarist Shawn Pittman is actually an Oklahoma native. Pittman moved to Dallas, Texas when he was seventeen years old where he attended the Booker T Washington High School of the Performing Arts. He later dropped out, but picked up his music education courtesy of his uncle who would take him over to the Schooner’s jam in Dallas where he first met Sam Myers. According to Pittman, “Sam Myers was one of the best musicians I’ve ever played with!” Additional guidance and inspiration came by way of local area musicians Mike Morgan and Hash Brown.

His first album, “Blues From Dallas,” was recorded in 1996 and later picked up and retooled for his national debut in ’97 as “Burnin’ Up” on the short-lived Cannonball Records label. His second album, “Something’s Gotta Give,” was produced by Jim Gaines and followed in ’98. Pittman toured as rhythm guitarist for Susan Tedeschi briefly in ’99, just long enough to make a television appearance with her on the Conan O’Brian Show. The following year he relocated to Austin and recorded his third album “Full Circle,” backed by Stevie Ray Vaughan’s rhythm section Double Trouble. In 2004, a more experimental and adventurous album titled “Stay” was released. After a much needed break from the music business, as well as some serious soul-searching from 2005-2008, Pittman returned to performing and made a plan to record one album per year.

After the 2018 release of his album "Everybody Wants To Know" Shawn Pittman toured extensively across Europe with renowned German/Turkish blues tandem Erkan Ozdemir on bass and his son Levent on drums. This worked out so well that the trio took out a couple of days of recording in Denmark. It took two days of recording and a day of mixing at the Heyman Studio in Copenhagen to come up with 12 vibrant tracks that make up Shawn's 13th album "Make It Right”.
Tracklist:
1. Done Tole You So (03:34)
2. Finger On The Trigger (03:58)
3. Make It Right (03:17)
4. I Feel Good (04:08)
5. There Will Be A Day (04:57)
6. How Long (06:13)
7. For Right Now (04:07)
8. Cold Sweat (04:12)
9. Woke Up Screaming (03:33)
10. Let It Go (03:23)
11. Fair Weather Friend (03:47)
12. I'm Done (02:09)

Exact Audio Copy V1.3 from 2. September 2016

EAC extraction logfile from 26. October 2020, 9:51

Shawn Pittman / Make It Right!

Used drive : PLEXTOR PX-891SAF Adapter: 1 ID: 0

Read mode : Secure
Utilize accurate stream : Yes
Defeat audio cache : Yes
Make use of C2 pointers : No

Read offset correction : 6
Overread into Lead-In and Lead-Out : No
Fill up missing offset samples with silence : Yes
Delete leading and trailing silent blocks : No
Null samples used in CRC calculations : Yes
Used interface : Native Win32 interface for Win NT & 2000
Gap handling : Appended to previous track

Used output format : User Defined Encoder
Selected bitrate : 1024 kBit/s
Quality : High
Add ID3 tag : No
Command line compressor : C:\Program Files (x86)\Exact Audio Copy\Flac\flac.exe
Additional command line options : -8 -V -T "ARTIST=%artist%" -T "TITLE=%title%" -T "ALBUM=%albumtitle%" -T "DATE=%year%" -T "TRACKNUMBER=%tracknr%" -T "GENRE=%genre%" -T "PERFORMER=%albuminterpret%" -T "COMPOSER=%composer%" %haslyrics%–tag-from-file=LYRICS="%lyricsfile%"%haslyrics% -T "ALBUMARTIST=%albumartist%" -T "DISCNUMBER=%cdnumber%" -T "TOTALDISCS=%totalcds%" -T "TOTALTRACKS=%numtracks%" -T "COMMENT=%comment%" %source% -o %dest%


TOC of the extracted CD

Track | Start | Length | Start sector | End sector
––––––––––––––––––––––––––––-
1 | 0:00.00 | 3:33.59 | 0 | 16033
2 | 3:33.59 | 3:57.43 | 16034 | 33851
3 | 7:31.27 | 3:17.09 | 33852 | 48635
4 | 10:48.36 | 4:07.40 | 48636 | 67200
5 | 14:56.01 | 4:56.70 | 67201 | 89470
6 | 19:52.71 | 6:12.57 | 89471 | 117427
7 | 26:05.53 | 4:06.62 | 117428 | 135939
8 | 30:12.40 | 4:12.09 | 135940 | 154848
9 | 34:24.49 | 3:33.01 | 154849 | 170824
10 | 37:57.50 | 3:22.71 | 170825 | 186045
11 | 41:20.46 | 3:47.17 | 186046 | 203087
12 | 45:07.63 | 2:09.37 | 203088 | 212799


Track 1

Filename D:\#EAC new\#wav+flac\#Add\Shawn Pittman - Make It Right!\01. Shawn Pittman - Done Tole You So.wav

Pre-gap length 0:00:02.00

Peak level 100.0 %
Extraction speed 4.0 X
Track quality 99.9 %
Test CRC 6EE4FEF8
Copy CRC 6EE4FEF8
Track not present in AccurateRip database
Copy OK

Track 2

Filename D:\#EAC new\#wav+flac\#Add\Shawn Pittman - Make It Right!\02. Shawn Pittman - Finger On The Trigger.wav

Pre-gap length 0:00:01.74

Peak level 100.0 %
Extraction speed 5.5 X
Track quality 100.0 %
Test CRC D00C8D4D
Copy CRC D00C8D4D
Track not present in AccurateRip database
Copy OK

Track 3

Filename D:\#EAC new\#wav+flac\#Add\Shawn Pittman - Make It Right!\03. Shawn Pittman - Make It Right.wav

Pre-gap length 0:00:01.74

Peak level 100.0 %
Extraction speed 5.8 X
Track quality 100.0 %
Test CRC 62A1250E
Copy CRC 62A1250E
Track not present in AccurateRip database
Copy OK

Track 4

Filename D:\#EAC new\#wav+flac\#Add\Shawn Pittman - Make It Right!\04. Shawn Pittman - I Feel Good.wav

Pre-gap length 0:00:01.74

Peak level 100.0 %
Extraction speed 6.4 X
Track quality 100.0 %
Test CRC 8F243448
Copy CRC 8F243448
Track not present in AccurateRip database
Copy OK

Track 5

Filename D:\#EAC new\#wav+flac\#Add\Shawn Pittman - Make It Right!\05. Shawn Pittman - There Will Be a Day.wav

Pre-gap length 0:00:01.74

Peak level 100.0 %
Extraction speed 7.1 X
Track quality 100.0 %
Test CRC 3DE975D9
Copy CRC 3DE975D9
Track not present in AccurateRip database
Copy OK

Track 6

Filename D:\#EAC new\#wav+flac\#Add\Shawn Pittman - Make It Right!\06. Shawn Pittman - How Long.wav

Pre-gap length 0:00:01.74

Peak level 100.0 %
Extraction speed 7.8 X
Track quality 100.0 %
Test CRC 49B7A173
Copy CRC 49B7A173
Track not present in AccurateRip database
Copy OK

Track 7

Filename D:\#EAC new\#wav+flac\#Add\Shawn Pittman - Make It Right!\07. Shawn Pittman - For Right Now.wav

Pre-gap length 0:00:01.74

Peak level 100.0 %
Extraction speed 7.8 X
Track quality 100.0 %
Test CRC 6D46FC17
Copy CRC 6D46FC17
Track not present in AccurateRip database
Copy OK

Track 8

Filename D:\#EAC new\#wav+flac\#Add\Shawn Pittman - Make It Right!\08. Shawn Pittman - Cold Sweat.wav

Pre-gap length 0:00:02.00

Peak level 100.0 %
Extraction speed 8.2 X
Track quality 100.0 %
Test CRC 630EA1D7
Copy CRC 630EA1D7
Track not present in AccurateRip database
Copy OK

Track 9

Filename D:\#EAC new\#wav+flac\#Add\Shawn Pittman - Make It Right!\09. Shawn Pittman - Woke Up Screaming.wav

Pre-gap length 0:00:01.74

Peak level 100.0 %
Extraction speed 8.3 X
Track quality 100.0 %
Test CRC 65EB362E
Copy CRC 65EB362E
Track not present in AccurateRip database
Copy OK

Track 10

Filename D:\#EAC new\#wav+flac\#Add\Shawn Pittman - Make It Right!\10. Shawn Pittman - Let It Go.wav

Pre-gap length 0:00:01.74

Peak level 100.0 %
Extraction speed 8.5 X
Track quality 100.0 %
Test CRC 16805059
Copy CRC 16805059
Track not present in AccurateRip database
Copy OK

Track 11

Filename D:\#EAC new\#wav+flac\#Add\Shawn Pittman - Make It Right!\11. Shawn Pittman - Fair Weather Friend.wav

Pre-gap length 0:00:01.74

Peak level 100.0 %
Extraction speed 8.9 X
Track quality 100.0 %
Test CRC 2AFC89B8
Copy CRC 2AFC89B8
Track not present in AccurateRip database
Copy OK

Track 12

Filename D:\#EAC new\#wav+flac\#Add\Shawn Pittman - Make It Right!\12. Shawn Pittman - I'm Done.wav

Pre-gap length 0:00:01.74

Peak level 100.0 %
Extraction speed 5.9 X
Track quality 99.9 %
Test CRC 8EECC85B
Copy CRC 8EECC85B
Track not present in AccurateRip database
Copy OK


None of the tracks are present in the AccurateRip database

No errors occurred

End of status report

–– CUETools DB Plugin V2.1.6

[CTDB TOCID: DqU9jeS5TKioQ17_rETGCj1Rryk-] found
Submit result: DqU9jeS5TKioQ17_rETGCj1Rryk- has been confirmed
Track | CTDB Status
1 | (3/3) Accurately ripped
2 | (3/3) Accurately ripped
3 | (3/3) Accurately ripped
4 | (3/3) Accurately ripped
5 | (3/3) Accurately ripped
6 | (3/3) Accurately ripped
7 | (3/3) Accurately ripped
8 | (3/3) Accurately ripped
9 | (3/3) Accurately ripped
10 | (3/3) Accurately ripped
11 | (3/3) Accurately ripped
12 | (3/3) Accurately ripped


==== Log checksum 8968F46C61ACA4FEDB1A73480ECFAC97EB9DBD6E82A5A52CF38C9A6BD30C80E9 ====

––––––––––––––––––––––––––––––

Exact Audio Copy V1.3 from 2. September 2016

EAC extraction logfile from 26. October 2020, 9:51

Shawn Pittman / Make It Right!

Used drive : PLEXTOR PX-891SAF Adapter: 1 ID: 0

Read mode : Secure
Utilize accurate stream : Yes
Defeat audio cache : Yes
Make use of C2 pointers : No

Read offset correction : 6
Overread into Lead-In and Lead-Out : No
Fill up missing offset samples with silence : Yes
Delete leading and trailing silent blocks : No
Null samples used in CRC calculations : Yes
Used interface : Native Win32 interface for Win NT & 2000
Gap handling : Appended to previous track

Used output format : User Defined Encoder
Selected bitrate : 1024 kBit/s
Quality : High
Add ID3 tag : No
Command line compressor : C:\Program Files (x86)\Exact Audio Copy\Flac\flac.exe
Additional command line options : -8 -V -T "ARTIST=%artist%" -T "TITLE=%title%" -T "ALBUM=%albumtitle%" -T "DATE=%year%" -T "TRACKNUMBER=%tracknr%" -T "GENRE=%genre%" -T "PERFORMER=%albuminterpret%" -T "COMPOSER=%composer%" %haslyrics%–tag-from-file=LYRICS="%lyricsfile%"%haslyrics% -T "ALBUMARTIST=%albumartist%" -T "DISCNUMBER=%cdnumber%" -T "TOTALDISCS=%totalcds%" -T "TOTALTRACKS=%numtracks%" -T "COMMENT=%comment%" %source% -o %dest%


TOC of the extracted CD

Track | Start | Length | Start sector | End sector
––––––––––––––––––––––––––––-
1 | 0:00.00 | 3:33.59 | 0 | 16033
2 | 3:33.59 | 3:57.43 | 16034 | 33851
3 | 7:31.27 | 3:17.09 | 33852 | 48635
4 | 10:48.36 | 4:07.40 | 48636 | 67200
5 | 14:56.01 | 4:56.70 | 67201 | 89470
6 | 19:52.71 | 6:12.57 | 89471 | 117427
7 | 26:05.53 | 4:06.62 | 117428 | 135939
8 | 30:12.40 | 4:12.09 | 135940 | 154848
9 | 34:24.49 | 3:33.01 | 154849 | 170824
10 | 37:57.50 | 3:22.71 | 170825 | 186045
11 | 41:20.46 | 3:47.17 | 186046 | 203087
12 | 45:07.63 | 2:09.37 | 203088 | 212799


Track 1

Filename D:\#EAC new\#wav+flac\#Add\Shawn Pittman - Make It Right!\01. Shawn Pittman - Done Tole You So.wav

Pre-gap length 0:00:02.00

Peak level 100.0 %
Extraction speed 4.0 X
Track quality 99.9 %
Test CRC 6EE4FEF8
Copy CRC 6EE4FEF8
Track not present in AccurateRip database
Copy OK

Track 2

Filename D:\#EAC new\#wav+flac\#Add\Shawn Pittman - Make It Right!\02. Shawn Pittman - Finger On The Trigger.wav

Pre-gap length 0:00:01.74

Peak level 100.0 %
Extraction speed 5.5 X
Track quality 100.0 %
Test CRC D00C8D4D
Copy CRC D00C8D4D
Track not present in AccurateRip database
Copy OK

Track 3

Filename D:\#EAC new\#wav+flac\#Add\Shawn Pittman - Make It Right!\03. Shawn Pittman - Make It Right.wav

Pre-gap length 0:00:01.74

Peak level 100.0 %
Extraction speed 5.8 X
Track quality 100.0 %
Test CRC 62A1250E
Copy CRC 62A1250E
Track not present in AccurateRip database
Copy OK

Track 4

Filename D:\#EAC new\#wav+flac\#Add\Shawn Pittman - Make It Right!\04. Shawn Pittman - I Feel Good.wav

Pre-gap length 0:00:01.74

Peak level 100.0 %
Extraction speed 6.4 X
Track quality 100.0 %
Test CRC 8F243448
Copy CRC 8F243448
Track not present in AccurateRip database
Copy OK

Track 5

Filename D:\#EAC new\#wav+flac\#Add\Shawn Pittman - Make It Right!\05. Shawn Pittman - There Will Be a Day.wav

Pre-gap length 0:00:01.74

Peak level 100.0 %
Extraction speed 7.1 X
Track quality 100.0 %
Test CRC 3DE975D9
Copy CRC 3DE975D9
Track not present in AccurateRip database
Copy OK

Track 6

Filename D:\#EAC new\#wav+flac\#Add\Shawn Pittman - Make It Right!\06. Shawn Pittman - How Long.wav

Pre-gap length 0:00:01.74

Peak level 100.0 %
Extraction speed 7.8 X
Track quality 100.0 %
Test CRC 49B7A173
Copy CRC 49B7A173
Track not present in AccurateRip database
Copy OK

Track 7

Filename D:\#EAC new\#wav+flac\#Add\Shawn Pittman - Make It Right!\07. Shawn Pittman - For Right Now.wav

Pre-gap length 0:00:01.74

Peak level 100.0 %
Extraction speed 7.8 X
Track quality 100.0 %
Test CRC 6D46FC17
Copy CRC 6D46FC17
Track not present in AccurateRip database
Copy OK

Track 8

Filename D:\#EAC new\#wav+flac\#Add\Shawn Pittman - Make It Right!\08. Shawn Pittman - Cold Sweat.wav

Pre-gap length 0:00:02.00

Peak level 100.0 %
Extraction speed 8.2 X
Track quality 100.0 %
Test CRC 630EA1D7
Copy CRC 630EA1D7
Track not present in AccurateRip database
Copy OK

Track 9

Filename D:\#EAC new\#wav+flac\#Add\Shawn Pittman - Make It Right!\09. Shawn Pittman - Woke Up Screaming.wav

Pre-gap length 0:00:01.74

Peak level 100.0 %
Extraction speed 8.3 X
Track quality 100.0 %
Test CRC 65EB362E
Copy CRC 65EB362E
Track not present in AccurateRip database
Copy OK

Track 10

Filename D:\#EAC new\#wav+flac\#Add\Shawn Pittman - Make It Right!\10. Shawn Pittman - Let It Go.wav

Pre-gap length 0:00:01.74

Peak level 100.0 %
Extraction speed 8.5 X
Track quality 100.0 %
Test CRC 16805059
Copy CRC 16805059
Track not present in AccurateRip database
Copy OK

Track 11

Filename D:\#EAC new\#wav+flac\#Add\Shawn Pittman - Make It Right!\11. Shawn Pittman - Fair Weather Friend.wav

Pre-gap length 0:00:01.74

Peak level 100.0 %
Extraction speed 8.9 X
Track quality 100.0 %
Test CRC 2AFC89B8
Copy CRC 2AFC89B8
Track not present in AccurateRip database
Copy OK

Track 12

Filename D:\#EAC new\#wav+flac\#Add\Shawn Pittman - Make It Right!\12. Shawn Pittman - I'm Done.wav

Pre-gap length 0:00:01.74

Peak level 100.0 %
Extraction speed 5.9 X
Track quality 99.9 %
Test CRC 8EECC85B
Copy CRC 8EECC85B
Track not present in AccurateRip database
Copy OK


None of the tracks are present in the AccurateRip database

No errors occurred

End of status report

–– CUETools DB Plugin V2.1.6

[CTDB TOCID: DqU9jeS5TKioQ17_rETGCj1Rryk-] found
Submit result: DqU9jeS5TKioQ17_rETGCj1Rryk- has been confirmed
Track | CTDB Status
1 | (3/3) Accurately ripped
2 | (3/3) Accurately ripped
3 | (3/3) Accurately ripped
4 | (3/3) Accurately ripped
5 | (3/3) Accurately ripped
6 | (3/3) Accurately ripped
7 | (3/3) Accurately ripped
8 | (3/3) Accurately ripped
9 | (3/3) Accurately ripped
10 | (3/3) Accurately ripped
11 | (3/3) Accurately ripped
12 | (3/3) Accurately ripped


==== Log checksum 8968F46C61ACA4FEDB1A73480ECFAC97EB9DBD6E82A5A52CF38C9A6BD30C80E9 ====

Thanks to the Original ripper !