Tags
Language
Tags

Shirley Scott - Soul Sister (1999) {Prestige PRCD-24233-2 rec 1960-1964} (Legends of Acid Jazz Series)

Posted By: ruskaval
Shirley Scott - Soul Sister (1999) {Prestige PRCD-24233-2 rec 1960-1964} (Legends of Acid Jazz Series)

Shirley Scott - Soul Sister (1999) {Prestige PRCD-24233-2 rec 19
60-1964} (Legends of Acid Jazz Series)

XLD rip (secure mode) | FLAC (tracks)+CUE+LOG -> 411 Mb | MP3 @320 -> 165 Mb
Full Artwork @ 600 dpi (jpg) -> 22 Mb | 5% repair rar
© 1960-64, 1999 Prestige Records / Fantasy | PRCD-24233-2
Jazz / Hard Bop / Soul Jazz / Organ

Few organ players can kick into swinging grooves with as relaxed a feeling as those Shirley Scott generates on these two outstanding sessions from the Sixties. She was associated early in her career with tenor saxophonists–most notably Eddie "Lockjaw" Davis and Stanley Turrentine–but Prestige Records regularly varied the settings in which she was presented on disc. These are two of the most unusual. The ever-tasteful guitarist Kenny Burrell shares the spotlight on tracks one through six, while Lem Winchester lends his vibraharp mastery to the remainder to help create a unique–and ultimately satisfying– organ/vibes front-line.
Shirley Scott - Soul Sister (1999) {Prestige PRCD-24233-2 rec 1960-1964} (Legends of Acid Jazz Series)


Personnel

Tracks 1 to 6:

Shirley Scott - organ
Lem Winchester - vibraphone
George Duvivier - bass
Arthur Edgehill - drums

Tracks 7 to 13:
Shirley Scott - organ
Kenny Burrell - guitar
Eddie Kahn - bass
Otis Finch - drums

Track Listing:
1. Trav'lin' Light (04:41)
2. Solar (06:02)
3. Nice 'N' Easy (04:33)
4. They Call It Stormy Monday (11:06)
5. Baby, It's Cold Outside (03:48)
6. The Kerry Dance (03:02)
7. On Green Dolphin Street (04:08)
8. Blues For Tyrone (09:44)
9. Sonnymoon For Two (03:58)
10. Like Young (06:35)
11. The More I See You (06:17)
12. Get Me To The Church On Time (04:37)
13. Now's The Time (04:35) TRACK IS MISSING! (known misprint/pressing error)

Tracks 1-6 originally released as Travelin' Light (Prestige 7328)
Tracks 7-12 originally released as Soul Sister (Prestige 7392)


X Lossless Decoder version 20210101 (153.1)

XLD extraction logfile from 2021-03-30 07:59:54 -0400

Shirley Scott / Soul Sister - Legends of Acid Jazz

Used drive : PIONEER BD-RW BDR-XD05 (revision 3.01)
Media type : Pressed CD

Ripper mode : XLD Secure Ripper
Disable audio cache : OK for the drive with a cache less than 1375KiB
Make use of C2 pointers : NO
Read offset correction : 667
Max retry count : 20
Gap status : Analyzed, Appended (except HTOA)

TOC of the extracted CD
Track | Start | Length | Start sector | End sector
––––––––––––––––––––––––––––-
1 | 00:00:00 | 04:44:07 | 0 | 21306
2 | 04:44:07 | 06:05:63 | 21307 | 48744
3 | 10:49:70 | 04:36:35 | 48745 | 69479
4 | 15:26:30 | 11:11:35 | 69480 | 119839
5 | 26:37:65 | 03:53:40 | 119840 | 137354
6 | 30:31:30 | 03:06:07 | 137355 | 151311
7 | 33:37:37 | 04:11:73 | 151312 | 170209
8 | 37:49:35 | 09:47:62 | 170210 | 214296
9 | 47:37:22 | 04:01:58 | 214297 | 232429
10 | 51:39:05 | 06:39:32 | 232430 | 262386
11 | 58:18:37 | 06:21:48 | 262387 | 291009
12 | 64:40:10 | 04:37:50 | 291010 | 311834

AccurateRip Summary (DiscID: 001efa80-0121dbc9-aa103d0c)
Track 01 : OK (v1+v2, confidence 2/2)
Track 02 : OK (v1+v2, confidence 2/2)
Track 03 : OK (v1+v2, confidence 2/2)
Track 04 : OK (v1+v2, confidence 2/2)
Track 05 : OK (v1+v2, confidence 2/2)
Track 06 : OK (v1+v2, confidence 2/2)
Track 07 : OK (v1+v2, confidence 2/2)
Track 08 : OK (v1+v2, confidence 2/2)
Track 09 : OK (v1+v2, confidence 2/2)
Track 10 : OK (v1+v2, confidence 2/2)
Track 11 : OK (v1+v2, confidence 2/2)
Track 12 : OK (v1+v2, confidence 2/2)
->All tracks accurately ripped.

All Tracks
Album gain : -0.14 dB
Peak : 0.999939
Statistics
Read error : 0
Jitter error (maybe fixed) : 0
Retry sector count : 0
Damaged sector count : 0

Track 01
Filename : /Users/other/Desktop/XLD Rips/Shirley Scott - Soul Sister - Legends of Acid Jazz (1999) [FLAC]/01 - Shirley Scott - Trav'lin' Light.flac
Pre-gap length : 00:02:00

Track gain : -0.02 dB
Peak : 0.829590
CRC32 hash (test run) : 7796DEC4
CRC32 hash : 7796DEC4
CRC32 hash (skip zero) : 9E3A5916
AccurateRip v1 signature : 98093F4E
AccurateRip v2 signature : 0E14A4E4
->Accurately ripped (v1+v2, confidence 1+1/2)
Statistics
Read error : 0
Jitter error (maybe fixed) : 0
Retry sector count : 0
Damaged sector count : 0

Track 02
Filename : /Users/other/Desktop/XLD Rips/Shirley Scott - Soul Sister - Legends of Acid Jazz (1999) [FLAC]/02 - Shirley Scott - Solar.flac
Pre-gap length : 00:02:55

Track gain : -1.55 dB
Peak : 0.966217
CRC32 hash (test run) : 5FCFF7FE
CRC32 hash : 5FCFF7FE
CRC32 hash (skip zero) : 1CC43BBB
AccurateRip v1 signature : 44401F60
AccurateRip v2 signature : 1D2E8111
->Accurately ripped (v1+v2, confidence 1+1/2)
Statistics
Read error : 0
Jitter error (maybe fixed) : 0
Retry sector count : 0
Damaged sector count : 0

Track 03
Filename : /Users/other/Desktop/XLD Rips/Shirley Scott - Soul Sister - Legends of Acid Jazz (1999) [FLAC]/03 - Shirley Scott - Nice 'N' Easy.flac
Pre-gap length : 00:03:25

Track gain : -0.25 dB
Peak : 0.854858
CRC32 hash (test run) : 326AE732
CRC32 hash : 326AE732
CRC32 hash (skip zero) : CC09E237
AccurateRip v1 signature : 257A3676
AccurateRip v2 signature : 9F8FCAB7
->Accurately ripped (v1+v2, confidence 1+1/2)
Statistics
Read error : 0
Jitter error (maybe fixed) : 0
Retry sector count : 0
Damaged sector count : 0

Track 04
Filename : /Users/other/Desktop/XLD Rips/Shirley Scott - Soul Sister - Legends of Acid Jazz (1999) [FLAC]/04 - Shirley Scott - They Call It Stormy Monday.flac
Pre-gap length : 00:03:08

Track gain : 1.92 dB
Peak : 0.999939
CRC32 hash (test run) : 3425E4D2
CRC32 hash : 3425E4D2
CRC32 hash (skip zero) : CBC40D65
AccurateRip v1 signature : 7515AD89
AccurateRip v2 signature : A68AA082
->Accurately ripped (v1+v2, confidence 1+1/2)
Statistics
Read error : 0
Jitter error (maybe fixed) : 0
Retry sector count : 0
Damaged sector count : 0

Track 05
Filename : /Users/other/Desktop/XLD Rips/Shirley Scott - Soul Sister - Legends of Acid Jazz (1999) [FLAC]/05 - Shirley Scott - Baby, It's Cold Outside.flac
Pre-gap length : 00:04:20

Track gain : 0.85 dB
Peak : 0.780396
CRC32 hash (test run) : B44B0110
CRC32 hash : B44B0110
CRC32 hash (skip zero) : E61F4162
AccurateRip v1 signature : AEA3B1DC
AccurateRip v2 signature : A3342D5D
->Accurately ripped (v1+v2, confidence 1+1/2)
Statistics
Read error : 0
Jitter error (maybe fixed) : 0
Retry sector count : 0
Damaged sector count : 0

Track 06
Filename : /Users/other/Desktop/XLD Rips/Shirley Scott - Soul Sister - Legends of Acid Jazz (1999) [FLAC]/06 - Shirley Scott - The Kerry Dance.flac
Pre-gap length : 00:05:13

Track gain : -0.38 dB
Peak : 0.999939
CRC32 hash (test run) : 49DE0D9E
CRC32 hash : 49DE0D9E
CRC32 hash (skip zero) : E066C89F
AccurateRip v1 signature : FF4ABD29
AccurateRip v2 signature : D427FF15
->Accurately ripped (v1+v2, confidence 1+1/2)
Statistics
Read error : 0
Jitter error (maybe fixed) : 0
Retry sector count : 0
Damaged sector count : 0

Track 07
Filename : /Users/other/Desktop/XLD Rips/Shirley Scott - Soul Sister - Legends of Acid Jazz (1999) [FLAC]/07 - Shirley Scott - On Green Dolphin Street.flac
Pre-gap length : 00:03:02

Track gain : -0.85 dB
Peak : 0.794434
CRC32 hash (test run) : 302B9818
CRC32 hash : 302B9818
CRC32 hash (skip zero) : 18D552CD
AccurateRip v1 signature : CD5452EC
AccurateRip v2 signature : CAE3E515
->Accurately ripped (v1+v2, confidence 1+1/2)
Statistics
Read error : 0
Jitter error (maybe fixed) : 0
Retry sector count : 0
Damaged sector count : 0

Track 08
Filename : /Users/other/Desktop/XLD Rips/Shirley Scott - Soul Sister - Legends of Acid Jazz (1999) [FLAC]/08 - Shirley Scott - Blues For Tyrone.flac
Pre-gap length : 00:03:20

Track gain : -0.82 dB
Peak : 0.887634
CRC32 hash (test run) : E4F63C08
CRC32 hash : E4F63C08
CRC32 hash (skip zero) : E09A21E2
AccurateRip v1 signature : B6CD695C
AccurateRip v2 signature : 2C70073E
->Accurately ripped (v1+v2, confidence 1+1/2)
Statistics
Read error : 0
Jitter error (maybe fixed) : 0
Retry sector count : 0
Damaged sector count : 0

Track 09
Filename : /Users/other/Desktop/XLD Rips/Shirley Scott - Soul Sister - Legends of Acid Jazz (1999) [FLAC]/09 - Shirley Scott - Sonnymoon For Two.flac
Pre-gap length : 00:03:20

Track gain : -0.02 dB
Peak : 0.760773
CRC32 hash (test run) : C8F16D4A
CRC32 hash : C8F16D4A
CRC32 hash (skip zero) : FCA44A33
AccurateRip v1 signature : BB7C653E
AccurateRip v2 signature : 06E75DAF
->Accurately ripped (v1+v2, confidence 1+1/2)
Statistics
Read error : 0
Jitter error (maybe fixed) : 0
Retry sector count : 0
Damaged sector count : 0

Track 10
Filename : /Users/other/Desktop/XLD Rips/Shirley Scott - Soul Sister - Legends of Acid Jazz (1999) [FLAC]/10 - Shirley Scott - Like Young.flac
Pre-gap length : 00:02:58

Track gain : 1.61 dB
Peak : 0.807220
CRC32 hash (test run) : C8659650
CRC32 hash : C8659650
CRC32 hash (skip zero) : 10362D1F
AccurateRip v1 signature : B2184304
AccurateRip v2 signature : 51DD898B
->Accurately ripped (v1+v2, confidence 1+1/2)
Statistics
Read error : 0
Jitter error (maybe fixed) : 0
Retry sector count : 0
Damaged sector count : 0

Track 11
Filename : /Users/other/Desktop/XLD Rips/Shirley Scott - Soul Sister - Legends of Acid Jazz (1999) [FLAC]/11 - Shirley Scott - The More I See You.flac
Pre-gap length : 00:03:15

Track gain : 2.57 dB
Peak : 0.988586
CRC32 hash (test run) : 70104870
CRC32 hash : 70104870
CRC32 hash (skip zero) : 8A4885EE
AccurateRip v1 signature : 157B0290
AccurateRip v2 signature : B332D83E
->Accurately ripped (v1+v2, confidence 1+1/2)
Statistics
Read error : 0
Jitter error (maybe fixed) : 0
Retry sector count : 0
Damaged sector count : 0

Track 12
Filename : /Users/other/Desktop/XLD Rips/Shirley Scott - Soul Sister - Legends of Acid Jazz (1999) [FLAC]/12 - Shirley Scott - Get Me To The Church On Time.flac
Pre-gap length : 00:03:53

Track gain : -2.85 dB
Peak : 0.846069
CRC32 hash (test run) : EAD636E0
CRC32 hash : EAD636E0
CRC32 hash (skip zero) : 855E4AFB
AccurateRip v1 signature : DD3023C5
AccurateRip v2 signature : EAB886E1
->Accurately ripped (v1+v2, confidence 1+1/2)
Statistics
Read error : 0
Jitter error (maybe fixed) : 0
Retry sector count : 0
Damaged sector count : 0

No errors occurred

End of status report

––-BEGIN XLD SIGNATURE––-
qAzHKq2tIMGCGUGCMRWbMl9FzKS62.e9Xan.7NcLmxEzN.tKl89LBXbWKGuw6DG.fXe3hbPaXSj_HGQI8JdxyLeGJLDYxQk1ws0ivC4
––-END XLD SIGNATURE––-


Shirley Scott - Soul Sister (1999) {Prestige PRCD-24233-2 rec 1960-1964} (Legends of Acid Jazz Series)

Shirley Scott - Soul Sister (1999) {Prestige PRCD-24233-2 rec 1960-1964} (Legends of Acid Jazz Series)



===