Tags
Language
Tags

Shoes - Present Tense + Tongue Twister (1979, 1981) {Black Vinyl Records BV 19888 rel 1988}

Posted By: ruskaval
Shoes - Present Tense + Tongue Twister (1979, 1981) {Black Vinyl Records BV 19888 rel 1988}

Shoes - Present Tense + Tongue Twister (1979, 1981) {Black Vinyl Records BV 19888 rel 1988}
EAC rip (secure mode) | FLAC (tracks)+CUE+LOG -> 509 Mb | MP3 @320 -> 178 Mb
Full Artwork @ 300 dpi (png) -> 30 Mb | 5% repair rar
© 1979, 1981, 1988 Elektra/Asylum Records / Black Vinyl Records | BV 19888
Rock / Power Pop / Synth-Pop

Some things were destined to be together: Lennon and McCartney, peanut butter and jelly, hamburgers and French fries, and country & western are a few examples. The fabulous Present Tense/Tongue Twister CD is another. The entirety of Shoes' first two Elektra albums (1979's Present Tense and 1981's Tongue Twister) on one disc makes for one of the most highly recommended power pop CDs of all time! Forget what you have heard about Big Star (they were way too sloppy), Raspberries (too inconsistent), and Jellyfish (too self-indulgent); these two albums are the real deal. With harmonies that embrace and cradle your heavy heart plus some of the most delicious melodies since the golden days of Badfinger, Shoes will win over anyone searching for bands that know how to write "the song."

Bassist John Murphy and guitarists Jeff Murphy and Gary Klebe all write and sing their own tunes on these albums, all remaining individually distinctive while creating a unique group sound that sets them apart from other bands of their era. On Present Tense, the band's chunky electric and gentle acoustic guitars and floating harmonies stand out, sounding like the backing track to 10cc's "I'm Not in Love" played by "Junior's Farm"-era Wings. Every song deserves mention, but their signature song, "Tomorrow Night," and the haunting "Three Times" distill the album's essence into small, but enticing, samples. Tongue Twister found the band turning up the chunky guitars, virtually abandoning the acoustics, but remaining as wonderful as ever. Another stunning classic, featuring "Karen," "She Satisfies," and the beautiful "Found a Girl," this album is Present Tense's tougher younger brother. With both albums on one disc, there is absolutely no reason that any pop music fan should be without this CD.
Shoes - Present Tense + Tongue Twister (1979, 1981) {Black Vinyl Records BV 19888 rel 1988}


Tracks

Present Tense
01 - Tomorrow Night
02 - Too Late
03 - Hangin' Around with You
04 - Your Very Eyes
05 - In My Arms Again
06 - Somebody Has What I Had
07 - Now and Then
08 - Every Girl
09 - I Don't Miss You
10 - Cruel You
11 - Three Times (See Me, Say It, Listen)
12 - I Don't Wanna Hear It
Tongue Twister
13 - Your Imagination
14 - Burned Out Love
15 - The Things You Do
16 - Only in My Sleep
17 - Karen
18 - She Satisfies
19 - Girls of Today
20 - Hopin' She's the One
21 - When It Hits
22 - Yes or No
23 - Found a Girl
24 - Hate to Run

Exact Audio Copy V0.99 prebeta 4 from 23. January 2008

EAC extraction logfile from 23. January 2009, 13:50

Shoes / Present Tense + Tongue Twister

Used drive : HL-DT-STDVD+-RW GSA-T21N Adapter: 0 ID: 0

Read mode : Secure
Utilize accurate stream : Yes
Defeat audio cache : Yes
Make use of C2 pointers : No

Read offset correction : 667
Overread into Lead-In and Lead-Out : No
Fill up missing offset samples with silence : Yes
Delete leading and trailing silent blocks : No
Null samples used in CRC calculations : Yes
Used interface : Installed external ASPI interface
Gap handling : Appended to previous track

Used output format : User Defined Encoder
Selected bitrate : 768 kBit/s
Quality : High
Add ID3 tag : No
Command line compressor : D:\Program Files\Exact Audio Copy\FLAC\FLAC.EXE
Additional command line options : -8 -V -T "ARTIST=%a" -T "TITLE=%t" -T "ALBUM=%g" -T "DATE=%y" -T "TRACKNUMBER=%n" -T "GENRE=%m" -T "COMMENT=EAC FLAC -8" %s


TOC of the extracted CD

Track | Start | Length | Start sector | End sector
––––––––––––––––––––––––––––-
1 | 0:00.00 | 2:56.20 | 0 | 13219
2 | 2:56.20 | 2:45.25 | 13220 | 25619
3 | 5:41.45 | 3:30.45 | 25620 | 41414
4 | 9:12.15 | 3:08.57 | 41415 | 55571
5 | 12:20.72 | 4:05.23 | 55572 | 73969
6 | 16:26.20 | 3:21.42 | 73970 | 89086
7 | 19:47.62 | 3:12.28 | 89087 | 103514
8 | 23:00.15 | 2:42.22 | 103515 | 115686
9 | 25:42.37 | 4:11.08 | 115687 | 134519
10 | 29:53.45 | 4:09.67 | 134520 | 153261
11 | 34:03.37 | 3:53.58 | 153262 | 170794
12 | 37:57.20 | 2:51.50 | 170795 | 183669
13 | 40:48.70 | 2:33.50 | 183670 | 195194
14 | 43:22.45 | 2:44.30 | 195195 | 207524
15 | 46:07.00 | 3:08.65 | 207525 | 221689
16 | 49:15.65 | 2:39.57 | 221690 | 233671
17 | 51:55.47 | 2:46.65 | 233672 | 246186
18 | 54:42.37 | 3:03.40 | 246187 | 259951
19 | 57:46.02 | 3:07.05 | 259952 | 273981
20 | 60:53.07 | 2:28.05 | 273982 | 285086
21 | 63:21.12 | 2:46.68 | 285087 | 297604
22 | 66:08.05 | 3:02.62 | 297605 | 311316
23 | 69:10.67 | 2:56.23 | 311317 | 324539
24 | 72:07.15 | 2:28.65 | 324540 | 335704


Track 1

Filename D:\CD's\Shoes - Present Tense + Tongue Twister (1979, 1981) [FLAC]\01 - Tomorrow Night.wav

Pre-gap length 0:00:02.00

Peak level 93.9 %
Track quality 100.0 %
Test CRC E11BFA61
Copy CRC E11BFA61
Track not present in AccurateRip database
Copy OK

Track 2

Filename D:\CD's\Shoes - Present Tense + Tongue Twister (1979, 1981) [FLAC]\02 - Too Late.wav

Peak level 100.0 %
Track quality 100.0 %
Test CRC 233D84BD
Copy CRC 233D84BD
Track not present in AccurateRip database
Copy OK

Track 3

Filename D:\CD's\Shoes - Present Tense + Tongue Twister (1979, 1981) [FLAC]\03 - Hangin' Around with You.wav

Pre-gap length 0:00:00.66

Peak level 100.0 %
Track quality 100.0 %
Test CRC B9ACF276
Copy CRC B9ACF276
Track not present in AccurateRip database
Copy OK

Track 4

Filename D:\CD's\Shoes - Present Tense + Tongue Twister (1979, 1981) [FLAC]\04 - Your Very Eyes.wav

Pre-gap length 0:00:03.17

Peak level 92.9 %
Track quality 100.0 %
Test CRC D577B962
Copy CRC D577B962
Track not present in AccurateRip database
Copy OK

Track 5

Filename D:\CD's\Shoes - Present Tense + Tongue Twister (1979, 1981) [FLAC]\05 - In My Arms Again.wav

Pre-gap length 0:00:00.66

Peak level 87.0 %
Track quality 100.0 %
Test CRC A20B1427
Copy CRC A20B1427
Track not present in AccurateRip database
Copy OK

Track 6

Filename D:\CD's\Shoes - Present Tense + Tongue Twister (1979, 1981) [FLAC]\06 - Somebody Has What I Had.wav

Pre-gap length 0:00:02.66

Peak level 100.0 %
Track quality 99.9 %
Test CRC 56724B98
Copy CRC 56724B98
Track not present in AccurateRip database
Copy OK

Track 7

Filename D:\CD's\Shoes - Present Tense + Tongue Twister (1979, 1981) [FLAC]\07 - Now and Then.wav

Pre-gap length 0:00:03.66

Peak level 100.0 %
Track quality 100.0 %
Test CRC 66F2D77E
Copy CRC 66F2D77E
Track not present in AccurateRip database
Copy OK

Track 8

Filename D:\CD's\Shoes - Present Tense + Tongue Twister (1979, 1981) [FLAC]\08 - Every Girl.wav

Peak level 96.7 %
Track quality 100.0 %
Test CRC 8C72AE38
Copy CRC 8C72AE38
Track not present in AccurateRip database
Copy OK

Track 9

Filename D:\CD's\Shoes - Present Tense + Tongue Twister (1979, 1981) [FLAC]\09 - I Don't Miss You.wav

Pre-gap length 0:00:00.66

Peak level 100.0 %
Track quality 100.0 %
Test CRC 7C51B0D6
Copy CRC 7C51B0D6
Track not present in AccurateRip database
Copy OK

Track 10

Filename D:\CD's\Shoes - Present Tense + Tongue Twister (1979, 1981) [FLAC]\10 - Cruel You.wav

Pre-gap length 0:00:00.66

Peak level 100.0 %
Track quality 100.0 %
Test CRC 33EEA45B
Copy CRC 33EEA45B
Track not present in AccurateRip database
Copy OK

Track 11

Filename D:\CD's\Shoes - Present Tense + Tongue Twister (1979, 1981) [FLAC]\11 - Three Times (See Me, Say It, Listen).wav

Pre-gap length 0:00:00.66

Peak level 98.9 %
Track quality 99.9 %
Test CRC 4CE3C751
Copy CRC 4CE3C751
Track not present in AccurateRip database
Copy OK

Track 12

Filename D:\CD's\Shoes - Present Tense + Tongue Twister (1979, 1981) [FLAC]\12 - I Don't Wanna Hear It.wav

Peak level 97.8 %
Track quality 99.9 %
Test CRC 4348F84D
Copy CRC 4348F84D
Track not present in AccurateRip database
Copy OK

Track 13

Filename D:\CD's\Shoes - Present Tense + Tongue Twister (1979, 1981) [FLAC]\13 - Your Imagination.wav

Pre-gap length 0:00:03.66

Peak level 84.8 %
Track quality 100.0 %
Test CRC 37F85072
Copy CRC 37F85072
Track not present in AccurateRip database
Copy OK

Track 14

Filename D:\CD's\Shoes - Present Tense + Tongue Twister (1979, 1981) [FLAC]\14 - Burned Out Love.wav

Peak level 85.9 %
Track quality 100.0 %
Test CRC DE1CCC01
Copy CRC DE1CCC01
Track not present in AccurateRip database
Copy OK

Track 15

Filename D:\CD's\Shoes - Present Tense + Tongue Twister (1979, 1981) [FLAC]\15 - The Things You Do.wav

Pre-gap length 0:00:00.24

Peak level 93.9 %
Track quality 100.0 %
Test CRC B8970486
Copy CRC B8970486
Track not present in AccurateRip database
Copy OK

Track 16

Filename D:\CD's\Shoes - Present Tense + Tongue Twister (1979, 1981) [FLAC]\16 - Only in My Sleep.wav

Peak level 88.7 %
Track quality 100.0 %
Test CRC 5FCC3CAB
Copy CRC 5FCC3CAB
Track not present in AccurateRip database
Copy OK

Track 17

Filename D:\CD's\Shoes - Present Tense + Tongue Twister (1979, 1981) [FLAC]\17 - Karen.wav

Pre-gap length 0:00:00.40

Peak level 87.0 %
Track quality 100.0 %
Test CRC CE108F93
Copy CRC CE108F93
Track not present in AccurateRip database
Copy OK

Track 18

Filename D:\CD's\Shoes - Present Tense + Tongue Twister (1979, 1981) [FLAC]\18 - She Satisfies.wav

Peak level 95.6 %
Track quality 100.0 %
Test CRC 8BA62E88
Copy CRC 8BA62E88
Track not present in AccurateRip database
Copy OK

Track 19

Filename D:\CD's\Shoes - Present Tense + Tongue Twister (1979, 1981) [FLAC]\19 - Girls of Today.wav

Pre-gap length 0:00:03.66

Peak level 93.3 %
Track quality 100.0 %
Test CRC 26831225
Copy CRC 26831225
Track not present in AccurateRip database
Copy OK

Track 20

Filename D:\CD's\Shoes - Present Tense + Tongue Twister (1979, 1981) [FLAC]\20 - Hopin' She's the One.wav

Peak level 95.8 %
Track quality 99.9 %
Test CRC E8B66F7F
Copy CRC E8B66F7F
Track not present in AccurateRip database
Copy OK

Track 21

Filename D:\CD's\Shoes - Present Tense + Tongue Twister (1979, 1981) [FLAC]\21 - When It Hits.wav

Pre-gap length 0:00:00.66

Peak level 97.9 %
Track quality 100.0 %
Test CRC 1CE4F09A
Copy CRC 1CE4F09A
Track not present in AccurateRip database
Copy OK

Track 22

Filename D:\CD's\Shoes - Present Tense + Tongue Twister (1979, 1981) [FLAC]\22 - Yes or No.wav

Peak level 95.0 %
Track quality 100.0 %
Test CRC 1D0D29B5
Copy CRC 1D0D29B5
Track not present in AccurateRip database
Copy OK

Track 23

Filename D:\CD's\Shoes - Present Tense + Tongue Twister (1979, 1981) [FLAC]\23 - Found a Girl.wav

Pre-gap length 0:00:00.66

Peak level 79.3 %
Track quality 99.9 %
Test CRC 58588823
Copy CRC 58588823
Track not present in AccurateRip database
Copy OK

Track 24

Filename D:\CD's\Shoes - Present Tense + Tongue Twister (1979, 1981) [FLAC]\24 - Hate to Run.wav

Peak level 96.7 %
Track quality 100.0 %
Test CRC E6D23E6C
Copy CRC E6D23E6C
Track not present in AccurateRip database
Copy OK


None of the tracks are present in the AccurateRip database

No errors occurred

End of status report


Shoes - Present Tense + Tongue Twister (1979, 1981) {Black Vinyl Records BV 19888 rel 1988}

Shoes - Present Tense + Tongue Twister (1979, 1981) {Black Vinyl Records BV 19888 rel 1988}


see more Shoes…


===