Subcategories

Sloppy Seconds - Destroyed (1989) [2002 Remastered Reissue with Bonus tracks] RESTORED

Posted By: Rehabilly
Sloppy Seconds - Destroyed (1989) [2002 Remastered Reissue with Bonus tracks] RESTORED

Sloppy Seconds - Destroyed (RMST)
WV+CUE+LOG or MP3 320 | 50:55 min | 392 or 115
The Classic is back, Remastered & now with several bonus tracks!
Currently the best sounding version.

Sloppy Seconds - Destroyed (1989) [2002 Remastered Reissue with Bonus tracks] RESTORED

This is the re-release of possibly the greatest pop punk record of all times, "Destroyed". Originally released in 1989 on vinyl by legendary punk label Toxic Shock (later re-released on CD by Metal Blade Records), this much sought out record has been hard to find over the last decade or so. Not any more. Pumped up with bonus tracks, and remastered to blow your speakers, "Destroyed" is back to wow the next generation. For fans of Screeching Weasel, The Queers, Groovie Ghoulies this record is a classic and will be played large than many times over. No collection is complete without this record!
Tracklist:

01. I Don't Wanna Be A Homosexual
02. Come Back Traci
03. Take You Home
04. Black Roses
05. Runnin' From The CIA
06. The Horror Of Party Beach
07. Blackmail
08. So Fucked Up
09. Leavin' On A Jet Plane [2002 re-release bonus track]
10. Germany
11. Janie Is A Nazi
12. I Want 'Em Dead
13. If I Had A Woman
14. Veronica
15. The Candy Man
16. Steal Your Beer
17. Time Bomb
18. Human Waste [2002 re-release bonus track]
19. Conned Again (from '1992 EP - picture below) [2002 re-release bonus track]
20. Hooray For Santa Claus (from '1992 EP - picture below) [2002 re-release bonus track]
21. Serious [CD Bonus track]

Sloppy Seconds - Destroyed (1989) [2002 Remastered Reissue with Bonus tracks] RESTORED


Exact Audio Copy V0.99 prebeta 5 from 4. May 2009

EAC extraction logfile from 28. November 2009, 23:16

Sloppy Seconds / Destroyed (2002 Remaster)

Used drive : PIONEER DVD-RW DVR-116D Adapter: 1 ID: 0

Read mode : Secure
Utilize accurate stream : Yes
Defeat audio cache : Yes
Make use of C2 pointers : No

Read offset correction : 96
Overread into Lead-In and Lead-Out : No
Fill up missing offset samples with silence : Yes
Delete leading and trailing silent blocks : No
Null samples used in CRC calculations : Yes
Used interface : Installed external ASPI interface

Used output format : Internal WAV Routines
Sample format : 44.100 Hz; 16 Bit; Stereo


TOC of the extracted CD

Track | Start | Length | Start sector | End sector
––––––––––––––––––––––––––––-
1 | 0:00.00 | 5:04.46 | 0 | 22845
2 | 5:04.46 | 2:03.43 | 22846 | 32113
3 | 7:08.14 | 1:23.63 | 32114 | 38401
4 | 8:32.02 | 2:23.19 | 38402 | 49145
5 | 10:55.21 | 2:02.02 | 49146 | 58297
6 | 12:57.23 | 2:08.46 | 58298 | 67943
7 | 15:05.69 | 2:49.21 | 67944 | 80639
8 | 17:55.15 | 2:33.71 | 80640 | 92185
9 | 20:29.11 | 2:32.15 | 92186 | 103600
10 | 23:01.26 | 2:19.25 | 103601 | 114050
11 | 25:20.51 | 2:36.70 | 114051 | 125820
12 | 27:57.46 | 3:32.61 | 125821 | 141781
13 | 31:30.32 | 2:53.09 | 141782 | 154765
14 | 34:23.41 | 2:42.17 | 154766 | 166932
15 | 37:05.58 | 1:34.02 | 166933 | 173984
16 | 38:39.60 | 1:40.28 | 173985 | 181512
17 | 40:20.13 | 1:55.27 | 181513 | 190164
18 | 42:15.40 | 2:23.57 | 190165 | 200946
19 | 44:39.22 | 2:19.00 | 200947 | 211371
20 | 46:58.22 | 1:40.10 | 211372 | 218881
21 | 48:38.32 | 2:16.28 | 218882 | 229109


Range status and errors

Selected range

Filename C:\AvaxHome.ru\1989- Destroyed [2002 RMST Reissue with Bonus tracks]\Sloppy Seconds - Destroyed (2002 Remaster).wav

Peak level 100.0 %
Range quality 100.0 %
Test CRC 68195379
Copy CRC 68195379
Copy OK

No errors occurred


AccurateRip summary

Track 1 not present in database
Track 2 not present in database
Track 3 not present in database
Track 4 not present in database
Track 5 not present in database
Track 6 not present in database
Track 7 not present in database
Track 8 not present in database
Track 9 not present in database
Track 10 not present in database
Track 11 not present in database
Track 12 not present in database
Track 13 not present in database
Track 14 not present in database
Track 15 not present in database
Track 16 not present in database
Track 17 not present in database
Track 18 not present in database
Track 19 not present in database
Track 20 not present in database
Track 21 not present in database

None of the tracks are present in the AccurateRip database

End of status report

Original Album Produced by Sloppy Seconds and Paul Mahern
Engineered by Paul Mahern. Recorded at Diehl Productions, Carmel, IN.

• B.A. - vocals
• Dr. Roadkill - guitar
• Bo'Ba Jam - bass
• Steve Sloppy - drums

Original Release Date: 1989
Re-Release Date: October 15, 2002
Format: Original Recording Remastered
Label: Coldfront Records
Catalog No.: CF 066-2

Strongly forbibidden reposted it on any torrent trackers or other sites.
Buy and share your own stuff where you want.

The Right choice*
http://filepost.com/files/b2623f59/SS0289DES46V.part1.rar
http://filepost.com/files/942m3eae/SS0289DES46V.part2.rar

all covers.png/jpg (58 MB)
http://filepost.com/files/52d8b295/SS0289DES360C.rar

lossy.mp3
http://filepost.com/files/ad57f3bf/SS0289DES20G.rar


* Original CD -> EAC Image, embedded cuesheet & more, foobar2000 ready, etc.
(all CUEs, LOGs and other technical info includes in the internal "CD_Support" archive).

_______________________________