Tags
Language
Tags

Soft Cell - This Last Night... In Sodom (1984) {Mercury 558 267-2 rem 1998}

Posted By: ruskaval
Soft Cell - This Last Night... In Sodom (1984) {Mercury 558 267-2 rem 1998}

Soft Cell - This Last Night… In Sodom (1984) {Mercury 558 267-2 rem 1998}
EAC rip (secure mode) | FLAC (tracks)+CUE+LOG -> 556 Mb | MP3 @320 -> 184 Mb
Full Artwork @ 300 dpi (jpg) -> 17 Mb | 5% repair rar
© 1984, 1998 Mercury Records / PolyGram | 558 267-2
Synth Pop / Dance Pop / New Romantic / New Wave

For those whose exposure to Soft Cell has been limited to the glorious and inescapable "Tainted Love," the duo's 1984 swan song This Last Night in Sodom should feature a warning sticker. Singer Marc Almond and keyboardist Dave Ball don't attempt to recapture the Top 40 magic of that hit here.

Instead, Almond completes his transformation into an electro-pop Scott Walker, operatically singing self-conscious and jaded songs like "Mr. Self-Destruct," "Little Rough Rhinestone," and "Meet Murder My Angel," while Ball's keyboards explore an icy, nearly Germanic abstraction (in the Kraftwerk/Neu! sense). Anyone intrigued by the prospect of faux-decadent torch songs in the Piaf/Brel tradition should be interested in this electronic hybrid of the style, but if you're looking for "Tainted Love, Pt. 2," it isn't here.
Soft Cell - This Last Night... In Sodom (1984) {Mercury 558 267-2 rem 1998}


Personnel:
Marc Almond – Vocals, percussion, (guitar on "The Best Way to Kill")
David Ball – Keyboards, instruments, bass, guitar, percussion
Gary Barnacle – Saxophone
Gini Ball – Vocals

Tracklist:
1. Mr Self Destruct
2. Slave To This
3. Little Rough Rhinestone
4. Meet Murder My Angel
5. The Best Way To Kill
6. L'Esqualita
7. Down In The Subway
8. Surrender To A Stranger
9. Soul Inside
10. Where Was Your Heart (When You Needed It Most)

Bonus Tracks:
11. Disease And Desire
12. Born To Lose
13. You Only Live Twice
14. 007 Theme
15. Soul Inside (12" Mix)
16. Her Imagination

Exact Audio Copy V1.0 beta 4 from 7. December 2014

EAC extraction logfile from 12. November 2016, 20:47

Soft Cell / This Last Night … In Sodom

Used drive : MATSHITADVD-RAM UJ8D2Q Adapter: 1 ID: 0

Read mode : Secure
Utilize accurate stream : Yes
Defeat audio cache : Yes
Make use of C2 pointers : No

Read offset correction : 103
Overread into Lead-In and Lead-Out : No
Fill up missing offset samples with silence : Yes
Delete leading and trailing silent blocks : No
Null samples used in CRC calculations : Yes
Used interface : Native Win32 interface for Win NT & 2000
Gap handling : Appended to previous track

Used output format : User Defined Encoder
Selected bitrate : 896 kBit/s
Quality : High
Add ID3 tag : No
Command line compressor : C:\Program Files (x86)\Exact Audio Copy\Flac\flac.exe
Additional command line options : -8 -V -T "ARTIST=%artist%" -T "TITLE=%title%" -T "ALBUM=%albumtitle%" -T "DATE=%year%" -T "TRACKNUMBER=%tracknr%" -T "TOTALTRACKS=%numtracks%" -T "GENRE=%genre%" -T "ALBUMARTIST=%albumartist%" -T "ALBUM ARTIST=%albumartist%" -T "COMMENT=EAC Secure Mode, Test & Copy, AccurateRip, FLAC -8" %source%


TOC of the extracted CD

Track | Start | Length | Start sector | End sector
––––––––––––––––––––––––––––-
1 | 0:00.00 | 3:14.22 | 0 | 14571
2 | 3:14.22 | 5:03.68 | 14572 | 37364
3 | 8:18.15 | 4:32.50 | 37365 | 57814
4 | 12:50.65 | 4:38.35 | 57815 | 78699
5 | 17:29.25 | 4:42.60 | 78700 | 99909
6 | 22:12.10 | 7:09.12 | 99910 | 132096
7 | 29:21.22 | 2:51.40 | 132097 | 144961
8 | 32:12.62 | 3:38.23 | 144962 | 161334
9 | 35:51.10 | 4:27.20 | 161335 | 181379
10 | 40:18.30 | 5:08.32 | 181380 | 204511
11 | 45:26.62 | 4:03.25 | 204512 | 222761
12 | 49:30.12 | 2:52.73 | 222762 | 235734
13 | 52:23.10 | 4:31.55 | 235735 | 256114
14 | 56:54.65 | 3:35.27 | 256115 | 272266
15 | 60:30.17 | 11:58.20 | 272267 | 326136
16 | 72:28.37 | 5:22.08 | 326137 | 350294


Track 1

Filename C:\Users\paul\AppData\Local\VirtualStore\Program Files (x86)\Exact Audio Copy\Flac\01 - Mr Self Destruct.wav

Pre-gap length 0:00:02.00

Peak level 99.9 %
Extraction speed 2.4 X
Track quality 100.0 %
Test CRC CCD60C56
Copy CRC CCD60C56
Accurately ripped (confidence 6) [ADA8EE84] (AR v2)
Copy OK

Track 2

Filename C:\Users\paul\AppData\Local\VirtualStore\Program Files (x86)\Exact Audio Copy\Flac\02 - Slave To This.wav

Peak level 99.1 %
Extraction speed 2.8 X
Track quality 100.0 %
Test CRC 6F50BB5C
Copy CRC 6F50BB5C
Accurately ripped (confidence 6) [836FA7CA] (AR v2)
Copy OK

Track 3

Filename C:\Users\paul\AppData\Local\VirtualStore\Program Files (x86)\Exact Audio Copy\Flac\03 - Little Rough Rhinestone.wav

Peak level 99.9 %
Extraction speed 3.0 X
Track quality 100.0 %
Test CRC C36054C1
Copy CRC C36054C1
Accurately ripped (confidence 6) [6C1F4441] (AR v2)
Copy OK

Track 4

Filename C:\Users\paul\AppData\Local\VirtualStore\Program Files (x86)\Exact Audio Copy\Flac\04 - Meet Murder My Angel.wav

Peak level 99.9 %
Extraction speed 3.1 X
Track quality 100.0 %
Test CRC E96424CD
Copy CRC E96424CD
Accurately ripped (confidence 6) [2018C9FA] (AR v2)
Copy OK

Track 5

Filename C:\Users\paul\AppData\Local\VirtualStore\Program Files (x86)\Exact Audio Copy\Flac\05 - The Best Way To Kill.wav

Peak level 99.8 %
Extraction speed 3.4 X
Track quality 100.0 %
Test CRC B0E193A5
Copy CRC B0E193A5
Accurately ripped (confidence 6) [E0828E55] (AR v2)
Copy OK

Track 6

Filename C:\Users\paul\AppData\Local\VirtualStore\Program Files (x86)\Exact Audio Copy\Flac\06 - L'Esqualita.wav

Peak level 99.9 %
Extraction speed 3.9 X
Track quality 100.0 %
Test CRC FE498939
Copy CRC FE498939
Accurately ripped (confidence 6) [BF9B54C1] (AR v2)
Copy OK

Track 7

Filename C:\Users\paul\AppData\Local\VirtualStore\Program Files (x86)\Exact Audio Copy\Flac\07 - Down In The Subway.wav

Peak level 99.9 %
Extraction speed 3.7 X
Track quality 100.0 %
Test CRC F7BF4493
Copy CRC F7BF4493
Accurately ripped (confidence 6) [F77146C0] (AR v2)
Copy OK

Track 8

Filename C:\Users\paul\AppData\Local\VirtualStore\Program Files (x86)\Exact Audio Copy\Flac\08 - Surrender To A Stranger.wav

Peak level 99.9 %
Extraction speed 3.8 X
Track quality 100.0 %
Test CRC 5B964F57
Copy CRC 5B964F57
Accurately ripped (confidence 6) [5E9EAFE1] (AR v2)
Copy OK

Track 9

Filename C:\Users\paul\AppData\Local\VirtualStore\Program Files (x86)\Exact Audio Copy\Flac\09 - Soul Inside.wav

Peak level 99.9 %
Extraction speed 3.1 X
Track quality 99.9 %
Test CRC 3A2398F8
Copy CRC 3A2398F8
Accurately ripped (confidence 6) [800ABC05] (AR v2)
Copy OK

Track 10

Filename C:\Users\paul\AppData\Local\VirtualStore\Program Files (x86)\Exact Audio Copy\Flac\10 - Where Was Your Heart (When You Needed It Most).wav

Peak level 99.9 %
Extraction speed 3.4 X
Track quality 99.9 %
Test CRC 67545CB3
Copy CRC 67545CB3
Accurately ripped (confidence 6) [DF76B2CA] (AR v2)
Copy OK

Track 11

Filename C:\Users\paul\AppData\Local\VirtualStore\Program Files (x86)\Exact Audio Copy\Flac\11 - Disease And Desire.wav

Peak level 99.0 %
Extraction speed 3.3 X
Track quality 99.9 %
Test CRC 3FC6E051
Copy CRC 3FC6E051
Accurately ripped (confidence 6) [575AD53A] (AR v2)
Copy OK

Track 12

Filename C:\Users\paul\AppData\Local\VirtualStore\Program Files (x86)\Exact Audio Copy\Flac\12 - Born To Lose.wav

Peak level 99.9 %
Extraction speed 2.9 X
Track quality 99.9 %
Test CRC B95441B2
Copy CRC B95441B2
Accurately ripped (confidence 6) [B47E502D] (AR v2)
Copy OK

Track 13

Filename C:\Users\paul\AppData\Local\VirtualStore\Program Files (x86)\Exact Audio Copy\Flac\13 - You Only Live Twice.wav

Peak level 99.9 %
Extraction speed 4.7 X
Track quality 100.0 %
Test CRC 80D952F7
Copy CRC 80D952F7
Accurately ripped (confidence 5) [0C78263F] (AR v2)
Copy OK

Track 14

Filename C:\Users\paul\AppData\Local\VirtualStore\Program Files (x86)\Exact Audio Copy\Flac\14 - 007 Theme.wav

Peak level 99.9 %
Extraction speed 4.5 X
Track quality 100.0 %
Test CRC D20B26C4
Copy CRC D20B26C4
Accurately ripped (confidence 6) [991D63DF] (AR v2)
Copy OK

Track 15

Filename C:\Users\paul\AppData\Local\VirtualStore\Program Files (x86)\Exact Audio Copy\Flac\15 - Soul Inside (12'' Mix).wav

Pre-gap length 0:00:01.02

Peak level 99.9 %
Extraction speed 5.0 X
Track quality 100.0 %
Test CRC CE345B37
Copy CRC CE345B37
Accurately ripped (confidence 6) [2820A165] (AR v2)
Copy OK

Track 16

Filename C:\Users\paul\AppData\Local\VirtualStore\Program Files (x86)\Exact Audio Copy\Flac\16 - Her Imagination.wav

Pre-gap length 0:00:01.00

Peak level 85.5 %
Extraction speed 5.5 X
Track quality 100.0 %
Test CRC C1AF9289
Copy CRC C1AF9289
Accurately ripped (confidence 6) [ED6260C4] (AR v2)
Copy OK


All tracks accurately ripped

No errors occurred

End of status report

–– CUETools DB Plugin V2.1.4

[CTDB TOCID: 9dHcPwD1nz1vVjFqQMnsXQpMoyI-] found
Submit result: 9dHcPwD1nz1vVjFqQMnsXQpMoyI- has been confirmed
Track | CTDB Status
1 | (16/31) Accurately ripped
2 | (31/31) Accurately ripped
3 | (31/31) Accurately ripped
4 | (31/31) Accurately ripped
5 | (31/31) Accurately ripped
6 | (31/31) Accurately ripped
7 | (31/31) Accurately ripped
8 | (31/31) Accurately ripped
9 | (31/31) Accurately ripped
10 | (31/31) Accurately ripped
11 | (16/31) Accurately ripped
12 | (16/31) Accurately ripped
13 | (30/31) Accurately ripped
14 | (31/31) Accurately ripped
15 | (31/31) Accurately ripped
16 | (14/31) Accurately ripped


==== Log checksum 013616E4A049EA302BEBFD8418ADBD2C6F97A11EE3A30D0AA8616D26D0176042 ====


Soft Cell - This Last Night... In Sodom (1984) {Mercury 558 267-2 rem 1998}

Soft Cell - This Last Night... In Sodom (1984) {Mercury 558 267-2 rem 1998}


All thanks goes to the original releaser!

===