Tags
Language
Tags
April 2024
Su Mo Tu We Th Fr Sa
31 1 2 3 4 5 6
7 8 9 10 11 12 13
14 15 16 17 18 19 20
21 22 23 24 25 26 27
28 29 30 1 2 3 4

Sonny Stitt - Deuces Wild (1966) {2013 Japan Jazz Best Collection 1000 Series 24bit Remaster WPCR-27270}

Posted By: ruskaval
Sonny Stitt - Deuces Wild (1966) {2013 Japan Jazz Best Collection 1000 Series 24bit Remaster WPCR-27270}

Sonny Stitt - Deuces Wild (1966) {2013 Japan Jazz Best Collection 1000 Series 24bit Remaster WPCR-27270}
EAC rip (secure mode) | FLAC (tracks)+CUE+LOG -> 213 Mb | MP3 @320 -> 81 Mb
Full Artwork @ 300 dpi (jpg) -> 12 Mb | 5% repair rar | 24bit remaster
© 1966, 2013 Atlantic / Rhino / Warner Japan / WEA | WPCR-27270 | Jazz Best Collection 1000 Series
Jazz / Bop / Saxophone

Features 24 bit remastering and comes with a mini-description. A great little Sonny Stitt album – very different than any of his other sets from the 60s! The album has a number of interesting aspects – from hard-wailing organ by Wilmer Mosby (who we think is Don Patterson under a fake name), to some screaming guest work by Rufus Harley and Robin Kenyatta. Sonny and Kenyatta sound especially great together, and on the track "In The Bag" Stitt's alto blends right in with Kenyattas, for an hard-wailing sound that's enough to shatter your windows, glasses, and contact lenses. Harley's work is equally great on the cut "Pipin The Blues", and with Sitt playing the sax parts, Rufus is free to really work those jazz bagpipes!
Sonny Stitt - Deuces Wild (1966) {2013 Japan Jazz Best Collection 1000 Series 24bit Remaster WPCR-27270}


Personnel

Sonny Stitt - alto saxophone, tenor saxophone
Robin Kenyatta - alto saxophone, soprano saxophone
Wilmer Mosby (Don Patterson ?) - organ
Billy James - drums
Rufus Harley - bagpipes

Track Listing

01 - Deuces Wild
02 - My Foolish Heart
03 - Blues Ahead
04 - Sittin' In With Stitt
05 - In The Bag
06 - Me 'N' You
07 - Pipin' the Blues

Exact Audio Copy V1.0 beta 3 from 29. August 2011

EAC extraction logfile from 18. June 2014, 10:06

Deuces Wild / Sonny Stitt

Used drive : hp DVD A DH16AAL Adapter: 0 ID: 1

Read mode : Secure
Utilize accurate stream : Yes
Defeat audio cache : Yes
Make use of C2 pointers : No

Read offset correction : 6
Overread into Lead-In and Lead-Out : No
Fill up missing offset samples with silence : Yes
Delete leading and trailing silent blocks : No
Null samples used in CRC calculations : Yes
Used interface : Native Win32 interface for Win NT & 2000
Gap handling : Appended to previous track

Used output format : User Defined Encoder
Selected bitrate : 1024 kBit/s
Quality : High
Add ID3 tag : Yes
Command line compressor : C:\Program Files (x86)\Exact Audio Copy\Flac\flac.exe
Additional command line options : -8 -V -T "ARTIST=%artist%" -T "TITLE=%title%" -T "ALBUM=%albumtitle%" -T "DATE=%year%" -T "TRACKNUMBER=%tracknr%" -T "GENRE=%genre%" -T "PERFORMER=%albuminterpret%" -T "COMPOSER=%composer%" %haslyrics%–tag-from-file=LYRICS="%lyricsfile%"%haslyrics% -T "ALBUMARTIST=%albumartist%" -T "DISCNUMBER=%cdnumber%" -T "TOTALDISCS=%totalcds%" -T "TOTALTRACKS=%numtracks%" -T "COMMENT=%comment%" %source% -o %dest%


TOC of the extracted CD

Track | Start | Length | Start sector | End sector
––––––––––––––––––––––––––––-
1 | 0:00.00 | 5:26.20 | 0 | 24469
2 | 5:26.20 | 4:44.12 | 24470 | 45781
3 | 10:10.32 | 4:18.45 | 45782 | 65176
4 | 14:29.02 | 4:01.69 | 65177 | 83320
5 | 18:30.71 | 6:21.45 | 83321 | 111940
6 | 24:52.41 | 3:19.69 | 111941 | 126934
7 | 28:12.35 | 5:51.17 | 126935 | 153276


Track 1

Filename C:\Eac\Eac-Rips\ss\01 - Deuces Wild.wav

Pre-gap length 0:00:02.00

Peak level 100.0 %
Extraction speed 3.6 X
Track quality 100.0 %
Test CRC 6D7051E7
Copy CRC 6D7051E7
Track not present in AccurateRip database
Copy OK

Track 2

Filename C:\Eac\Eac-Rips\ss\02 - My Foolish Heart.wav

Pre-gap length 0:00:00.61

Peak level 100.0 %
Extraction speed 3.3 X
Track quality 99.9 %
Test CRC 40A3E068
Copy CRC 40A3E068
Track not present in AccurateRip database
Copy OK

Track 3

Filename C:\Eac\Eac-Rips\ss\03 - Blues Ahead.wav

Pre-gap length 0:00:00.89

Peak level 100.0 %
Extraction speed 3.6 X
Track quality 99.9 %
Test CRC 241B6310
Copy CRC 241B6310
Track not present in AccurateRip database
Copy OK

Track 4

Filename C:\Eac\Eac-Rips\ss\04 - Sittin' In With Stitt.wav

Pre-gap length 0:00:00.97

Peak level 100.0 %
Extraction speed 4.6 X
Track quality 100.0 %
Test CRC 04B53852
Copy CRC 04B53852
Track not present in AccurateRip database
Copy OK

Track 5

Filename C:\Eac\Eac-Rips\ss\05 - In The Bag.wav

Pre-gap length 0:00:00.77

Peak level 100.0 %
Extraction speed 5.3 X
Track quality 100.0 %
Test CRC 2B69DD61
Copy CRC 2B69DD61
Track not present in AccurateRip database
Copy OK

Track 6

Filename C:\Eac\Eac-Rips\ss\06 - Me 'N' You.wav

Pre-gap length 0:00:00.73

Peak level 100.0 %
Extraction speed 5.1 X
Track quality 100.0 %
Test CRC 9F85C5E0
Copy CRC 9F85C5E0
Track not present in AccurateRip database
Copy OK

Track 7

Filename C:\Eac\Eac-Rips\ss\07 - Pipin' the Blues.wav

Pre-gap length 0:00:01.17

Peak level 100.0 %
Extraction speed 5.8 X
Track quality 100.0 %
Test CRC 6D5D1010
Copy CRC 6D5D1010
Track not present in AccurateRip database
Copy OK


None of the tracks are present in the AccurateRip database

No errors occurred

End of status report

==== Log checksum FA6529806CD66D7B026BD679F301E5EF3A75AF673B5CEAB83AEFE2D558C054DA ====


Sonny Stitt - Deuces Wild (1966) {2013 Japan Jazz Best Collection 1000 Series 24bit Remaster WPCR-27270}

Sonny Stitt - Deuces Wild (1966) {2013 Japan Jazz Best Collection 1000 Series 24bit Remaster WPCR-27270}


see more Japan Jazz Best Collection 1000 Series…


===