Tags
Language
Tags

Sonny Stitt & Don Patterson - Legends Of Acid Jazz Vol 2 (1968) {Prestige 00025218521024 rel 2006}

Posted By: ruskaval
Sonny Stitt & Don Patterson - Legends Of Acid Jazz Vol 2 (1968) {Prestige 00025218521024 rel 2006}

Sonny Stitt & Don Patterson - Legends Of Acid Jazz Vol 2 (1968) {Prestige 00025218521024 rel 2006}
EAC rip (secure mode) | FLAC (tracks)+CUE+LOG -> 457 Mb | MP3 @320 -> 171 Mb
Full Artwork @ 300 dpi (jpg) -> 13 Mb | 5% repair rar
© 1968, 2006 Prestige Records / Fantasy / Universal | 00025218521024
Jazz / Bop / Soul Jazz / Organ / Saxophone

Two-fer CD reissue combines two 1968 sessions, both featuring Stitt and Patterson, that were recorded on consecutive days (September 23-24, 1968), although one was issued under Patterson's name and the other under Stitt's. The first six songs were issued as the Patterson LP Funk You!, on which Patterson leads a date that also has Sonny Stitt and Charles McPherson on saxes and Pat Martino on guitar. The other players get about as much space as Patterson, and as 1960s jazz with organ goes, this is pretty straight-ahead and boppish, rather than soul-jazz (as so much organ jazz from that decade was).

For the bop factor, listen especially to the cover of Sonny Rollins' "Airegin," on which Martino in particular shines. Patterson does get in a more soulful mood on his composition "Little Angie," which has an elegiac mood somewhat similar to occasional slow instrumentals cut by Booker T. & the MG's during that period. The other eight songs were issued as the Stitt LP Soul Electricity!, an album that got its name because, for this session, Stitt plugged his alto and tenor saxophones into a Varitone attachment. What came out, though, was not fusion by any means, but a pretty straight-ahead session that found Stitt his usual competent self. The program is actually on the conservative side, leaning toward standards. Stitt's quartet is rounded out by Don Patterson on organ, Billy Butler on guitar, and Billy James on drums. This isn't the most logical package – Stitt's half is more straight-ahead in flavor and, more importantly, neither album fits too well into the soul-jazz or acid jazz category – but for fans of either artist, the material is worth hearing.
Sonny Stitt & Don Patterson - Legends Of Acid Jazz Vol 2 (1968) {Prestige 00025218521024 rel 2006}


Personnel:

[# 1-6] Don Patterson "Funk You !" (Prestige 7613)

Don Patterson - org
Sonny Stitt - as & ts
Charles McPherson - as
Pat Martino - g
Billy James - dr

Recorded in New York ; September 24, 1968

[# 7-14] Sonny Stitt "Soul Electicity !" (Prestige 7635)

Sonny Stitt - as & ts (var)
Don Patterson - org
Billy Buttler - g
Billy James - dr

Recorded in Englewood Cliffs, New Jersey ; September 23, 1968

Track Listing:

1 Ratio and Proportion (Stitt) 4:53
2 Airegin (Rollins) 4:31
3 Little Angie (Patterson) 6:14
4 My Man String (Patterson) 4:43
5 Funk in 3/4 (Patterson) 5:23
6 It's You or No One (Cahn, Styne) 6:03
7 All the Things You Are (Hammerstein, Kern) 5:58
8 Lover Man (Davis, Ramirez, Sherman) 3:25
9 P.S. I Love You (Jenkins, Mercer) 5:35
10 Stella by Starlight (Washington, Young) 5:24
11 Bye Bye Blackbird (Dixon, Henderson) 5:33
12 Over the Rainbow (Arlen, Harburg) 3:57
13 Candy (David, Kramer, Whitney) 5:50
14 Strike up the Band (Gershwin, Gershwin) 3:30

Exact Audio Copy V0.99 prebeta 5 from 4. May 2009

EAC extraction logfile from 23. November 2009, 19:29

Sonny Stitt & Don Patterson / Legends Of Acid Jazz Vol 2

Used drive : TSSTcorpCDDVDW SH-S203N Adapter: 0 ID: 2

Read mode : Secure
Utilize accurate stream : Yes
Defeat audio cache : Yes
Make use of C2 pointers : No

Read offset correction : 6
Overread into Lead-In and Lead-Out : No
Fill up missing offset samples with silence : Yes
Delete leading and trailing silent blocks : No
Null samples used in CRC calculations : Yes
Used interface : Installed external ASPI interface
Gap handling : Appended to previous track

Used output format : User Defined Encoder
Selected bitrate : 768 kBit/s
Quality : High
Add ID3 tag : No
Command line compressor : C:\Program Files\Exact Audio Copy\Flac\flac.exe
Additional command line options : -8 -V -T "ARTIST=%a" -T "TITLE=%t" -T "ALBUM=%g" -T "DATE=%y" -T "TRACKNUMBER=%n" -T "TOTALTRACKS=%x" -T "GENRE=%m" -T "ALBUMARTIST=%v" -T "ALBUM ARTIST=%v" -T "COMMENT=EAC V0.99 pb5, Secure Mode, Test & Copy, AccurateRip,


TOC of the extracted CD

Track | Start | Length | Start sector | End sector
––––––––––––––––––––––––––––-
1 | 0:00.00 | 4:57.50 | 0 | 22324
2 | 4:57.50 | 4:37.52 | 22325 | 43151
3 | 9:35.27 | 6:17.53 | 43152 | 71479
4 | 15:53.05 | 4:47.32 | 71480 | 93036
5 | 20:40.37 | 5:28.05 | 93037 | 117641
6 | 26:08.42 | 6:08.23 | 117642 | 145264
7 | 32:16.65 | 6:04.22 | 145265 | 172586
8 | 38:21.12 | 3:30.33 | 172587 | 188369
9 | 41:51.45 | 5:41.00 | 188370 | 213944
10 | 47:32.45 | 5:27.22 | 213945 | 238491
11 | 52:59.67 | 5:36.38 | 238492 | 263729
12 | 58:36.30 | 4:02.57 | 263730 | 281936
13 | 62:39.12 | 5:55.10 | 281937 | 308571
14 | 68:34.22 | 3:33.50 | 308572 | 324596


Track 1

Filename J:\New Rips\Sonny Stitt & Don Patterson - Legends Of Acid Jazz Vol 2 (1968) [FLAC] {Prestige}\01 - Ratio And Proportion.wav

Pre-gap length 0:00:02.00

Peak level 100.0 %
Track quality 100.0 %
Test CRC 58EE921E
Copy CRC 58EE921E
Track not present in AccurateRip database
Copy OK

Track 2

Filename J:\New Rips\Sonny Stitt & Don Patterson - Legends Of Acid Jazz Vol 2 (1968) [FLAC] {Prestige}\02 - Airegin.wav

Pre-gap length 0:00:03.29

Peak level 100.0 %
Track quality 100.0 %
Test CRC C97FD83F
Copy CRC C97FD83F
Track not present in AccurateRip database
Copy OK

Track 3

Filename J:\New Rips\Sonny Stitt & Don Patterson - Legends Of Acid Jazz Vol 2 (1968) [FLAC] {Prestige}\03 - Little Angie.wav

Pre-gap length 0:00:03.88

Peak level 100.0 %
Track quality 100.0 %
Test CRC 04407FDC
Copy CRC 04407FDC
Track not present in AccurateRip database
Copy OK

Track 4

Filename J:\New Rips\Sonny Stitt & Don Patterson - Legends Of Acid Jazz Vol 2 (1968) [FLAC] {Prestige}\04 - My Man String.wav

Pre-gap length 0:00:02.12

Peak level 99.9 %
Track quality 100.0 %
Test CRC D0FDAA8A
Copy CRC D0FDAA8A
Track not present in AccurateRip database
Copy OK

Track 5

Filename J:\New Rips\Sonny Stitt & Don Patterson - Legends Of Acid Jazz Vol 2 (1968) [FLAC] {Prestige}\05 - Funk In 3-4.wav

Pre-gap length 0:00:03.98

Peak level 99.9 %
Track quality 99.9 %
Test CRC EE6B006D
Copy CRC EE6B006D
Track not present in AccurateRip database
Copy OK

Track 6

Filename J:\New Rips\Sonny Stitt & Don Patterson - Legends Of Acid Jazz Vol 2 (1968) [FLAC] {Prestige}\06 - It's You Or No One.wav

Pre-gap length 0:00:03.52

Peak level 100.0 %
Track quality 100.0 %
Test CRC 1DD04C9C
Copy CRC 1DD04C9C
Track not present in AccurateRip database
Copy OK

Track 7

Filename J:\New Rips\Sonny Stitt & Don Patterson - Legends Of Acid Jazz Vol 2 (1968) [FLAC] {Prestige}\07 - All The Things You Are.wav

Pre-gap length 0:00:03.32

Peak level 100.0 %
Track quality 100.0 %
Test CRC B739A90C
Copy CRC B739A90C
Track not present in AccurateRip database
Copy OK

Track 8

Filename J:\New Rips\Sonny Stitt & Don Patterson - Legends Of Acid Jazz Vol 2 (1968) [FLAC] {Prestige}\08 - Lover Man.wav

Pre-gap length 0:00:01.94

Peak level 100.0 %
Track quality 100.0 %
Test CRC DE8CCDBD
Copy CRC DE8CCDBD
Track not present in AccurateRip database
Copy OK

Track 9

Filename J:\New Rips\Sonny Stitt & Don Patterson - Legends Of Acid Jazz Vol 2 (1968) [FLAC] {Prestige}\09 - Ps I Love You.wav

Pre-gap length 0:00:01.22

Peak level 99.6 %
Track quality 100.0 %
Test CRC 7EB00BF4
Copy CRC 7EB00BF4
Track not present in AccurateRip database
Copy OK

Track 10

Filename J:\New Rips\Sonny Stitt & Don Patterson - Legends Of Acid Jazz Vol 2 (1968) [FLAC] {Prestige}\10 - Stella By Starlight.wav

Pre-gap length 0:00:01.65

Peak level 99.9 %
Track quality 100.0 %
Test CRC 828285ED
Copy CRC 828285ED
Track not present in AccurateRip database
Copy OK

Track 11

Filename J:\New Rips\Sonny Stitt & Don Patterson - Legends Of Acid Jazz Vol 2 (1968) [FLAC] {Prestige}\11 - Bye Bye Blackbird.wav

Pre-gap length 0:00:01.85

Peak level 99.8 %
Track quality 100.0 %
Test CRC B55A5333
Copy CRC B55A5333
Track not present in AccurateRip database
Copy OK

Track 12

Filename J:\New Rips\Sonny Stitt & Don Patterson - Legends Of Acid Jazz Vol 2 (1968) [FLAC] {Prestige}\12 - Over The Rainbow.wav

Pre-gap length 0:00:01.92

Peak level 81.4 %
Track quality 99.9 %
Test CRC 42C15466
Copy CRC 42C15466
Track not present in AccurateRip database
Copy OK

Track 13

Filename J:\New Rips\Sonny Stitt & Don Patterson - Legends Of Acid Jazz Vol 2 (1968) [FLAC] {Prestige}\13 - Candy.wav

Pre-gap length 0:00:01.08

Peak level 100.0 %
Track quality 100.0 %
Test CRC 46727970
Copy CRC 46727970
Track not present in AccurateRip database
Copy OK

Track 14

Filename J:\New Rips\Sonny Stitt & Don Patterson - Legends Of Acid Jazz Vol 2 (1968) [FLAC] {Prestige}\14 - Strike Up The Band.wav

Pre-gap length 0:00:01.21

Peak level 100.0 %
Track quality 100.0 %
Test CRC 8E1E45C3
Copy CRC 8E1E45C3
Track not present in AccurateRip database
Copy OK


None of the tracks are present in the AccurateRip database

No errors occurred

End of status report


Sonny Stitt & Don Patterson - Legends Of Acid Jazz Vol 2 (1968) {Prestige 00025218521024 rel 2006}

Sonny Stitt & Don Patterson - Legends Of Acid Jazz Vol 2 (1968) {Prestige 00025218521024 rel 2006}



===