Squirrel Nut Zippers: 7 CDs collection (1995-2009) RE-UP

Posted By: perfecta
Squirrel Nut Zippers: 7 CDs collection (1995-2009) RE-UP

Squirrel Nut Zippers: 7 CDs collection (1995-2009)
7x EAC-FLAC Images with CUEs & LOGs - 1,84 GB | Scans | MP3 CBR 320 Kbps - 637 MB
Swing Revival / Neoswing | TT - 282:17 minutes | Label: Mammoth Records Inc.

The Squirrel Nut Zippers are a band formed in 1993 in Chapel Hill, North Carolina. While the band's eclectic fusion of Delta blues, gypsy jazz, 1930s-era swing, klezmer, and other styles makes them hard to categorize, their unique music found a niche in the late 1990s, when the band met with national recognition and commercial success, sometimes associated with the Swing Revival of the same period.


The commercialization of alternative music in the '90s resulted in many strange one-hit wonders, but few were quite as unpredictable as Squirrel Nut Zippers. During a time when hipsters were obsessed with swing music in its relation to Frank Sinatra and Dean Martin's Rat Pack, the Zippers were fascinated with big-band swing and Harlem, creating a tongue-in-cheek salute to '20s and '30s jazz. For younger listeners familiar with the style but not the content of classic hot jazz, the band was good fun, but purists found the group's vaguely campy sense of humor and amateurish technique off-putting. This debate would never have even been a matter of consideration if "Hell," an incessantly catchy single from their 1997 album Hot, hadn't been able to sneak through loosened alternative airplay to become a novelty hit. "Hell" became a crossover hit on the strength of a bizarrely theatrical vehicle, and Squirrel Nut Zippers quickly became one of the hottest alternative bands of the first half of the year.

Jim Mathus (vocals, guitar, trombone) and Katharine Whalen (vocals, banjo) formed Squirrel Nut Zippers in 1993 after leaving Chapel Hill, NC, for the nearby small town of Efland. As soon as they settled in Efland, the couple renovated a farmhouse, where they pursued various arts and crafts, and eventually the band fell into shape as Mathus and Whalen met local citizens like Don Raleigh (bass) and Ken Mosher (guitar, saxophone, vocals) who shared an interest in hot jazz. Before long, Chris Phillips (drums, percussion), Tom Maxwell (vocals, guitar, baritone saxophone, clarinet), and Je Widenhouse (trumpet) were added to the band, which was now named after an old-fashioned candy bar, Squirrel Nut Zippers. The group soon made its live debut in Chapel Hill and within a few months had developed a large fan base throughout the South.

Squirrel Nut Zippers: 7 CDs collection (1995-2009) RE-UP

By the end of 1994, Squirrel Nut Zippers had signed with Mammoth Records, and they released their debut album, The Inevitable, in the spring of 1995. The album didn't make much of an impact, but the group continued to tour. Their second album, Hot, was released in January of 1997. Soon after its release, "Hell" became a hit on such influential radio stations as Los Angeles' KROQ, and MTV soon made the video into a buzz clip. By the spring, "Hell" and Hot had become hits, as the single was a staple on modern rock stations. Although the Zippers were now successful, they received mixed reviews, with many critics claiming that they were mocking hot jazz, not paying tribute. Nevertheless, the album went gold, and a second single, "Put a Lid on It," was released in the summer. Perennial Favorites followed in 1998, as did Christmas Caravan. Two years later, the band released Bedlam Ballroom, showcasing a cut by late bandmate Stacy Guess. Squirrel Nut Zippers went on an extended hiatus in the early part of the decade and eventually reconvened in 2008 for the live concert album Lost at Sea, which saw release a year later.

Squirrel Nut Zippers MySpace page
Squirrel Nut Zippers at Wikipedia


____________________ Squirrel Nut Zippers collection contains: ____________________


Squirrel Nut Zippers: 7 CDs collection (1995-2009) RE-UP

Squirrel Nut Zippers - The Inevitable (1995)
EAC-FLAC Image with CUE & LOG - 257 MB | Full Scans | MP3 CBR 320 Kbps - 78 MB
Swing Revival / Neoswing | 35:12 minutes | Label: Mammoth Records Inc. / Cat. # MR 0105-2


Tracks:

01. Lover's Lane
02. Danny Diamond
03. I've Found A New Baby
04. Anything But Love
05. Good Enough For Granddad
06. Wished For You
07. La Grippe
08. Lugubrious Whing Whang
09. Club Limbo
10. Wash Jones
11. You're Drivin' Me Crazy
12. Plenty More

Produced by Brian Paulson.
Recorded at Wavecastle Studio, Hillsborough, NC.

all music.com says: The members of the band mostly just call it jazz, or "hot music," or, when they're feeling naughty, "race music" – a term that dates back to the1920s and '30s, when major record labels released jump blues and hot jazz singles under special subsidiary imprints with names like Okeh and Sepiatone. It's music that doesn't really have a name anymore, yet everyone recognizes it and loves it. This wasn't the album that made the Squirrel Nut Zippers a household name (that honor goes to Hot, the follow-up), but it sure could have if given the chance. An instrumental with the pitch-perfect title of "Lugubrious Whing Whang," cover versions of "You're Drivin' Me Crazy" and "I've Found a New Baby," originals like "Lover's Lane," and the absolutely hair-raising "La Grippe" – these are not just labors of love by dewy-eyed nostalgists. The SNZs have taken this music and appropriated it entirely, without a trace of irony or condescension. The result is magnificent.

EAC extraction logfile from 1. October 2006, 20:48 for CD
Squirrel Nut Zippers / The Inevitable

Used drive : HL-DT-STDVDRAM GSA-4082B Adapter: 0 ID: 1
Read mode : Secure with NO C2, accurate stream, disable cache
Read offset correction : 667
Overread into Lead-In and Lead-Out : No

Used output format : C:\Program Files\Monkey's Audio\MAC.exe (Monkey's Audio Lossless Encoder)
Normal Lossless Compression
Additional command line options : -v

Other options :
Fill up missing offset samples with silence : Yes
Delete leading and trailing silent blocks : No
Installed external ASPI interface


Range status and errors
Selected range
Filename F:\Squirrel Nut Zippers - The Inevitable.wav

Peak level 97.7 %
Range quality 100.0 %
CRC 808B9798
Copy OK

No errors occured

End of status report

********************************

Pregap length 00:00:33.
Track [ CRC ] Status
01 [54cfe1fb] (08/08) Accurately ripped as in pressing(s) #1
02 [8b03e511] (08/08) Accurately ripped as in pressing(s) #1
03 [3b7e02cc] (08/08) Accurately ripped as in pressing(s) #1
04 [5d2d2477] (08/08) Accurately ripped as in pressing(s) #1
05 [682e0e8d] (08/08) Accurately ripped as in pressing(s) #1
06 [10f94397] (08/08) Accurately ripped as in pressing(s) #1
07 [bf40c478] (08/08) Accurately ripped as in pressing(s) #1
08 [361fd39b] (08/08) Accurately ripped as in pressing(s) #1
09 [721b7ce4] (08/08) Accurately ripped as in pressing(s) #1
10 [4fe7b765] (08/08) Accurately ripped as in pressing(s) #1
11 [c415e954] (08/08) Accurately ripped as in pressing(s) #1
12 [ef9f9d4c] (07/07) Accurately ripped as in pressing(s) #1

Track [ CRC32 ] [W/O NULL] [ LOG ]
– [808B9798] [B17F7408] CRC32
01 [DBBD6F0D] [E3D53274]
02 [F8206F03] [ECF1198D]
03 [0C60355D] [234352CE]
04 [6910020B] [23E8D1DE]
05 [5B93DFB9] [9298F096]
06 [C0DFC072] [CAA62FB9]
07 [53C39B8F] [CD8F2086]
08 [C9BF145F] [F80E7BA0]
09 [AE5E48BC] [3D413429]
10 [384BCDB6] [8F8C436D]
11 [0EF9877E] [1EB064B3]
12 [76F5BBFA] [5A59B563]


_________________________________________________________________________________________


Squirrel Nut Zippers: 7 CDs collection (1995-2009) RE-UP

Squirrel Nut Zippers - Hot (1996)
EAC-FLAC Image with CUE & LOG - 255 MB | Full Scans | DATA | MP3 CBR 320 Kbps - 88 MB
Swing Revival / Neoswing | 38:40 minutes | Label: Mammoth Records Inc. / Cat. # MR 0137-2


Tracks:

01. Got My Own Thing Now
02. Put A Lid On It
03. Memphis Exorcism
04. Twilight
05. It Ain't You
06. Prince Nez
07. Hell
08. Meant To Be
09. Bad Businessman
10. Flight Of The Passing Fancy
11. Blue Angel
12. The Interlocutor

Produced by Brian Paulson & Mike Napolitano.
Recorded at Kingsway Studios, New Orleans, LA.

all music.com says: The members of the band mostly just call it jazz, or "hot music," or, when they're feeling naughty, "race music" – a term that dates back to the1920s and '30s, when major record labels released jump blues and hot jazz singles under special subsidiary imprints with names like Okeh and Sepiatone. It's music that doesn't really have a name anymore, yet everyone recognizes it and loves it. This wasn't the album that made the Squirrel Nut Zippers a household name (that honor goes to Hot, the follow-up), but it sure could have if given the chance. An instrumental with the pitch-perfect title of "Lugubrious Whing Whang," cover versions of "You're Drivin' Me Crazy" and "I've Found a New Baby," originals like "Lover's Lane," and the absolutely hair-raising "La Grippe" – these are not just labors of love by dewy-eyed nostalgists. The SNZs have taken this music and appropriated it entirely, without a trace of irony or condescension. The result is magnificent.

EAC extraction logfile from 23. September 2006, 21:50 for CD
Squirrel Nut Zippers / Hot

Used drive : HL-DT-STDVDRAM GSA-4082B Adapter: 0 ID: 1
Read mode : Secure with NO C2, accurate stream, disable cache
Read offset correction : 667
Overread into Lead-In and Lead-Out : No

Used output format : C:\Program Files\Monkey's Audio\MAC.exe (Monkey's Audio Lossless Encoder)
Normal Lossless Compression
Additional command line options : -v

Other options :
Fill up missing offset samples with silence : Yes
Delete leading and trailing silent blocks : No
Installed external ASPI interface


Range status and errors
Selected range
Filename F:\Squirrel Nut Zippers - Hot.wav

Peak level 100.0 %
Range quality 100.0 %
CRC 02B9DDB2
Copy OK

No errors occured

End of status report

************************************

Data track was probably present, length 32:49:47-32:50:46.
Track [ CRC ] Status
01 [2c71f04f] (00/02) No matches
02 [41c87a88] (00/04) No matches
03 [e1f71367] (00/02) No matches
04 [2b93108e] (00/02) No matches
05 [734cf513] (00/02) No matches
06 [8e937435] (00/02) No matches
07 [149a16cb] (00/04) No matches
08 [ae6479c3] (00/02) No matches
09 [64be50bb] (00/02) No matches
10 [cfbdfb86] (00/02) No matches
11 [d88b07a5] (00/04) No matches
12 [621b3de3] (00/02) No matches
Offsetted by -171:
01 [dac98e78] (00/02) No matches
02 [8cdd2fe6] (02/04) Accurately ripped as in pressing(s) #1
03 [20399e91] (00/02) No matches
04 [e90ce326] (00/02) No matches
05 [ea2076f7] (00/02) No matches
06 [c11cc543] (00/02) No matches
07 [5ba31768] (02/04) Accurately ripped as in pressing(s) #1
08 [475dca81] (00/02) No matches
09 [dcfd0e1f] (00/02) No matches
10 [659bcc00] (02/02) Accurately ripped as in pressing(s) #1
11 [dab77c8c] (02/04) Accurately ripped as in pressing(s) #1
12 [15c48c64] (02/02) Partial match to pressing(s) #1
Offsetted by 97:
01 [e5fe5db4] (02/02) Accurately ripped as in pressing(s) #1
02 [262a04ae] (02/04) Accurately ripped as in pressing(s) #2
03 [91bc5ea9] (02/02) Accurately ripped as in pressing(s) #1
04 [73be3dc6] (02/02) Accurately ripped as in pressing(s) #1
05 [017ca6e7] (02/02) Accurately ripped as in pressing(s) #1
06 [dd1e3a6f] (02/02) Accurately ripped as in pressing(s) #1
07 [74fdeac8] (02/04) Accurately ripped as in pressing(s) #2
08 [cff75515] (02/02) Accurately ripped as in pressing(s) #1
09 [954e600f] (02/02) Accurately ripped as in pressing(s) #1
10 [e2781407] (00/02) No matches
11 [f3f0fb31] (02/04) Accurately ripped as in pressing(s) #2
12 [36944740] (02/02) Accurately ripped as in pressing(s) #1

Track [ CRC32 ] [W/O NULL] [ LOG ]
– [02B9DDB2] [C75F7FD7] CRC32
01 [7AD8F3FA] [B94AD5A9]
02 [0993DA1F] [E19B4AB2]
03 [104B6833] [0AF5A180]
04 [9AB63035] [DAF16DA1]
05 [F9D87424] [618FEC82]
06 [F35AD4C0] [9770D6F9]
07 [599D8AB7] [138A8896]
08 [C8B0B520] [678AD305]
09 [D1F26CB7] [84713D58]
10 [85EFA9CE] [F0EF0646]
11 [DDF91366] [B565C62F]
12 [44688114] [D432286B]


_________________________________________________________________________________________


Squirrel Nut Zippers: 7 CDs collection (1995-2009) RE-UP

Squirrel Nut Zippers - Sold Out (1997)
EAC-FLAC Image with CUE & LOG - 202 MB | Scans | MP3 CBR 320 Kbps - 73 MB
Swing Revival / Neoswing | 33:49 minutes | Label: Mammoth Records Inc. / Cat. # MR 0177-2


Tracks:

01. St. Louis Cemetery Blues
02. Bedlam Ballroom
03. Pallin' With Al
04. La Grippe
05. I Raise Hell
06. Fell To Pieces

Produced by Ken Mosher, Mike Napolitano, J.C. Clark, Clay Walker.
Recorded at Studios, Gin Joints, Rock Clubs, Jimbo & Katharine's House.

all music.com says: After "Hell" made Squirrel Nut Zippers' second album, Hot, into a platinum success, the group rush-released the limited-edition Sold Out EP. Comprised of live cuts, outtakes, and rarities, the EP is a boon to dedicated fans, especially because of "Pallin' With Al," a duet with Fats Waller's pianist. Tracks like that prove that the Squirrel Nut Zippers aren't simply kitschy – they actually have affection for the music.

EAC extraction logfile from 11. October 2006, 15:01 for CD
Squirrel Nut Zippers / Sold Out

Used drive : HL-DT-STDVDRAM GSA-4082B Adapter: 0 ID: 1
Read mode : Secure with NO C2, accurate stream, disable cache
Read offset correction : 667
Overread into Lead-In and Lead-Out : No

Used output format : C:\Program Files\Monkey's Audio\MAC.exe (Monkey's Audio Lossless Encoder)
Normal Lossless Compression
Additional command line options : -v

Other options :
Fill up missing offset samples with silence : Yes
Delete leading and trailing silent blocks : No
Installed external ASPI interface


Range status and errors
Selected range
Filename F:\Squirrel Nut Zippers - Sold Out.wav

Peak level 100.0 %
Range quality 100.0 %
CRC 71645FCF
Copy OK

No errors occured

End of status report

*******************************

Track [ CRC ] Status
01 [da4ad881] (19/19) Accurately ripped as in pressing(s) #1
02 [3572b689] (20/20) Accurately ripped as in pressing(s) #1
03 [ecea7a35] (19/19) Accurately ripped as in pressing(s) #1
04 [f6783dda] (19/19) Accurately ripped as in pressing(s) #1
05 [43f96c48] (19/19) Accurately ripped as in pressing(s) #1
06 [f10ecba2] (18/18) Accurately ripped as in pressing(s) #1

Track [ CRC32 ] [W/O NULL] [ LOG ]
– [71645FCF] [1279574B] CRC32
01 [F2C173EA] [5FD952D5]
02 [AE74F7D1] [B016B668]
03 [8102DF07] [4CD1FA84]
04 [C9A04918] [2FA78FA6]
05 [D04E79E8] [1458D5E4]
06 [B674351F] [E58ED16E]


_________________________________________________________________________________________


Squirrel Nut Zippers: 7 CDs collection (1995-2009) RE-UP

Squirrel Nut Zippers - Perennial Favorites (1998)
EAC-FLAC Image with CUE & LOG - 259 MB | Full Scans | MP3 CBR 320 Kbps - 89 MB
Swing Revival / Neoswing | 38:43 minutes | Label: Mammoth Records Inc. / Cat. # 980169-2


Tracks:

01. Suits Are Picking Up The Bill
02. Low Down Man
03. Ghost Of Stephen Foster
04. Pallin' With Al
05. Fat Cat Keeps Getting Fatter
06. Trou Macacq
07. My Drag
08. Soon
09. Evening At Lafitte's
10. The Kraken
11. That Fascinating Thing
12. It's Over

Produced by Mike Napolitano & Squirrel Nut Zippers.
Recorded at Kingsway Studios, New Orleans, LA.

all music.com says: Although it had been simmering for a little while, the neo-swing boom had its breakthrough hit in early 1997 with the Squirrel Nut Zippers' "Hell." Instead of fading away, the movement simply gained momentum, virtually guaranteeing a large audience for the group's summer 1998 follow-up album, Perennial Favorites. The title is a sly joke, since the group are revivalists who happen to be part of a fad, but they do prove to be more substantial than many of their peers with this record. Part of the reason they stand apart from the rest of the neo-swing crowd is that they don't forget that there was a bit of menace in the days of hot jazz – it wasn't a naive, swinging party, there was some genuine hedonism as well. Since the Zippers are revivalists, they can only hint at the subtext that informed swing and hot jazz, but that's considerably more than their glitzy peers do. They also have a knack for a solid hook, and they deliver it all with panache and loose-limbed glee. The band may lack the chops that would make this enticing to jazzbos, but they are developing their own style, and they also have songwriting skills. "The Ghost of Stephen Foster," in particular, is a tour de force, encapsulating SNZ's gift for hooks, their subversive sense of humor, and their hidden dark side. Moments like that prove that the Squirrel Nut Zippers are more than a one-hit wonder.

EAC extraction logfile from 1. November 2006, 21:31 for CD
Squirrel Nut Zippers / Perennial Favorites

Used drive : HL-DT-STDVDRAM GSA-4082B Adapter: 0 ID: 1
Read mode : Secure with NO C2, accurate stream, disable cache
Read offset correction : 667
Overread into Lead-In and Lead-Out : No

Used output format : C:\Program Files\FLAC\flac.exe (User Defined Encoder)
320 kBit/s
Additional command line options : -8 –delete-input-file -o "F:\CDImage.flac" -V %s

Other options :
Fill up missing offset samples with silence : Yes
Delete leading and trailing silent blocks : No
Installed external ASPI interface


Range status and errors
Selected range
Filename F:\CDImage.flac.wav

Peak level 100.0 %
Range quality 99.9 %
CRC 0DD5D759
Copy OK

No errors occured

End of status report

********************************

Track [ CRC ] Status
01 [2c0cde0d] (00/10) No matches
02 [ae23ac4a] (00/10) No matches
03 [190de303] (00/10) No matches
04 [39afb718] (00/10) No matches
05 [72ac34e2] (00/10) No matches
06 [c8623f3a] (00/09) No matches
07 [0fb14840] (00/09) No matches
08 [84c20719] (00/10) No matches
09 [1bc45e67] (00/10) No matches
10 [78037727] (00/10) No matches
11 [68ee44cd] (00/10) No matches
12 [d177b098] (00/10) No matches
Offsetted by -5:
01 [ab576a15] (05/10) Accurately ripped as in pressing(s) #2
02 [c2d7da77] (05/10) Accurately ripped as in pressing(s) #2
03 [06d07b90] (05/10) Accurately ripped as in pressing(s) #2
04 [564149ce] (05/10) Accurately ripped as in pressing(s) #2
05 [dd3e5c40] (05/10) Accurately ripped as in pressing(s) #2
06 [4f7b525f] (05/09) Accurately ripped as in pressing(s) #1
07 [c8c72435] (05/09) Accurately ripped as in pressing(s) #1
08 [2ae46274] (05/10) Accurately ripped as in pressing(s) #2
09 [f2b12bd7] (05/10) Accurately ripped as in pressing(s) #2
10 [c62d7827] (05/10) Accurately ripped as in pressing(s) #2
11 [046e6c9b] (05/10) Accurately ripped as in pressing(s) #2
12 [ee7400cd] (05/10) Accurately ripped as in pressing(s) #2

Track [ CRC32 ] [W/O NULL] [ LOG ]
– [0DD5D759] [05ADD448] CRC32
01 [7A5E7BB8] [8C03A25B]
02 [0B1C5174] [F0BB98FB]
03 [949B6893] [E96EB033]
04 [81F98CEE] [7C4EB4D5]
05 [3C525809] [439B93C7]
06 [DE6D63C3] [151B81EC]
07 [EB2B85C9] [41FD0CA3]
08 [6371948F] [0C7F82B6]
09 [FA3F949F] [798EEDBD]
10 [9ACF87CF] [74DF761C]
11 [13C55CDA] [CC979997]
12 [3996010A] [000DF30E]


_________________________________________________________________________________________


Squirrel Nut Zippers: 7 CDs collection (1995-2009) RE-UP

Squirrel Nut Zippers - Christmas Caravan (1998)
EAC-FLAC Image with CUE & LOG - 220 MB | Full Scans | MP3 CBR 320 Kbps - 77 MB
Swing Revival / Neoswing | 34:16 minutes | Label: Mammoth Records Inc. / Cat. # 980192-2


Tracks:

01. Winter Weather
02. Indian Giver
03. A Johnny Ace Christmas
04. My Evergreen
05. Sleigh Ride
06. I'm Coming Home For Christmas
07. Carolina Christmas
08. Gift Of The Magi
09. Hot Christmas
10. Hanging Up My Stockings

Produced by Mike Napolitano and Squirrel Nut Zippers.

all music.com says: Since they were riding high on the strength of Hot, the Squirrel Nut Zippers convinced Mammoth to release a holiday album, Christmas Caravan, just months after they delivered Perennial Favorites, their follow-up to Hot. It was an unconventional move, but the Zippers were never about convention, and, appropriately, Christmas Caravan isn't a conventional holiday record. Relying heavily on original material, the crew has created the Christmas equivalent of one of their studio releases – an album that revives swing and hot jazz, tweaking it a little bit with ironic humor yet remaining reverential of the music's heritage. If anything, they take fewer liberties on Christmas Caravan than before – there aren't as many jokes and the music sounds surprisingly restrained at places. Still, the Zippers know how to have a good time, and that's exactly what Christmas Caravan does, thanks to their enthusiastic performances, strong songwriting and sharp covers ("Winter Weather," "Sleigh Ride").

EAC extraction logfile from 25. November 2006, 12:37 for CD
Squirrel Nut Zippers / Christmas Caravan

Used drive : HL-DT-STDVDRAM GSA-4082B Adapter: 1 ID: 0
Read mode : Secure with NO C2, accurate stream, disable cache
Read offset correction : 667
Overread into Lead-In and Lead-Out : No

Used output format : C:\Program Files\FLAC\flac.exe (User Defined Encoder)
320 kBit/s
Additional command line options : –best -V -T "date=%y" -T "genre=%m" %s

Other options :
Fill up missing offset samples with silence : Yes
Delete leading and trailing silent blocks : No
Installed external ASPI interface


Range status and errors
Selected range
Filename F:\Squirrel Nut Zippers - Christmas Caravan.flac.wav

Peak level 100.0 %
Range quality 100.0 %
CRC F9FF9E8A
Copy OK

No errors occured

End of status report

*****************************

Track [ CRC ] Status
01 [bceceae8] (57/61) Accurately ripped as in pressing(s) #1
02 [e19289ea] (56/60) Accurately ripped as in pressing(s) #1
03 [6f0c777d] (56/60) Accurately ripped as in pressing(s) #1
04 [f9999594] (55/59) Accurately ripped as in pressing(s) #1
05 [2fa1aebf] (58/62) Accurately ripped as in pressing(s) #1
06 [ef47b6fa] (55/59) Accurately ripped as in pressing(s) #1
07 [97b32b3c] (57/61) Accurately ripped as in pressing(s) #1
08 [397ac540] (56/60) Accurately ripped as in pressing(s) #1
09 [c7b2d06c] (56/60) Accurately ripped as in pressing(s) #1
10 [365a7d60] (54/58) Accurately ripped as in pressing(s) #1

Track [ CRC32 ] [W/O NULL] [ LOG ]
– [F9FF9E8A] [9102B3AE] CRC32
01 [FBD52525] [80CF2B90]
02 [AFDE5A74] [2136BD1E]
03 [35D220A8] [77BF3373]
04 [9874FB3C] [A5A59C5C]
05 [9061AE59] [07B48574]
06 [75AA6978] [F9C4DF4D]
07 [E88CC5A2] [22543A4F]
08 [7875C97F] [1F32B393]
09 [634B5E64] [34A6D985]
10 [5F9DAC6B] [FA6FAB54]


_________________________________________________________________________________________


Squirrel Nut Zippers: 7 CDs collection (1995-2009) RE-UP

Squirrel Nut Zippers - Bedlam Balroom (2000)
EAC-FLAC Image with CUE & LOG - 243 MB | Full Scans | MP3 CBR 320 Kbps - 88 MB
Swing Revival / Neoswing | 38:18 minutes | Label: Mammoth Records Inc. / Cat. # MR 65502-2


Tracks:

01. Bedbugs
02. Baby Wants A Diamond Ring
03. Do What
04. Bent Out Of Shape
05. Stop Drop And Roll
06. Hush
07. It All Depends
08. Bedlam Ballroom
09. Just This Side Of Blue
10. Don't Fix It
11. Missing Link
12. Bedlam Reprise
13. Do It This A Way

Produced by Mike Napolitano and Squirrel Nut Zippers.
Recorded at Kingsway Studios, New Orleans, LA.

all music.com says: Despite undergoing massive lineup changes, among which were vocalist and guitar player Tom Maxwell going solo, the death of original trumpet blower Stacy Guess, and the birth of a daughter to bandleaders Jim Mathus and Katherine Whalen in May 2000, the Squirrel Nut Zippers persevered through all of it to release a wonderful, progressive (for them) album. Granted, the hot jazz and Dixieland tunes that the band is known for are still present, but the first thing one hears upon listening to this album is a synthesizer and a Spanish guitar. And how about some '70s funk and soul? Funky is the surprising quality of this work, which is why the album stands out among the group's past efforts. Perennial Favorites had some good performances, but seemed more of a mere continuation of what was laid down on Hot. Here, New Orleans-type funky grooves mix with a Spanish guitar on consecutive tracks, and the juxtaposition reminds the listener of just how magnificent and inspired the Squirrel Nut Zippers can be when they try to grow. Perhaps those who were a part of the neo-swing "revival" of the mid- to late-'90s won't be so receptive to this album, but to anyone who enjoys spirited old-timey music (spanning a range of times), Bedlam Ballroom is a damn hoot.

EAC extraction logfile from 4. November 2006, 21:33 for CD
Squirrel Nut Zippers / Bedlam Ballroom

Used drive : HL-DT-STDVDRAM GSA-4082B Adapter: 1 ID: 0
Read mode : Secure with NO C2, accurate stream, disable cache
Read offset correction : 667
Overread into Lead-In and Lead-Out : No

Used output format : C:\Program Files\FLAC\flac.exe (User Defined Encoder)
320 kBit/s
Additional command line options : -8 –delete-input-file -o "F:\CDImage.flac" -V %s

Other options :
Fill up missing offset samples with silence : Yes
Delete leading and trailing silent blocks : No
Installed external ASPI interface


Range status and errors
Selected range
Filename F:\CDImage.flac.wav

Peak level 100.0 %
Range quality 99.9 %
CRC ED2719B0
Copy OK

No errors occured

End of status report

********************************

HDCD: peak extend: yes, transient filter: some, gain: -4,0dB..0,0dB
Track [ CRC ] Status
01 [7cbd3f44] (00/03) No matches
02 [c6938d12] (00/03) No matches
03 [387374f6] (00/03) No matches
04 [132b5233] (00/03) No matches
05 [49425827] (00/03) No matches
06 [3e1b9436] (00/03) No matches
07 [e6f96c89] (00/03) No matches
08 [5a396bf4] (00/03) No matches
09 [c64b6321] (00/03) No matches
10 [02f3ecc2] (00/03) No matches
11 [7b326641] (00/03) No matches
12 [69e18b6b] (00/02) No matches
13 [6d53382c] (00/03) No matches
Offsetted by -25:
01 [99ea5ed6] (03/03) Accurately ripped as in pressing(s) #1
02 [30646d08] (03/03) Accurately ripped as in pressing(s) #1
03 [b827f9bd] (03/03) Accurately ripped as in pressing(s) #1
04 [9a8bed2b] (03/03) Accurately ripped as in pressing(s) #1
05 [8e1854fa] (03/03) Accurately ripped as in pressing(s) #1
06 [66b06a78] (03/03) Accurately ripped as in pressing(s) #1
07 [8f970d05] (03/03) Accurately ripped as in pressing(s) #1
08 [779cc592] (03/03) Accurately ripped as in pressing(s) #1
09 [eb2b3792] (03/03) Accurately ripped as in pressing(s) #1
10 [a54b1e0d] (03/03) Accurately ripped as in pressing(s) #1
11 [458f136a] (03/03) Accurately ripped as in pressing(s) #1
12 [e80931cd] (02/02) Accurately ripped as in pressing(s) #1
13 [56362190] (03/03) Accurately ripped as in pressing(s) #1

Track [ CRC32 ] [W/O NULL] [ LOG ]
– [ED2719B0] [5768AAFD] CRC32
01 [BA006EB7] [49940D7F]
02 [BC4E6F7D] [927D0F7E]
03 [C0DEE489] [7FDFF15E]
04 [15C2F01A] [DCC2B42B]
05 [212164F4] [D5FAA66D]
06 [881BD58F] [8F4F6CCB]
07 [742E174A] [96103144]
08 [3811CA42] [FF10D6A4]
09 [EE80A7A6] [08A79C95]
10 [4A2034C5] [4EFBB726]
11 [68834CF1] [8F9127D3]
12 [A17F7AEA] [714A13D4]
13 [CB2B92B4] [3BBCE61A]


_________________________________________________________________________________________


Squirrel Nut Zippers: 7 CDs collection (1995-2009) RE-UP

Squirrel Nut Zippers - Lost At Sea (2009) [Live]
EAC-FLAC Image with CUE & LOG - 454 MB | Web Scans included | MP3 CBR 320 Kbps - 145 MB
Swing Revival / Neoswing | 63:19 minutes | Label: Southern Broadcast / Cat. # SB-01


Tracks:

01. Memphis Exorcism
02. Good Enough For Granddad
03. It Ain't You
04. Prince Nez
05. Put A Lid On It
06. Fat Cat Keeps Getting Fatter
07. Danny Diamond
08. Suits Are Picking Up The Bill
09. My Drag
10. Happens All The Time
11. Bad Businessman
12. Hell
13. Ghost Of Stephen Foster
14. You Are My Radio
15. Blue Angel
16. Do What
17. Missing Link Parade

Produced by Squirrel Nut Zippers.
Recorded at Live on December 5, 2008 at Southpaw, Brooklyn NY. Live Sound by Darrel Young.
Mixed by Squirrel Nut Zippers and Colin Studybaker.

all music.com says: Recorded in 2008 at The Southpaw in Brooklyn, NY, Lost at Sea features the retro-swing and Southern roots music ensemble Squirrel Nut Zippers performing live. Featuring the full-band including longtime leaders guitarists/vocalists Jimbo Mathus and Katharine Whalen, Lost at Sea finds the Zippers running through a bevy of the band's classic cuts as well as some newer material. In that sense, the album is a nice document of where the band was when they helped launch the retro-swing revival of the '90s, as well as an update of where the band is now. To these ends, you get thoroughly romping versions of "Good Enough for Grandad" off 1995's Inevitable, "Memphis Exorcism" and "Hell" off 1997's Hot, and "Ghost of Stephen Foster" off 1998's Perennial Favorites. This is a seriously enjoyable, high-energy roots show that should appeal to longtime Squirrel Nut Zippers fans as well as anybody in the mood for humorously witty and fingersnapping blues and jazz.

Exact Audio Copy V0.99 prebeta 5 from 4. May 2009

EAC extraction logfile from 16. February 2010, 19:21

Squirrel Nut Zippers / Lost at Sea

Used drive : NEC - DVD RW ND-4550A Adapter: 2 ID: 0

Read mode : Secure
Utilize accurate stream : Yes
Defeat audio cache : Yes
Make use of C2 pointers : No

Read offset correction : 48
Overread into Lead-In and Lead-Out : No
Fill up missing offset samples with silence : Yes
Delete leading and trailing silent blocks : No
Null samples used in CRC calculations : Yes
Used interface : Native Win32 interface for Win NT & 2000

Used output format : Internal WAV Routines
Sample format : 44.100 Hz; 16 Bit; Stereo


TOC of the extracted CD

Track | Start | Length | Start sector | End sector
––––––––––––––––––––––––––––-
1 | 0:00.00 | 2:33.53 | 0 | 11527
2 | 2:33.53 | 3:07.46 | 11528 | 25598
3 | 5:41.24 | 4:51.49 | 25599 | 47472
4 | 10:32.73 | 3:03.50 | 47473 | 61247
5 | 13:36.48 | 3:26.33 | 61248 | 76730
6 | 17:03.06 | 3:49.29 | 76731 | 93934
7 | 20:52.35 | 5:33.51 | 93935 | 118960
8 | 26:26.11 | 3:28.02 | 118961 | 134562
9 | 29:54.13 | 4:01.38 | 134563 | 152675
10 | 33:55.51 | 2:48.49 | 152676 | 165324
11 | 36:44.25 | 4:01.65 | 165325 | 183464
12 | 40:46.15 | 4:12.50 | 183465 | 202414
13 | 44:58.65 | 4:01.68 | 202415 | 220557
14 | 49:00.58 | 1:55.54 | 220558 | 229236
15 | 50:56.37 | 4:23.48 | 229237 | 249009
16 | 55:20.10 | 7:09.40 | 249010 | 281224
17 | 62:29.50 | 0:49.28 | 281225 | 284927


Range status and errors

Selected range

Filename E:\Fantasmm\Squirrel Nut Zippers - Lost At Sea (2009)\Squirrel Nut Zippers - Lost at Sea.wav

Peak level 100.0 %
Range quality 100.0 %
Test CRC 880B41B6
Copy CRC 880B41B6
Copy OK

No errors occurred

End of status report

**********************************

Track [ CRC ] Status
01 [39039821] (02/02) Accurately ripped as in pressing(s) #1
02 [e9825e2c] (02/02) Accurately ripped as in pressing(s) #1
03 [9474d475] (00/00) No matches
04 [93c6116f] (02/02) Accurately ripped as in pressing(s) #1
05 [98901c31] (02/02) Accurately ripped as in pressing(s) #1
06 [43de0b38] (02/02) Accurately ripped as in pressing(s) #1
07 [be4ffd74] (02/02) Accurately ripped as in pressing(s) #1
08 [8835ce8d] (02/02) Accurately ripped as in pressing(s) #1
09 [9a2222f3] (02/02) Accurately ripped as in pressing(s) #1
10 [9c33f94a] (02/02) Accurately ripped as in pressing(s) #1
11 [9d8a6042] (02/02) Accurately ripped as in pressing(s) #1
12 [d1606e80] (02/02) Accurately ripped as in pressing(s) #1
13 [8f9aab0a] (02/02) Accurately ripped as in pressing(s) #1
14 [c3167917] (02/02) Accurately ripped as in pressing(s) #1
15 [43f1d779] (00/00) No matches
16 [b27eddee] (02/02) Accurately ripped as in pressing(s) #1
17 [16110344] (02/02) Accurately ripped as in pressing(s) #1

Track [ CRC32 ] [W/O NULL] [ LOG ]
– [880B41B6] [92AEA49F] CRC32
01 [2BAA9E7B] [6ECEFDCD]
02 [A3B12CB7] [7F95E852]
03 [54B5521A] [F5CA529E]
04 [F737E812] [0C8DED57]
05 [452BD176] [7E769DAC]
06 [35B582C6] [C1172118]
07 [235BE1DD] [03553C7F]
08 [2C861087] [22214D16]
09 [543BB7CF] [5A74D9AC]
10 [5AEC5C84] [29B97786]
11 [836C6B4E] [14C85807]
12 [3296E91A] [343C26F5]
13 [99E1D48E] [23BA9131]
14 [BEC1A88B] [0F23E97A]
15 [9373A452] [6F7F5814]
16 [376C0250] [3799E8DC]
17 [219EA11B] [15C0B5DD]


Many Thanks to Vinyll!
The Inevitable (1995)
FLAC lossless | MP3 320

Hot
FLAC lossless | DATA | MP3 320

Sold Out (1997)
FLAC lossless | MP3 320

Perennial Favorites (1998)
FLAC lossless | MP3 320

Christmas Caravan (1998)
FLAC lossless | MP3 320

Bedlam Balroom (2000)
FLAC lossless | MP3 320

Lost At Sea (2009)
FLAC lossless | MP3 320

The Inevitable (1995)
FLAC lossless | MP3 320

Hot
FLAC lossless | DATA | MP3 320

Sold Out (1997)
FLAC lossless | MP3 320

Perennial Favorites (1998)
FLAC lossless | MP3 320

Christmas Caravan (1998)
FLAC lossless | MP3 320

Bedlam Balroom (2000)
FLAC lossless | MP3 320

Lost At Sea (2009)
FLAC lossless | MP3 320

Covers included.