Tags
Language
Tags

Stan Kenton - Live In London (1972) {2CD Set, Decca--London 820 466-2 rel 1987}

Posted By: ruskaval
Stan Kenton - Live In London (1972) {2CD Set, Decca--London 820 466-2 rel 1987}

Stan Kenton - Live In London (1972) {2CD Set, Decca–London 820 466-2 rel 1987}
EAC rip (secure mode) | FLAC (tracks)+CUE+LOG -> 593 Mb | MP3 @320 -> 232 Mb
Full Artwork @ 600 dpi (jpg) -> 90 Mb | 5% repair rar
© 1972, 1987 Decca Records / London Records | 820 466-2
Jazz / Contemporary Big Band / Progressive Jazz

This is an outstanding Stan Kenton Lp of a live performance recorded in London in 1972. The ambience of the hall is perfectly captured along with near studio or studio level characteristics. The Wide, full and dynamic sound of the orchestra is capured perfectly. The recording delivers the best of "it's just like being there" sound.

My favorite piece is Intermission Riff, which is a great example of big band swing jazz. Timing, pacing and dynamics put this version of Intermission Riff in the league of best big band swing jazz recordings.
Kenton explors some big band jazz areas that are not as engaging for me, but I'm sure have an audience.

All in all a fine recording of a great performance.
Stan Kenton - Live In London (1972) {2CD Set, Decca--London 820 466-2 rel 1987}


Personnel
Stan Kenton - Piano, Leader
Mike Vax, Dennis Moday & Jay Saunders - Trumpets
Ray Brown, Joe Marcinkiewycz, Dick Shearer, Mike Jamieson & Fred Carter - Trombones
Mike Wallace, Phil Herring, Quin Davis, Richard Torres & Kim Frizell - Saxophones
Willie Maiden, Chuck Carter & John Von Ohlen - Drums
John Worster - Bass
Ramon Lopez - Latin Percussion

Track Listing:

CD 1

01. What Are You Doing The Rest Of Your Life? (6:13)
02. Chiapas (8:17)
03. Opus In Pastels (3:56)
04. Malaguena (4:27)
05. Artistry In Percussion (4:56)
06. Yesterdays (6:47)
07. Fringe Benefit (4:54)
08. Bogota (7:09)

Stan Kenton - Live In London (1972) {2CD Set, Decca--London 820 466-2 rel 1987}


CD 2
01. Intermission Riff (5:16)
02. Ambivalence (9:02)
03. Interlude (5:06)
04. The Peanut Vendor (El Manisero) (5:32)
05. Malaga (8:59)
06. Walk Softly (4:55)
07. Take The 'A' Train (2:13)
08. Artistry In Rhythm (6:07)
09. God Save The Queen (2:50)

Stan Kenton - Live In London (1972) {2CD Set, Decca--London 820 466-2 rel 1987}


Exact Audio Copy V1.3 from 2. September 2016

EAC extraction logfile from 31. March 2021, 22:53

Stan Kenton / Live In London 1972 (CD1)

Used drive : ATAPI iHAS122 F Adapter: 1 ID: 1

Read mode : Secure
Utilize accurate stream : Yes
Defeat audio cache : Yes
Make use of C2 pointers : No

Read offset correction : 6
Overread into Lead-In and Lead-Out : No
Fill up missing offset samples with silence : Yes
Delete leading and trailing silent blocks : No
Null samples used in CRC calculations : Yes
Used interface : Native Win32 interface for Win NT & 2000
Gap handling : Appended to previous track

Used output format : User Defined Encoder
Selected bitrate : 1024 kBit/s
Quality : High
Add ID3 tag : No
Command line compressor : C:\Program Files (x86)\Exact Audio Copy_v1.3\Flac\flac.exe
Additional command line options : -8 -V -T "ARTIST=%artist%" -T "TITLE=%title%" -T "ALBUM=%albumtitle%" -T "DATE=%year%" -T "TRACKNUMBER=%tracknr%" -T "TOTALTRACKS=%numtracks%" -T "GENRE=%genre%" -T "ALBUMARTIST=%albumartist%" -T "ALBUM ARTIST=%albumartist%" -T "COMMENT=EAC Secure Mode, Test & Copy, AccurateRip, FLAC -8" %source%


TOC of the extracted CD

Track | Start | Length | Start sector | End sector
––––––––––––––––––––––––––––-
1 | 0:00.33 | 6:13.05 | 33 | 28012
2 | 6:13.38 | 8:17.30 | 28013 | 65317
3 | 14:30.68 | 3:56.17 | 65318 | 83034
4 | 18:27.10 | 4:26.38 | 83035 | 103022
5 | 22:53.48 | 4:56.20 | 103023 | 125242
6 | 27:49.68 | 6:47.25 | 125243 | 155792
7 | 34:37.18 | 4:54.30 | 155793 | 177872
8 | 39:31.48 | 7:08.47 | 177873 | 210019


Track 1

Filename F:\_EAC\Stan Kenton - Live In London (1972) [FLAC]\CD1\01 - What Are You Doing The Rest Of Your Life_.wav

Pre-gap length 0:00:02.33

Peak level 77.6 %
Extraction speed 5.3 X
Track quality 100.0 %
Test CRC DF337595
Copy CRC DF337595
Accurately ripped (confidence 3) [D66C094F] (AR v2)
Copy OK

Track 2

Filename F:\_EAC\Stan Kenton - Live In London (1972) [FLAC]\CD1\02 - Chiapas.wav

Pre-gap length 0:00:15.73

Peak level 95.8 %
Extraction speed 6.2 X
Track quality 100.0 %
Test CRC 2CA0E054
Copy CRC 2CA0E054
Accurately ripped (confidence 3) [08A9D4F2] (AR v2)
Copy OK

Track 3

Filename F:\_EAC\Stan Kenton - Live In London (1972) [FLAC]\CD1\03 - Opus In Pastels.wav

Pre-gap length 0:00:22.58

Peak level 87.7 %
Extraction speed 6.7 X
Track quality 100.0 %
Test CRC 840B587D
Copy CRC 840B587D
Accurately ripped (confidence 3) [371E313D] (AR v2)
Copy OK

Track 4

Filename F:\_EAC\Stan Kenton - Live In London (1972) [FLAC]\CD1\04 - Malaguena.wav

Pre-gap length 0:00:17.42

Peak level 78.9 %
Extraction speed 6.6 X
Track quality 100.0 %
Test CRC 730DEC58
Copy CRC 730DEC58
Accurately ripped (confidence 3) [F2FC9EC2] (AR v2)
Copy OK

Track 5

Filename F:\_EAC\Stan Kenton - Live In London (1972) [FLAC]\CD1\05 - Artistry In Percussion.wav

Peak level 74.0 %
Extraction speed 7.0 X
Track quality 100.0 %
Test CRC 21CBEB13
Copy CRC 21CBEB13
Accurately ripped (confidence 3) [F10E404A] (AR v2)
Copy OK

Track 6

Filename F:\_EAC\Stan Kenton - Live In London (1972) [FLAC]\CD1\06 - Yesterdays.wav

Pre-gap length 0:00:19.28

Peak level 73.4 %
Extraction speed 6.9 X
Track quality 99.9 %
Test CRC 705FEF9D
Copy CRC 705FEF9D
Accurately ripped (confidence 3) [CFF1ED21] (AR v2)
Copy OK

Track 7

Filename F:\_EAC\Stan Kenton - Live In London (1972) [FLAC]\CD1\07 - Fringe Benefit.wav

Pre-gap length 0:00:22.13

Peak level 93.4 %
Extraction speed 7.6 X
Track quality 100.0 %
Test CRC 602854A9
Copy CRC 602854A9
Accurately ripped (confidence 3) [5BEA8987] (AR v2)
Copy OK

Track 8

Filename F:\_EAC\Stan Kenton - Live In London (1972) [FLAC]\CD1\08 - Bogota.wav

Pre-gap length 0:00:20.40

Peak level 97.1 %
Extraction speed 7.6 X
Track quality 99.9 %
Test CRC 3E471EC7
Copy CRC 3E471EC7
Cannot be verified as accurate (confidence 2) [6F7A1380], AccurateRip returned [58EA3A1B] (AR v2)
Copy OK


7 track(s) accurately ripped
1 track(s) could not be verified as accurate

Some tracks could not be verified as accurate

No errors occurred

End of status report

–– CUETools DB Plugin V2.1.6

[CTDB TOCID: 3LsK2Me6.7teXtNqtYgUNvl5XsA-] disk not present in database
Submit result: 3LsK2Me6.7teXtNqtYgUNvl5XsA- has been uploaded


==== Log checksum 1AA8B4890DCA46F2E34CFA049294422A6AB4AA9B2D13B830730CD8AD0CF6DA57 ====
Exact Audio Copy V1.3 from 2. September 2016

EAC extraction logfile from 31. March 2021, 23:32

Stan Kenton / Live In London 1972 (CD2)

Used drive : ATAPI iHAS122 F Adapter: 1 ID: 1

Read mode : Secure
Utilize accurate stream : Yes
Defeat audio cache : Yes
Make use of C2 pointers : No

Read offset correction : 6
Overread into Lead-In and Lead-Out : No
Fill up missing offset samples with silence : Yes
Delete leading and trailing silent blocks : No
Null samples used in CRC calculations : Yes
Used interface : Native Win32 interface for Win NT & 2000
Gap handling : Appended to previous track

Used output format : User Defined Encoder
Selected bitrate : 1024 kBit/s
Quality : High
Add ID3 tag : No
Command line compressor : C:\Program Files (x86)\Exact Audio Copy_v1.3\Flac\flac.exe
Additional command line options : -8 -V -T "ARTIST=%artist%" -T "TITLE=%title%" -T "ALBUM=%albumtitle%" -T "DATE=%year%" -T "TRACKNUMBER=%tracknr%" -T "TOTALTRACKS=%numtracks%" -T "GENRE=%genre%" -T "ALBUMARTIST=%albumartist%" -T "ALBUM ARTIST=%albumartist%" -T "COMMENT=EAC Secure Mode, Test & Copy, AccurateRip, FLAC -8" %source%


TOC of the extracted CD

Track | Start | Length | Start sector | End sector
––––––––––––––––––––––––––––-
1 | 0:00.33 | 5:15.55 | 33 | 23712
2 | 5:16.13 | 9:02.20 | 23713 | 64382
3 | 14:18.33 | 5:05.57 | 64383 | 87314
4 | 19:24.15 | 5:32.13 | 87315 | 112227
5 | 24:56.28 | 8:58.57 | 112228 | 152634
6 | 33:55.10 | 4:55.25 | 152635 | 174784
7 | 38:50.35 | 2:13.23 | 174785 | 184782
8 | 41:03.58 | 6:06.60 | 184783 | 212292
9 | 47:10.43 | 2:50.32 | 212293 | 225074


Track 1

Filename F:\_EAC\Stan Kenton - Live In London (1972) [FLAC]\CD2\01 - Intermission Riff.wav

Pre-gap length 0:00:02.33

Peak level 86.1 %
Extraction speed 4.3 X
Track quality 99.9 %
Test CRC DF00CB32
Copy CRC DF00CB32
Accurately ripped (confidence 3) [DD9DFB2B] (AR v2)
Copy OK

Track 2

Filename F:\_EAC\Stan Kenton - Live In London (1972) [FLAC]\CD2\02 - Ambivalence.wav

Pre-gap length 0:00:23.13

Peak level 82.6 %
Extraction speed 6.1 X
Track quality 100.0 %
Test CRC 34F3A35D
Copy CRC 34F3A35D
Accurately ripped (confidence 3) [3131FBEC] (AR v2)
Copy OK

Track 3

Filename F:\_EAC\Stan Kenton - Live In London (1972) [FLAC]\CD2\03 - Interlude.wav

Pre-gap length 0:00:31.08

Peak level 83.7 %
Extraction speed 5.6 X
Track quality 99.9 %
Test CRC A5FE7071
Copy CRC A5FE7071
Accurately ripped (confidence 3) [6F248D0B] (AR v2)
Copy OK

Track 4

Filename F:\_EAC\Stan Kenton - Live In London (1972) [FLAC]\CD2\04 - The Peanut Vendor (El Manisero).wav

Pre-gap length 0:00:22.32

Peak level 86.5 %
Extraction speed 6.9 X
Track quality 100.0 %
Test CRC FD564AD0
Copy CRC FD564AD0
Accurately ripped (confidence 3) [822D02F9] (AR v2)
Copy OK

Track 5

Filename F:\_EAC\Stan Kenton - Live In London (1972) [FLAC]\CD2\05 - Malaga.wav

Pre-gap length 0:00:07.50

Peak level 89.6 %
Extraction speed 7.6 X
Track quality 100.0 %
Test CRC 8EE6979C
Copy CRC 8EE6979C
Accurately ripped (confidence 3) [DF562082] (AR v2)
Copy OK

Track 6

Filename F:\_EAC\Stan Kenton - Live In London (1972) [FLAC]\CD2\06 - Walk Softly.wav

Pre-gap length 0:00:26.35

Peak level 67.7 %
Extraction speed 7.9 X
Track quality 100.0 %
Test CRC 79FBE922
Copy CRC 79FBE922
Accurately ripped (confidence 3) [E064CAAE] (AR v2)
Copy OK

Track 7

Filename F:\_EAC\Stan Kenton - Live In London (1972) [FLAC]\CD2\07 - Take The 'A' Train.wav

Pre-gap length 0:00:07.55

Peak level 92.7 %
Extraction speed 7.1 X
Track quality 100.0 %
Test CRC DA5AC4A2
Copy CRC DA5AC4A2
Accurately ripped (confidence 3) [772795C2] (AR v2)
Copy OK

Track 8

Filename F:\_EAC\Stan Kenton - Live In London (1972) [FLAC]\CD2\08 - Artistry In Rhythm.wav

Pre-gap length 0:00:15.28

Peak level 90.9 %
Extraction speed 8.5 X
Track quality 100.0 %
Test CRC 6A3F3AAD
Copy CRC 6A3F3AAD
Accurately ripped (confidence 3) [22D51B5F] (AR v2)
Copy OK

Track 9

Filename F:\_EAC\Stan Kenton - Live In London (1972) [FLAC]\CD2\09 - God Save The Queen.wav

Pre-gap length 0:00:49.65

Peak level 71.6 %
Extraction speed 7.9 X
Track quality 100.0 %
Test CRC 0D441A0A
Copy CRC 0D441A0A
Accurately ripped (confidence 3) [33AE33B7] (AR v2)
Copy OK


All tracks accurately ripped

No errors occurred

End of status report

–– CUETools DB Plugin V2.1.6

[CTDB TOCID: TTUpIG.u4Ewp6TO4.jbJ..JWeQs-] found
Submit result: TTUpIG.u4Ewp6TO4.jbJ..JWeQs- has been confirmed
Track | CTDB Status
1 | (2/2) Accurately ripped
2 | (2/2) Accurately ripped
3 | (2/2) Accurately ripped
4 | (2/2) Accurately ripped
5 | (2/2) Accurately ripped
6 | (2/2) Accurately ripped
7 | (2/2) Accurately ripped
8 | (2/2) Accurately ripped
9 | (2/2) Accurately ripped


==== Log checksum 6571C67A792A7B7DEE88D8B38B7C485B2F586AB125A835B4DFEEB22AB6EF7782 ====


Stan Kenton - Live In London (1972) {2CD Set, Decca--London 820 466-2 rel 1987}



===