Tags
Language
Tags

Stephane Wrembel - The Django Experiment II (2017) {Water Is Life Records WIL12}

Posted By: ruskaval
Stephane Wrembel - The Django Experiment II (2017) {Water Is Life Records WIL12}

Stephane Wrembel - The Django Experiment II (2017) {Water Is Life Records WIL12}
EAC rip (secure mode) | FLAC (tracks)+CUE+LOG -> 361 Mb | MP3 @320 -> 150 Mb
Full Artwork @ 600 dpi (jpg) -> 36 Mb | 5% repair rar
© 2017 Stephane Wrembel / Water Is Life Records | WIL 12
Jazz / Gypsy Jazz / World Fusion / New Acoustic / Guitar

The Django Experiment is the Stephane Wrembel Band's unique way of performing the music of Django Reinhardt. A perfect blend of the original Gypsy sound with the New York City voodoo. Mainly Django's music, and a few compositions by Stephane Wrembel.
Award-winning gypsy-jazz guitarist Stephane Wrembel will release two new recordings, The Django Experiment I and The Django Experiment II, on March 3rd on Water Is Life Records. Both recordings primarily feature Wrembel’s interpretation of the songs of legendary jazz guitarist Django Reinhardt as well as original compositions by Wrembel and a few other writers in the same vein of music.

Wrembel is best known for “Bistro Fada,” the theme song from the 2011 Woody Allen Oscar-nominated movie, “Midnight In Paris.” Subsequently, Wrembel was hand-selected by award winning composer/producer Hans Zimmer to perform at the 2012 Academy Awards® as part of his “All Star Band.” Wrembel has contributed music to two other Allen films, commercials, and TV and now has both a Clio Award and Grammy Award under his belt. He has toured around the world and is immensely popular in India.

The two Django projects were recorded, mixed and mastered by Eric Ritter at Windmill Agency Recording Studio in Lake Ariel, PA. Wrembel was joined in the studio by long-time collaborators Thor Jensen (guitar), Ari Folman Cohen (bass), Nick Anderson (drums) and Nick Driscoll (saxophone, clarinet). Both albums feature original artwork by Wrembel.

Wrembel comments, “25 years ago I spent many years with the gypsy masters patiently learning their craft the traditional way. Then it's been a long journey touring the world and experiencing the NYC jungle's energy. I spent the last 15 years composing and touring playing my own music. The Django Experiment is a re-exploration of my roots as a gypsy jazz guitarist, a tribute to Django Reinhardt, revisited with a new sound and years of integration of new musical informations…sort of Django meets NYC meets the world. It is actually extremely traditional and extremely non-traditional at the same time. What's important is the use of colors and sounds over his music that has not been done before.”

The release of the CDs will coincide with the Django A Gogo Music Festival, which will be held at Stern Auditorium/Perelman Stage at Carnegie Hall on Friday, March 3rd. Wrembel produces and performs at the event along with Al Di Meola, Stochelo Rosenberg, Larry Keel, Ryan Montbleau, David Gastine, Nick Anderson, Thor Jensen, Ari Folman-Cohen and Nick Driscoll.
Stephane Wrembel - The Django Experiment II (2017) {Water Is Life Records WIL12}


allaboutjazz.com INFO

Personnel:
Stephane Wrembel: guitar
Thor Jensen: guitar
Nick Driscoll: saxophone and clarinet
Ari Folman Cohen: bass
Nick Anderson: drums

Track Listing
01 - Douce Ambiance
02 - Viper's Dream
03 - Vaise de Bamboula
04 - Boston
05 - Double Scotch
06 - Tears
07 - Nanoc
08 - Heavy Artillery
09 - Minor Blues
10 - Film Noir
11 - Songe d'automne
12 - Anouman

Exact Audio Copy V1.3 from 2. September 2016

EAC extraction logfile from 2. May 2018, 15:06

Stephane Wrembel / The Django Experiment II

Used drive : PIONEER DVR-113NP Adapter: 1 ID: 1

Read mode : Secure
Utilize accurate stream : Yes
Defeat audio cache : Yes
Make use of C2 pointers : No

Read offset correction : 6
Overread into Lead-In and Lead-Out : No
Fill up missing offset samples with silence : Yes
Delete leading and trailing silent blocks : No
Null samples used in CRC calculations : Yes
Used interface : Native Win32 interface for Win NT & 2000
Gap handling : Appended to previous track

Used output format : User Defined Encoder
Selected bitrate : 1024 kBit/s
Quality : High
Add ID3 tag : No
Command line compressor : C:\Program Files (x86)\Exact Audio Copy\Flac\flac.exe
Additional command line options : -8 -e -V -T "Artist=%artist%" -T "Title=%title%" -T "Album=%albumtitle%" -T "Date=%year%" -T "TRACKNUMBER=%tracknr%" -T "Genre=%genre%" -T "PERFORMER=%albuminterpret%" -T "COMPOSER=%composer%" %haslyrics%–tag-from-file=LYRICS="%lyricsfile%"%haslyrics% -T "ALBUMARTIST=%albumartist%" -T "DISCNUMBER=%cdnumber%" -T "DISCTOTAL=%totalcds%" -T "TRACKTOTAL=%numtracks%" -T "COMMENT=%comment%" %source% -o %dest%


TOC of the extracted CD

Track | Start | Length | Start sector | End sector
––––––––––––––––––––––––––––-
1 | 0:00.00 | 9:00.05 | 0 | 40504
2 | 9:00.05 | 4:06.63 | 40505 | 59017
3 | 13:06.68 | 2:54.56 | 59018 | 72123
4 | 16:01.49 | 9:18.22 | 72124 | 113995
5 | 25:19.71 | 3:50.50 | 113996 | 131295
6 | 29:10.46 | 5:12.36 | 131296 | 154731
7 | 34:23.07 | 4:32.62 | 154732 | 175193
8 | 38:55.69 | 3:50.41 | 175194 | 192484
9 | 42:46.35 | 9:12.15 | 192485 | 233899
10 | 51:58.50 | 3:38.58 | 233900 | 250307
11 | 55:37.33 | 3:20.23 | 250308 | 265330
12 | 58:57.56 | 5:17.14 | 265331 | 289119


Track 1

Filename D:\Media\Audio\Rips\Stephane Wrembel - The Django Experiment II (2016) [FLAC] {WIL 12}\01 - Douce Ambiance.wav

Pre-gap length 0:00:02.00

Peak level 95.6 %
Extraction speed 5.0 X
Track quality 100.0 %
Test CRC F28F1108
Copy CRC F28F1108
Accurately ripped (confidence 1) [BCDEE783] (AR v2)
Copy OK

Track 2

Filename D:\Media\Audio\Rips\Stephane Wrembel - The Django Experiment II (2016) [FLAC] {WIL 12}\02 - Viper's Dream.wav

Peak level 95.3 %
Extraction speed 5.3 X
Track quality 100.0 %
Test CRC 9A63DCAF
Copy CRC 9A63DCAF
Accurately ripped (confidence 1) [950722F6] (AR v2)
Copy OK

Track 3

Filename D:\Media\Audio\Rips\Stephane Wrembel - The Django Experiment II (2016) [FLAC] {WIL 12}\03 - Vaise de Bamboula.wav

Peak level 95.2 %
Extraction speed 5.4 X
Track quality 100.0 %
Test CRC 97A9FD1F
Copy CRC 97A9FD1F
Accurately ripped (confidence 1) [19213763] (AR v2)
Copy OK

Track 4

Filename D:\Media\Audio\Rips\Stephane Wrembel - The Django Experiment II (2016) [FLAC] {WIL 12}\04 - Boston.wav

Peak level 95.2 %
Extraction speed 6.6 X
Track quality 100.0 %
Test CRC EC7BCAA7
Copy CRC EC7BCAA7
Accurately ripped (confidence 1) [78A35899] (AR v2)
Copy OK

Track 5

Filename D:\Media\Audio\Rips\Stephane Wrembel - The Django Experiment II (2016) [FLAC] {WIL 12}\05 - Double Scotch.wav

Peak level 95.2 %
Extraction speed 6.5 X
Track quality 100.0 %
Test CRC EF7C0DFD
Copy CRC EF7C0DFD
Accurately ripped (confidence 1) [B26F449F] (AR v2)
Copy OK

Track 6

Filename D:\Media\Audio\Rips\Stephane Wrembel - The Django Experiment II (2016) [FLAC] {WIL 12}\06 - Tears.wav

Peak level 95.1 %
Extraction speed 7.0 X
Track quality 100.0 %
Test CRC F3E72677
Copy CRC F3E72677
Accurately ripped (confidence 1) [A62FC018] (AR v2)
Copy OK

Track 7

Filename D:\Media\Audio\Rips\Stephane Wrembel - The Django Experiment II (2016) [FLAC] {WIL 12}\07 - Nanoc.wav

Peak level 95.3 %
Extraction speed 7.1 X
Track quality 100.0 %
Test CRC F11669D2
Copy CRC F11669D2
Accurately ripped (confidence 1) [FBBA8F0D] (AR v2)
Copy OK

Track 8

Filename D:\Media\Audio\Rips\Stephane Wrembel - The Django Experiment II (2016) [FLAC] {WIL 12}\08 - Heavy Artillery.wav

Peak level 95.1 %
Extraction speed 7.3 X
Track quality 100.0 %
Test CRC CA0A67A7
Copy CRC CA0A67A7
Accurately ripped (confidence 1) [7A371D8E] (AR v2)
Copy OK

Track 9

Filename D:\Media\Audio\Rips\Stephane Wrembel - The Django Experiment II (2016) [FLAC] {WIL 12}\09 - Minor Blues.wav

Peak level 95.3 %
Extraction speed 6.8 X
Track quality 100.0 %
Test CRC 5BD476FC
Copy CRC 5BD476FC
Accurately ripped (confidence 1) [2DD04CDF] (AR v2)
Copy OK

Track 10

Filename D:\Media\Audio\Rips\Stephane Wrembel - The Django Experiment II (2016) [FLAC] {WIL 12}\10 - Film Noir.wav

Peak level 95.1 %
Extraction speed 5.7 X
Track quality 99.9 %
Test CRC 105B4993
Copy CRC 105B4993
Accurately ripped (confidence 1) [23538F06] (AR v2)
Copy OK

Track 11

Filename D:\Media\Audio\Rips\Stephane Wrembel - The Django Experiment II (2016) [FLAC] {WIL 12}\11 - Songe d'automne.wav

Peak level 90.8 %
Extraction speed 5.0 X
Track quality 100.0 %
Test CRC 6BFB01B4
Copy CRC 6BFB01B4
Accurately ripped (confidence 1) [7DCE194E] (AR v2)
Copy OK

Track 12

Filename D:\Media\Audio\Rips\Stephane Wrembel - The Django Experiment II (2016) [FLAC] {WIL 12}\12 - Anouman.wav

Peak level 76.9 %
Extraction speed 5.4 X
Track quality 100.0 %
Test CRC 30E62B57
Copy CRC 30E62B57
Accurately ripped (confidence 1) [88905901] (AR v2)
Copy OK


All tracks accurately ripped

No errors occurred

End of status report

–– CUETools DB Plugin V2.1.6

[CTDB TOCID: Fp.MdyugXuJg0wadGPReq5PAwVE-] disk not present in database
Submit result: Fp.MdyugXuJg0wadGPReq5PAwVE- has been uploaded


==== Log checksum A4A199812C3B8FDBF17EB3EB9F2272365627FD8B891671806239CAFD3771E2DF ====


Stephane Wrembel - The Django Experiment II (2017) {Water Is Life Records WIL12}

Stephane Wrembel - The Django Experiment II (2017) {Water Is Life Records WIL12}


see more Stéphane Wrembel…

NEXT -> more Stéphane Wrembel on the way…


===