Tags
Language
Tags

Stephane Wrembel - The Django Experiment I (2017) {Water Is Life Records WIL11}

Posted By: ruskaval
Stephane Wrembel - The Django Experiment I (2017) {Water Is Life Records WIL11}

Stephane Wrembel - The Django Experiment I (2017) {Water Is Life Records WIL11}
EAC rip (secure mode) | FLAC (tracks)+CUE+LOG -> 281 Mb | MP3 @320 -> 114 Mb
Full Artwork @ 600 dpi (jpg) -> 21 Mb | 5% repair rar
© 2017 Stephane Wrembel / Water Is Life Records | WIL 11
Jazz / Gypsy Jazz / World Fusion / New Acoustic / Guitar

The Django Experiment is the Stephane Wrembel Band's unique way of performing the music of Django Reinhardt. A perfect blend of the original Gypsy sound with the New York City voodoo. Mainly Django's music, and a few compositions by Stephane Wrembel.
Award-winning gypsy-jazz guitarist Stephane Wrembel will release two new recordings, The Django Experiment I and The Django Experiment II, on March 3rd on Water Is Life Records. Both recordings primarily feature Wrembel’s interpretation of the songs of legendary jazz guitarist Django Reinhardt as well as original compositions by Wrembel and a few other writers in the same vein of music.

Wrembel is best known for “Bistro Fada,” the theme song from the 2011 Woody Allen Oscar-nominated movie, “Midnight In Paris.” Subsequently, Wrembel was hand-selected by award winning composer/producer Hans Zimmer to perform at the 2012 Academy Awards® as part of his “All Star Band.” Wrembel has contributed music to two other Allen films, commercials, and TV and now has both a Clio Award and Grammy Award under his belt. He has toured around the world and is immensely popular in India.

The two Django projects were recorded, mixed and mastered by Eric Ritter at Windmill Agency Recording Studio in Lake Ariel, PA. Wrembel was joined in the studio by long-time collaborators Thor Jensen (guitar), Ari Folman Cohen (bass), Nick Anderson (drums) and Nick Driscoll (saxophone, clarinet). Both albums feature original artwork by Wrembel.

Wrembel comments, “25 years ago I spent many years with the gypsy masters patiently learning their craft the traditional way. Then it's been a long journey touring the world and experiencing the NYC jungle's energy. I spent the last 15 years composing and touring playing my own music. The Django Experiment is a re-exploration of my roots as a gypsy jazz guitarist, a tribute to Django Reinhardt, revisited with a new sound and years of integration of new musical informations…sort of Django meets NYC meets the world. It is actually extremely traditional and extremely non-traditional at the same time. What's important is the use of colors and sounds over his music that has not been done before.”

The release of the CDs will coincide with the Django A Gogo Music Festival, which will be held at Stern Auditorium/Perelman Stage at Carnegie Hall on Friday, March 3rd. Wrembel produces and performs at the event along with Al Di Meola, Stochelo Rosenberg, Larry Keel, Ryan Montbleau, David Gastine, Nick Anderson, Thor Jensen, Ari Folman-Cohen and Nick Driscoll.
Stephane Wrembel - The Django Experiment I (2017) {Water Is Life Records WIL11}


allaboutjazz.com INFO

Personnel:
Stephane Wrembel: guitar
Thor Jensen: guitar
Nick Driscoll: saxophone and clarinet
Ari Folman-Cohen: bass
Nick Anderson: drums

Track Listing
01 - Nuages
02 - Gin-Gin
03 - Bouncin' Around
04 - Dinette
05 - Troublant Bolero
06 - Windmills
07 - Place de Broukere
08 - Carnets de Route
09 - Djangology
10 - Ma Premiere Guitare
11 - Jacques Prevert
12 - Minor Swing

Exact Audio Copy V1.3 from 2. September 2016

EAC extraction logfile from 2. May 2018, 6:20

Stephane Wrembel / The Django Experiment I

Used drive : HL-DT-STBD-RE WH16NS40 Adapter: 1 ID: 0

Read mode : Secure
Utilize accurate stream : Yes
Defeat audio cache : Yes
Make use of C2 pointers : No

Read offset correction : 6
Overread into Lead-In and Lead-Out : No
Fill up missing offset samples with silence : Yes
Delete leading and trailing silent blocks : No
Null samples used in CRC calculations : Yes
Used interface : Native Win32 interface for Win NT & 2000
Gap handling : Appended to previous track

Used output format : User Defined Encoder
Selected bitrate : 1024 kBit/s
Quality : High
Add ID3 tag : No
Command line compressor : C:\Program Files (x86)\Exact Audio Copy\Flac\flac.exe
Additional command line options : -8 -e -V -T "Artist=%artist%" -T "Title=%title%" -T "Album=%albumtitle%" -T "Date=%year%" -T "TRACKNUMBER=%tracknr%" -T "Genre=%genre%" -T "PERFORMER=%albuminterpret%" -T "COMPOSER=%composer%" %haslyrics%–tag-from-file=LYRICS="%lyricsfile%"%haslyrics% -T "ALBUMARTIST=%albumartist%" -T "DISCNUMBER=%cdnumber%" -T "DISCTOTAL=%totalcds%" -T "TRACKTOTAL=%numtracks%" -T "COMMENT=%comment%" %source% -o %dest%


TOC of the extracted CD

Track | Start | Length | Start sector | End sector
––––––––––––––––––––––––––––-
1 | 0:00.00 | 3:31.23 | 0 | 15847
2 | 3:31.23 | 2:46.48 | 15848 | 28345
3 | 6:17.71 | 4:46.27 | 28346 | 49822
4 | 11:04.23 | 2:47.70 | 49823 | 62417
5 | 13:52.18 | 3:56.59 | 62418 | 80176
6 | 17:49.02 | 2:51.34 | 80177 | 93035
7 | 20:40.36 | 3:36.50 | 93036 | 109285
8 | 24:17.11 | 4:54.73 | 109286 | 131408
9 | 29:12.09 | 3:59.64 | 131409 | 149397
10 | 33:11.73 | 4:54.42 | 149398 | 171489
11 | 38:06.40 | 3:12.01 | 171490 | 185890
12 | 41:18.41 | 7:48.27 | 185891 | 221017


Track 1

Filename D:\Media\Audio\Rips\Stephane Wrembel - The Django Experiment I (2016) [FLAC] {WIL 11}\01 - Nuages.wav

Pre-gap length 0:00:02.00

Peak level 95.1 %
Extraction speed 1.5 X
Track quality 100.0 %
Test CRC 7EE54058
Copy CRC 7EE54058
Accurately ripped (confidence 1) [21EF7E52] (AR v2)
Copy OK

Track 2

Filename D:\Media\Audio\Rips\Stephane Wrembel - The Django Experiment I (2016) [FLAC] {WIL 11}\02 - Gin-Gin.wav

Peak level 95.2 %
Extraction speed 0.9 X
Track quality 99.9 %
Test CRC C0D5FA76
Copy CRC C0D5FA76
Accurately ripped (confidence 1) [A452FE38] (AR v2)
Copy OK

Track 3

Filename D:\Media\Audio\Rips\Stephane Wrembel - The Django Experiment I (2016) [FLAC] {WIL 11}\03 - Bouncin' Around.wav

Peak level 95.2 %
Extraction speed 1.3 X
Track quality 100.0 %
Test CRC 41EC24F9
Copy CRC 41EC24F9
Accurately ripped (confidence 1) [E6277195] (AR v2)
Copy OK

Track 4

Filename D:\Media\Audio\Rips\Stephane Wrembel - The Django Experiment I (2016) [FLAC] {WIL 11}\04 - Dinette.wav

Peak level 95.1 %
Extraction speed 1.3 X
Track quality 100.0 %
Test CRC 55128873
Copy CRC 55128873
Accurately ripped (confidence 1) [0E001BE8] (AR v2)
Copy OK

Track 5

Filename D:\Media\Audio\Rips\Stephane Wrembel - The Django Experiment I (2016) [FLAC] {WIL 11}\05 - Troublant Bolero.wav

Peak level 95.2 %
Extraction speed 1.4 X
Track quality 100.0 %
Test CRC EA962410
Copy CRC EA962410
Accurately ripped (confidence 1) [60F473A6] (AR v2)
Copy OK

Track 6

Filename D:\Media\Audio\Rips\Stephane Wrembel - The Django Experiment I (2016) [FLAC] {WIL 11}\06 - Windmills.wav

Peak level 95.3 %
Extraction speed 1.4 X
Track quality 100.0 %
Test CRC 7EA1EA2F
Copy CRC 7EA1EA2F
Accurately ripped (confidence 1) [55F862BB] (AR v2)
Copy OK

Track 7

Filename D:\Media\Audio\Rips\Stephane Wrembel - The Django Experiment I (2016) [FLAC] {WIL 11}\07 - Place de Broukere.wav

Peak level 95.2 %
Extraction speed 1.6 X
Track quality 100.0 %
Test CRC FE46D9C2
Copy CRC FE46D9C2
Accurately ripped (confidence 1) [515CC8D4] (AR v2)
Copy OK

Track 8

Filename D:\Media\Audio\Rips\Stephane Wrembel - The Django Experiment I (2016) [FLAC] {WIL 11}\08 - Carnets de Route.wav

Peak level 95.4 %
Extraction speed 1.7 X
Track quality 100.0 %
Test CRC 130FA8FB
Copy CRC 130FA8FB
Accurately ripped (confidence 1) [EAA61290] (AR v2)
Copy OK

Track 9

Filename D:\Media\Audio\Rips\Stephane Wrembel - The Django Experiment I (2016) [FLAC] {WIL 11}\09 - Djangology.wav

Peak level 95.2 %
Extraction speed 1.8 X
Track quality 100.0 %
Test CRC 35D499EF
Copy CRC 35D499EF
Accurately ripped (confidence 1) [4E0C16F1] (AR v2)
Copy OK

Track 10

Filename D:\Media\Audio\Rips\Stephane Wrembel - The Django Experiment I (2016) [FLAC] {WIL 11}\10 - Ma Premiere Guitare.wav

Peak level 95.1 %
Extraction speed 1.9 X
Track quality 100.0 %
Test CRC F53498D8
Copy CRC F53498D8
Accurately ripped (confidence 1) [8654E15B] (AR v2)
Copy OK

Track 11

Filename D:\Media\Audio\Rips\Stephane Wrembel - The Django Experiment I (2016) [FLAC] {WIL 11}\11 - Jacques Prevert.wav

Peak level 88.1 %
Extraction speed 1.9 X
Track quality 100.0 %
Test CRC FE5A2388
Copy CRC FE5A2388
Accurately ripped (confidence 1) [ECF0A08A] (AR v2)
Copy OK

Track 12

Filename D:\Media\Audio\Rips\Stephane Wrembel - The Django Experiment I (2016) [FLAC] {WIL 11}\12 - Minor Swing.wav

Peak level 95.2 %
Extraction speed 2.1 X
Track quality 100.0 %
Test CRC F1C892E5
Copy CRC F1C892E5
Accurately ripped (confidence 1) [06A9C2E8] (AR v2)
Copy OK


All tracks accurately ripped

No errors occurred

End of status report

–– CUETools DB Plugin V2.1.6

[CTDB TOCID: TW8DTONfIQGHMo77LHVtME0Do1g-] disk not present in database
Submit result: TW8DTONfIQGHMo77LHVtME0Do1g- has been uploaded


==== Log checksum 66C4ED0C0178582DA3E2F6BB4226A1C6E11FCA16F1A985192AF1E142B05194BE ====


Stephane Wrembel - The Django Experiment I (2017) {Water Is Life Records WIL11}

Stephane Wrembel - The Django Experiment I (2017) {Water Is Life Records WIL11}


see more Stéphane Wrembel…

NEXT -> more Stéphane Wrembel on the way…


===