Tags
Language
Tags
June 2023
Su Mo Tu We Th Fr Sa
28 29 30 31 1 2 3
4 5 6 7 8 9 10
11 12 13 14 15 16 17
18 19 20 21 22 23 24
25 26 27 28 29 30 1

Stephen Hough - Chopin: Nocturnes (2021)

Posted By: delpotro
Stephen Hough - Chopin: Nocturnes (2021)

Stephen Hough - Chopin: Nocturnes (2021)
XLD Rip | FLAC (tracks+log+.cue) - 279 Mb | MP3 CBR 320 kbps - 268 Mb | Digital booklet | 01:51:25
Classical | Label: Hyperion Records

‘Some of the finest operatic arias ever written’ is Stephen Hough’s brilliant characterization of the Nocturnes, one which holds the key to his intensely lyrical interpretations of these most perfect of bel canto masterworks.
Tracklist:
Disc 1 (57:05)
1. Nocturne in B-Flat Minor, Op. 9 No. 1 (05:37)
2. Nocturne in E-Flat Major, Op. 9 No. 2 (04:04)
3. Nocturne in B Major, Op. 9 No. 3 (05:47)
4. Nocturne in F Major, Op. 15 No. 1 (04:12)
5. Nocturne in F-Sharp Major, Op. 15 No. 2 (03:12)
6. Nocturne in G Minor, Op. 15 No. 3 (03:35)
7. Nocturne in C-Sharp Minor, Op. 27 No. 1 (04:51)
8. Nocturne in D-Flat Major, Op. 27 No. 2 (05:17)
9. Nocturne in B Major, Op. 32 No. 1 (04:33)
10. Nocturne in A-Flat Major, Op. 32 No. 2 (04:46)
11. Nocturne in G Minor, Op. 37 No. 1 (05:32)
12. Nocturne in G Major, Op. 37 No. 2 (05:39)

Disc 2 (54:05)
1. Nocturne in C Minor, Op. 48 No. 1 (05:50)
2. Nocturne in F-Sharp Minor, Op. 48 No. 2 (06:39)
3. Nocturne in F Minor, Op. 55 No. 1 (04:19)
4. Nocturne in E-Flat Major, Op. 55 No. 2 (04:28)
5. Nocturne in B Major, Op. 62 No. 1 (06:50)
6. Nocturne in E Major, Op. 62 No. 2 (05:38)
7. Nocturne in C-Sharp Minor, B. 49, Op. Posth., KKIVa/16 (03:41)
8. Nocturne in E Minor, Op. Posth. 72 No. 1 (03:45)
9. Nocturne in C Minor, B. 108, KKIVb/8 (02:45)
10. Larghetto in C-Sharp Minor, KKAnh.Ia/6 "Nocturne oublié" (05:30)
11. Nocturne in E-Flat Major, Op. 9 No. 2b (Additional Embellishments by Chopin) (04:40)

X Lossless Decoder version 20211018 (154.0)

XLD extraction logfile from 2022-05-08 17:15:35 +1000

Stephen Hough / Nocturnes

Used drive : Apple SuperDrive (revision 2.03)
Media type : Pressed CD

Ripper mode : XLD Secure Ripper
Disable audio cache : OK for the drive with a cache less than 1375KiB
Make use of C2 pointers : NO
Read offset correction : 6
Max retry count : 20
Gap status : Analyzed, Appended (except HTOA)

TOC of the extracted CD
Track | Start | Length | Start sector | End sector
––––––––––––––––––––––––––––-
1 | 00:00:00 | 05:37:30 | 0 | 25304
2 | 05:37:30 | 04:04:70 | 25305 | 43674
3 | 09:42:25 | 05:47:40 | 43675 | 69739
4 | 15:29:65 | 04:12:70 | 69740 | 88709
5 | 19:42:60 | 03:12:60 | 88710 | 103169
6 | 22:55:45 | 03:35:70 | 103170 | 119364
7 | 26:31:40 | 04:51:30 | 119365 | 141219
8 | 31:22:70 | 05:17:70 | 141220 | 165064
9 | 36:40:65 | 04:33:49 | 165065 | 185588
10 | 41:14:39 | 04:46:30 | 185589 | 207068
11 | 46:00:69 | 05:32:70 | 207069 | 232038
12 | 51:33:64 | 05:39:41 | 232039 | 257504

AccurateRip Summary (DiscID: 00190034-00e88a44-b10d690c)
Track 01 : OK (v2, confidence 2/2)
Track 02 : OK (v2, confidence 2/2)
Track 03 : OK (v2, confidence 2/2)
Track 04 : OK (v2, confidence 2/2)
Track 05 : OK (v2, confidence 2/2)
Track 06 : OK (v2, confidence 2/2)
Track 07 : OK (v2, confidence 2/2)
Track 08 : OK (v2, confidence 2/2)
Track 09 : OK (v2, confidence 2/2)
Track 10 : OK (v2, confidence 2/2)
Track 11 : OK (v2, confidence 2/2)
Track 12 : OK (v2, confidence 2/2)
->All tracks accurately ripped.

All Tracks
Album gain : 5.63 dB
Peak : 0.993591
Statistics
Read error : 0
Jitter error (maybe fixed) : 0
Retry sector count : 0
Damaged sector count : 0

Track 01
Filename : /Volumes/Music/Stephen Hough - Nocturnes (2021) [MP3 V0]/Disc 1/01 Nocturne No. 1 in B flat minor, Op. 9, No. 1.mp3
/Volumes/Music/Stephen Hough - Nocturnes (2021) [MP3 320]/Disc 1/01 Nocturne No. 1 in B flat minor, Op. 9, No. 1.mp3
/Volumes/Music/Stephen Hough - Nocturnes (2021) [FLAC]/Disc 1/01 Nocturne No. 1 in B flat minor, Op. 9, No. 1.flac
Pre-gap length : 00:02:00

Track gain : 7.77 dB
Peak : 0.511658
CRC32 hash (test run) : E7ECD18A
CRC32 hash : E7ECD18A
CRC32 hash (skip zero) : 3BE15801
AccurateRip v1 signature : 9B102951
AccurateRip v2 signature : 5FB6FF2F
->Accurately ripped (v2, confidence 2/2)
Statistics
Read error : 0
Jitter error (maybe fixed) : 0
Retry sector count : 0
Damaged sector count : 0

Track 02
Filename : /Volumes/Music/Stephen Hough - Nocturnes (2021) [MP3 V0]/Disc 1/02 Nocturne No. 2 in E flat major, Op. 9, No. 2.mp3
/Volumes/Music/Stephen Hough - Nocturnes (2021) [MP3 320]/Disc 1/02 Nocturne No. 2 in E flat major, Op. 9, No. 2.mp3
/Volumes/Music/Stephen Hough - Nocturnes (2021) [FLAC]/Disc 1/02 Nocturne No. 2 in E flat major, Op. 9, No. 2.flac

Track gain : 6.23 dB
Peak : 0.605865
CRC32 hash (test run) : 7A63C127
CRC32 hash : 7A63C127
CRC32 hash (skip zero) : C7CD5766
AccurateRip v1 signature : C975F75A
AccurateRip v2 signature : FB3C3F29
->Accurately ripped (v2, confidence 2/2)
Statistics
Read error : 0
Jitter error (maybe fixed) : 0
Retry sector count : 0
Damaged sector count : 0

Track 03
Filename : /Volumes/Music/Stephen Hough - Nocturnes (2021) [MP3 V0]/Disc 1/03 Nocturne No. 3 in B major, Op. 9, No. 3.mp3
/Volumes/Music/Stephen Hough - Nocturnes (2021) [MP3 320]/Disc 1/03 Nocturne No. 3 in B major, Op. 9, No. 3.mp3
/Volumes/Music/Stephen Hough - Nocturnes (2021) [FLAC]/Disc 1/03 Nocturne No. 3 in B major, Op. 9, No. 3.flac

Track gain : 4.91 dB
Peak : 0.637421
CRC32 hash (test run) : E2DD0542
CRC32 hash : E2DD0542
CRC32 hash (skip zero) : E29F0EA6
AccurateRip v1 signature : DA17E2A7
AccurateRip v2 signature : C76C360C
->Accurately ripped (v2, confidence 2/2)
Statistics
Read error : 0
Jitter error (maybe fixed) : 0
Retry sector count : 0
Damaged sector count : 0

Track 04
Filename : /Volumes/Music/Stephen Hough - Nocturnes (2021) [MP3 V0]/Disc 1/04 Nocturne No. 4 in F major, Op 15, No. 1.mp3
/Volumes/Music/Stephen Hough - Nocturnes (2021) [MP3 320]/Disc 1/04 Nocturne No. 4 in F major, Op 15, No. 1.mp3
/Volumes/Music/Stephen Hough - Nocturnes (2021) [FLAC]/Disc 1/04 Nocturne No. 4 in F major, Op 15, No. 1.flac

Track gain : 5.14 dB
Peak : 0.734772
CRC32 hash (test run) : 3DDF33CF
CRC32 hash : 3DDF33CF
CRC32 hash (skip zero) : 7DE3FD67
AccurateRip v1 signature : CB80890D
AccurateRip v2 signature : B0E5C3F5
->Accurately ripped (v2, confidence 2/2)
Statistics
Read error : 0
Jitter error (maybe fixed) : 0
Retry sector count : 0
Damaged sector count : 0

Track 05
Filename : /Volumes/Music/Stephen Hough - Nocturnes (2021) [MP3 V0]/Disc 1/05 Nocturne No. 5 in F sharp major, Op. 15, No. 2.mp3
/Volumes/Music/Stephen Hough - Nocturnes (2021) [MP3 320]/Disc 1/05 Nocturne No. 5 in F sharp major, Op. 15, No. 2.mp3
/Volumes/Music/Stephen Hough - Nocturnes (2021) [FLAC]/Disc 1/05 Nocturne No. 5 in F sharp major, Op. 15, No. 2.flac

Track gain : 4.92 dB
Peak : 0.846954
CRC32 hash (test run) : 653B5D05
CRC32 hash : 653B5D05
CRC32 hash (skip zero) : 79CBEA1E
AccurateRip v1 signature : BADA1979
AccurateRip v2 signature : 022123F8
->Accurately ripped (v2, confidence 2/2)
Statistics
Read error : 0
Jitter error (maybe fixed) : 0
Retry sector count : 0
Damaged sector count : 0

Track 06
Filename : /Volumes/Music/Stephen Hough - Nocturnes (2021) [MP3 V0]/Disc 1/06 Nocturne No. 6 in G minor, Op. 15, No. 3.mp3
/Volumes/Music/Stephen Hough - Nocturnes (2021) [MP3 320]/Disc 1/06 Nocturne No. 6 in G minor, Op. 15, No. 3.mp3
/Volumes/Music/Stephen Hough - Nocturnes (2021) [FLAC]/Disc 1/06 Nocturne No. 6 in G minor, Op. 15, No. 3.flac

Track gain : 6.87 dB
Peak : 0.780212
CRC32 hash (test run) : 6A5F408D
CRC32 hash : 6A5F408D
CRC32 hash (skip zero) : DBBBB9C0
AccurateRip v1 signature : E3C20FEE
AccurateRip v2 signature : 8747B9A5
->Accurately ripped (v2, confidence 2/2)
Statistics
Read error : 0
Jitter error (maybe fixed) : 0
Retry sector count : 0
Damaged sector count : 0

Track 07
Filename : /Volumes/Music/Stephen Hough - Nocturnes (2021) [MP3 V0]/Disc 1/07 Nocturne No. 7 in C sharp minor, Op. 27, No. 1.mp3
/Volumes/Music/Stephen Hough - Nocturnes (2021) [MP3 320]/Disc 1/07 Nocturne No. 7 in C sharp minor, Op. 27, No. 1.mp3
/Volumes/Music/Stephen Hough - Nocturnes (2021) [FLAC]/Disc 1/07 Nocturne No. 7 in C sharp minor, Op. 27, No. 1.flac

Track gain : 1.14 dB
Peak : 0.993591
CRC32 hash (test run) : 1542194C
CRC32 hash : 1542194C
CRC32 hash (skip zero) : 209D7DA1
AccurateRip v1 signature : A31C835A
AccurateRip v2 signature : 2E31B2CC
->Accurately ripped (v2, confidence 2/2)
Statistics
Read error : 0
Jitter error (maybe fixed) : 0
Retry sector count : 0
Damaged sector count : 0

Track 08
Filename : /Volumes/Music/Stephen Hough - Nocturnes (2021) [MP3 V0]/Disc 1/08 Nocturne No. 8 in D flat major, Op. 27, No. 2.mp3
/Volumes/Music/Stephen Hough - Nocturnes (2021) [MP3 320]/Disc 1/08 Nocturne No. 8 in D flat major, Op. 27, No. 2.mp3
/Volumes/Music/Stephen Hough - Nocturnes (2021) [FLAC]/Disc 1/08 Nocturne No. 8 in D flat major, Op. 27, No. 2.flac

Track gain : 5.08 dB
Peak : 0.591858
CRC32 hash (test run) : 7DF50E39
CRC32 hash : 7DF50E39
CRC32 hash (skip zero) : B9E7218C
AccurateRip v1 signature : 075F9E8B
AccurateRip v2 signature : AA9E3CFC
->Accurately ripped (v2, confidence 2/2)
Statistics
Read error : 0
Jitter error (maybe fixed) : 0
Retry sector count : 0
Damaged sector count : 0

Track 09
Filename : /Volumes/Music/Stephen Hough - Nocturnes (2021) [MP3 V0]/Disc 1/09 Nocturne No. 9 in B major, Op. 32, No. 1.mp3
/Volumes/Music/Stephen Hough - Nocturnes (2021) [MP3 320]/Disc 1/09 Nocturne No. 9 in B major, Op. 32, No. 1.mp3
/Volumes/Music/Stephen Hough - Nocturnes (2021) [FLAC]/Disc 1/09 Nocturne No. 9 in B major, Op. 32, No. 1.flac

Track gain : 6.64 dB
Peak : 0.642548
CRC32 hash (test run) : A8F1F33B
CRC32 hash : A8F1F33B
CRC32 hash (skip zero) : 88C0C431
AccurateRip v1 signature : 386A52F2
AccurateRip v2 signature : 26EEBDD0
->Accurately ripped (v2, confidence 2/2)
Statistics
Read error : 0
Jitter error (maybe fixed) : 0
Retry sector count : 0
Damaged sector count : 0

Track 10
Filename : /Volumes/Music/Stephen Hough - Nocturnes (2021) [MP3 V0]/Disc 1/10 Nocturne No. 10 in A flat major, Op. 32, No. 2.mp3
/Volumes/Music/Stephen Hough - Nocturnes (2021) [MP3 320]/Disc 1/10 Nocturne No. 10 in A flat major, Op. 32, No. 2.mp3
/Volumes/Music/Stephen Hough - Nocturnes (2021) [FLAC]/Disc 1/10 Nocturne No. 10 in A flat major, Op. 32, No. 2.flac

Track gain : 4.21 dB
Peak : 0.668762
CRC32 hash (test run) : 7D4ADCCA
CRC32 hash : 7D4ADCCA
CRC32 hash (skip zero) : 77A69141
AccurateRip v1 signature : 438BF34D
AccurateRip v2 signature : 5C4D153C
->Accurately ripped (v2, confidence 2/2)
Statistics
Read error : 0
Jitter error (maybe fixed) : 0
Retry sector count : 0
Damaged sector count : 0

Track 11
Filename : /Volumes/Music/Stephen Hough - Nocturnes (2021) [MP3 V0]/Disc 1/11 Nocturne No. 11 in G minor, Op. 37, No. 1.mp3
/Volumes/Music/Stephen Hough - Nocturnes (2021) [MP3 320]/Disc 1/11 Nocturne No. 11 in G minor, Op. 37, No. 1.mp3
/Volumes/Music/Stephen Hough - Nocturnes (2021) [FLAC]/Disc 1/11 Nocturne No. 11 in G minor, Op. 37, No. 1.flac

Track gain : 8.66 dB
Peak : 0.452667
CRC32 hash (test run) : 982E2517
CRC32 hash : 982E2517
CRC32 hash (skip zero) : AC7A5683
AccurateRip v1 signature : 9BEAED4D
AccurateRip v2 signature : C4ED8C08
->Accurately ripped (v2, confidence 2/2)
Statistics
Read error : 0
Jitter error (maybe fixed) : 0
Retry sector count : 0
Damaged sector count : 0

Track 12
Filename : /Volumes/Music/Stephen Hough - Nocturnes (2021) [MP3 V0]/Disc 1/12 Nocturne No. 12 in G major, Op. 37, No. 2.mp3
/Volumes/Music/Stephen Hough - Nocturnes (2021) [MP3 320]/Disc 1/12 Nocturne No. 12 in G major, Op. 37, No. 2.mp3
/Volumes/Music/Stephen Hough - Nocturnes (2021) [FLAC]/Disc 1/12 Nocturne No. 12 in G major, Op. 37, No. 2.flac

Track gain : 9.22 dB
Peak : 0.406158
CRC32 hash (test run) : 18C7F36E
CRC32 hash : 18C7F36E
CRC32 hash (skip zero) : B8BCF79E
AccurateRip v1 signature : 0BBF770D
AccurateRip v2 signature : 9FB11164
->Accurately ripped (v2, confidence 2/2)
Statistics
Read error : 0
Jitter error (maybe fixed) : 0
Retry sector count : 0
Damaged sector count : 0

No errors occurred

End of status report

––-BEGIN XLD SIGNATURE––-
cAbwU4bB0Jm6On_s2s2BtCtFUnDJvV8V1IrF.WWCsjDQttK0mb_m_iIhRHAdpSHXaStykNcXS0FHZ0o5n3VQn9UZNSGcRzoOStOyBUm
––-END XLD SIGNATURE––-
X Lossless Decoder version 20211018 (154.0)

XLD extraction logfile from 2022-05-08 19:50:25 +1000

Stephen Hough / Nocturnes

Used drive : Apple SuperDrive (revision 2.03)
Media type : Pressed CD

Ripper mode : XLD Secure Ripper
Disable audio cache : OK for the drive with a cache less than 1375KiB
Make use of C2 pointers : NO
Read offset correction : 6
Max retry count : 20
Gap status : Analyzed, Appended (except HTOA)

TOC of the extracted CD
Track | Start | Length | Start sector | End sector
––––––––––––––––––––––––––––-
1 | 00:00:00 | 05:50:50 | 0 | 26299
2 | 05:50:50 | 06:39:20 | 26300 | 56244
3 | 12:29:70 | 04:19:10 | 56245 | 75679
4 | 16:49:05 | 04:28:70 | 75680 | 95849
5 | 21:18:00 | 06:50:50 | 95850 | 126649
6 | 28:08:50 | 05:38:60 | 126650 | 152059
7 | 33:47:35 | 03:41:60 | 152060 | 168694
8 | 37:29:20 | 03:45:50 | 168695 | 185619
9 | 41:14:70 | 02:45:50 | 185620 | 198044
10 | 44:00:45 | 05:30:70 | 198045 | 222864
11 | 49:31:40 | 04:40:34 | 222865 | 243898

AccurateRip Summary (DiscID: 0017ae25-00c983f7-840cb30b)
Track 01 : OK (v2, confidence 2/2)
Track 02 : OK (v2, confidence 2/2)
Track 03 : OK (v2, confidence 2/2)
Track 04 : OK (v2, confidence 2/2)
Track 05 : OK (v2, confidence 2/2)
Track 06 : OK (v2, confidence 2/2)
Track 07 : OK (v2, confidence 2/2)
Track 08 : OK (v2, confidence 2/2)
Track 09 : OK (v2, confidence 2/2)
Track 10 : OK (v2, confidence 2/2)
Track 11 : OK (v2, confidence 2/2)
->All tracks accurately ripped.

All Tracks
Album gain : 5.64 dB
Peak : 0.995728
Statistics
Read error : 0
Jitter error (maybe fixed) : 0
Retry sector count : 0
Damaged sector count : 0

Track 01
Filename : /Volumes/Music/Stephen Hough - Nocturnes (2021) [MP3 V0]/Disc 2/01 Nocturne No. 13 in C minor, Op. 48, No. 1.mp3
/Volumes/Music/Stephen Hough - Nocturnes (2021) [MP3 320]/Disc 2/01 Nocturne No. 13 in C minor, Op. 48, No. 1.mp3
/Volumes/Music/Stephen Hough - Nocturnes (2021) [FLAC]/Disc 2/01 Nocturne No. 13 in C minor, Op. 48, No. 1.flac
Pre-gap length : 00:02:00

Track gain : 1.25 dB
Peak : 0.995728
CRC32 hash (test run) : 26FA89C5
CRC32 hash : 26FA89C5
CRC32 hash (skip zero) : 0B38DBC6
AccurateRip v1 signature : 85162A69
AccurateRip v2 signature : 573FF74D
->Accurately ripped (v2, confidence 2/2)
Statistics
Read error : 0
Jitter error (maybe fixed) : 0
Retry sector count : 0
Damaged sector count : 0

Track 02
Filename : /Volumes/Music/Stephen Hough - Nocturnes (2021) [MP3 V0]/Disc 2/02 Nocturne No. 14 in F sharp minor, Op. 48, No. 2.mp3
/Volumes/Music/Stephen Hough - Nocturnes (2021) [MP3 320]/Disc 2/02 Nocturne No. 14 in F sharp minor, Op. 48, No. 2.mp3
/Volumes/Music/Stephen Hough - Nocturnes (2021) [FLAC]/Disc 2/02 Nocturne No. 14 in F sharp minor, Op. 48, No. 2.flac

Track gain : 6.04 dB
Peak : 0.594757
CRC32 hash (test run) : E8545F54
CRC32 hash : E8545F54
CRC32 hash (skip zero) : BB4512A1
AccurateRip v1 signature : 0D806CC1
AccurateRip v2 signature : 92665314
->Accurately ripped (v2, confidence 2/2)
Statistics
Read error : 0
Jitter error (maybe fixed) : 0
Retry sector count : 0
Damaged sector count : 0

Track 03
Filename : /Volumes/Music/Stephen Hough - Nocturnes (2021) [MP3 V0]/Disc 2/03 Nocturne No. 15 in F minor, Op. 55, No. 1.mp3
/Volumes/Music/Stephen Hough - Nocturnes (2021) [MP3 320]/Disc 2/03 Nocturne No. 15 in F minor, Op. 55, No. 1.mp3
/Volumes/Music/Stephen Hough - Nocturnes (2021) [FLAC]/Disc 2/03 Nocturne No. 15 in F minor, Op. 55, No. 1.flac

Track gain : 5.91 dB
Peak : 0.538879
CRC32 hash (test run) : DB781DBD
CRC32 hash : DB781DBD
CRC32 hash (skip zero) : EB1B77A4
AccurateRip v1 signature : ED47F2E7
AccurateRip v2 signature : BAA0E216
->Accurately ripped (v2, confidence 2/2)
Statistics
Read error : 0
Jitter error (maybe fixed) : 0
Retry sector count : 0
Damaged sector count : 0

Track 04
Filename : /Volumes/Music/Stephen Hough - Nocturnes (2021) [MP3 V0]/Disc 2/04 Nocturne No. 16 in E flat major, Op. 55, No. 2.mp3
/Volumes/Music/Stephen Hough - Nocturnes (2021) [MP3 320]/Disc 2/04 Nocturne No. 16 in E flat major, Op. 55, No. 2.mp3
/Volumes/Music/Stephen Hough - Nocturnes (2021) [FLAC]/Disc 2/04 Nocturne No. 16 in E flat major, Op. 55, No. 2.flac

Track gain : 7.00 dB
Peak : 0.454163
CRC32 hash (test run) : 8EFA6D16
CRC32 hash : 8EFA6D16
CRC32 hash (skip zero) : 488A83E1
AccurateRip v1 signature : 8BF761E8
AccurateRip v2 signature : 5220028C
->Accurately ripped (v2, confidence 2/2)
Statistics
Read error : 0
Jitter error (maybe fixed) : 0
Retry sector count : 0
Damaged sector count : 0

Track 05
Filename : /Volumes/Music/Stephen Hough - Nocturnes (2021) [MP3 V0]/Disc 2/05 Nocturne No. 17 in B major, Op. 62, No. 1.mp3
/Volumes/Music/Stephen Hough - Nocturnes (2021) [MP3 320]/Disc 2/05 Nocturne No. 17 in B major, Op. 62, No. 1.mp3
/Volumes/Music/Stephen Hough - Nocturnes (2021) [FLAC]/Disc 2/05 Nocturne No. 17 in B major, Op. 62, No. 1.flac

Track gain : 9.03 dB
Peak : 0.486450
CRC32 hash (test run) : A0A9DD8B
CRC32 hash : A0A9DD8B
CRC32 hash (skip zero) : 01DAAB3A
AccurateRip v1 signature : 940FB045
AccurateRip v2 signature : 78BFE7BD
->Accurately ripped (v2, confidence 2/2)
Statistics
Read error : 0
Jitter error (maybe fixed) : 0
Retry sector count : 0
Damaged sector count : 0

Track 06
Filename : /Volumes/Music/Stephen Hough - Nocturnes (2021) [MP3 V0]/Disc 2/06 Nocturne No. 18 in E major, Op. 62, No. 2.mp3
/Volumes/Music/Stephen Hough - Nocturnes (2021) [MP3 320]/Disc 2/06 Nocturne No. 18 in E major, Op. 62, No. 2.mp3
/Volumes/Music/Stephen Hough - Nocturnes (2021) [FLAC]/Disc 2/06 Nocturne No. 18 in E major, Op. 62, No. 2.flac

Track gain : 6.21 dB
Peak : 0.483124
CRC32 hash (test run) : C96D0191
CRC32 hash : C96D0191
CRC32 hash (skip zero) : AF3FC080
AccurateRip v1 signature : 1AA7D16C
AccurateRip v2 signature : 9BD86616
->Accurately ripped (v2, confidence 2/2)
Statistics
Read error : 0
Jitter error (maybe fixed) : 0
Retry sector count : 0
Damaged sector count : 0

Track 07
Filename : /Volumes/Music/Stephen Hough - Nocturnes (2021) [MP3 V0]/Disc 2/07 Nocturne No. 20 in C sharp minor 'Lento con grande espressione', Op. posth., KK IVa 16.mp3
/Volumes/Music/Stephen Hough - Nocturnes (2021) [MP3 320]/Disc 2/07 Nocturne No. 20 in C sharp minor 'Lento con grande espressione', Op. posth., KK IVa 16.mp3
/Volumes/Music/Stephen Hough - Nocturnes (2021) [FLAC]/Disc 2/07 Nocturne No. 20 in C sharp minor 'Lento con grande espressione', Op. posth., KK IVa 16.flac

Track gain : 8.02 dB
Peak : 0.413025
CRC32 hash (test run) : A5FCFF3B
CRC32 hash : A5FCFF3B
CRC32 hash (skip zero) : 28503787
AccurateRip v1 signature : 0658908E
AccurateRip v2 signature : 6113BCE3
->Accurately ripped (v2, confidence 2/2)
Statistics
Read error : 0
Jitter error (maybe fixed) : 0
Retry sector count : 0
Damaged sector count : 0

Track 08
Filename : /Volumes/Music/Stephen Hough - Nocturnes (2021) [MP3 V0]/Disc 2/08 Nocturne No. 19 in E minor, Op. 72, No. 1.mp3
/Volumes/Music/Stephen Hough - Nocturnes (2021) [MP3 320]/Disc 2/08 Nocturne No. 19 in E minor, Op. 72, No. 1.mp3
/Volumes/Music/Stephen Hough - Nocturnes (2021) [FLAC]/Disc 2/08 Nocturne No. 19 in E minor, Op. 72, No. 1.flac

Track gain : 4.61 dB
Peak : 0.576721
CRC32 hash (test run) : EA74AF1C
CRC32 hash : EA74AF1C
CRC32 hash (skip zero) : D7A46602
AccurateRip v1 signature : 680DE660
AccurateRip v2 signature : DD8B64CA
->Accurately ripped (v2, confidence 2/2)
Statistics
Read error : 0
Jitter error (maybe fixed) : 0
Retry sector count : 0
Damaged sector count : 0

Track 09
Filename : /Volumes/Music/Stephen Hough - Nocturnes (2021) [MP3 V0]/Disc 2/09 Nocturne in C minor, Op. posth., KK IVb 8.mp3
/Volumes/Music/Stephen Hough - Nocturnes (2021) [MP3 320]/Disc 2/09 Nocturne in C minor, Op. posth., KK IVb 8.mp3
/Volumes/Music/Stephen Hough - Nocturnes (2021) [FLAC]/Disc 2/09 Nocturne in C minor, Op. posth., KK IVb 8.flac

Track gain : 6.29 dB
Peak : 0.441498
CRC32 hash (test run) : 738AB01E
CRC32 hash : 738AB01E
CRC32 hash (skip zero) : 6BC7B4B1
AccurateRip v1 signature : A44EA51D
AccurateRip v2 signature : 5623CA10
->Accurately ripped (v2, confidence 2/2)
Statistics
Read error : 0
Jitter error (maybe fixed) : 0
Retry sector count : 0
Damaged sector count : 0

Track 10
Filename : /Volumes/Music/Stephen Hough - Nocturnes (2021) [MP3 V0]/Disc 2/10 Larghetto In C sharp minor 'Nocturne oublié', KK Anh. Ia 6.mp3
/Volumes/Music/Stephen Hough - Nocturnes (2021) [MP3 320]/Disc 2/10 Larghetto In C sharp minor 'Nocturne oublié', KK Anh. Ia 6.mp3
/Volumes/Music/Stephen Hough - Nocturnes (2021) [FLAC]/Disc 2/10 Larghetto In C sharp minor 'Nocturne oublié', KK Anh. Ia 6.flac

Track gain : 6.15 dB
Peak : 0.641815
CRC32 hash (test run) : 459D8995
CRC32 hash : 459D8995
CRC32 hash (skip zero) : 38FB1FEB
AccurateRip v1 signature : 7CF45AEF
AccurateRip v2 signature : A8BD4EA2
->Accurately ripped (v2, confidence 2/2)
Statistics
Read error : 0
Jitter error (maybe fixed) : 0
Retry sector count : 0
Damaged sector count : 0

Track 11
Filename : /Volumes/Music/Stephen Hough - Nocturnes (2021) [MP3 V0]/Disc 2/11 Nocturne in E flat major, Op. 9, No. 2b.mp3
/Volumes/Music/Stephen Hough - Nocturnes (2021) [MP3 320]/Disc 2/11 Nocturne in E flat major, Op. 9, No. 2b.mp3
/Volumes/Music/Stephen Hough - Nocturnes (2021) [FLAC]/Disc 2/11 Nocturne in E flat major, Op. 9, No. 2b.flac

Track gain : 6.45 dB
Peak : 0.670258
CRC32 hash (test run) : A8C3DCEB
CRC32 hash : A8C3DCEB
CRC32 hash (skip zero) : DCA73D96
AccurateRip v1 signature : 5CAAD109
AccurateRip v2 signature : 9F905EB4
->Accurately ripped (v2, confidence 2/2)
Statistics
Read error : 0
Jitter error (maybe fixed) : 0
Retry sector count : 0
Damaged sector count : 0

No errors occurred

End of status report

––-BEGIN XLD SIGNATURE––-
OQILVAVLzcX_Ji.IVv6w4iIeSWebEHCh5IaEMlx7UZxta42S_8EREsDsQ3ptnCXn051e2q8vnjASOHrkJ8.mRGPXcbwHe6jI2qt2D1S
––-END XLD SIGNATURE––-

Thanks to the Original ripper !