Tags
Language
Tags

Sun Ra And His Arkestra - Egypt 1971 (2020)

Posted By: delpotro
Sun Ra And His Arkestra - Egypt 1971 (2020)

Sun Ra And His Arkestra - Egypt 1971 (2020)
EAC Rip | FLAC (tracks+log+.cue) - 1,2 Gb | MP3 CBR 320 kbps - 559 Mb | 04:03:30
Avant-Garde Jazz | Label: Strut Records

Strut presents the 4CD edition of Sun Ra's 'Egypt 1971', documenting Sun Ra's first trip to Egypt with his Arkestra in December 1971.

In the years leading up to 1971, Sun Ra wrote many compositions and poems specifically inspired by the ancient African Kingdoms and many others with associated mythological and heliocentric connotations. As such, a visit to Egypt and the opportunity for the Arkestra to play there was a matter of necessity. Ra’s first ever concerts outside of the US had occurred in late summer and autumn of 1970 with performances in France, Germany and the UK and a second European tour was arranged for late 1971. At the end of that second tour, Ra caught wind of cheap flights from Denmark to Cairo.

This release comprises recordings made by Arkestra member Thomas “Bugs” Hunter made in December 1971 in the streets around the Mena House Hotel, Giza, from a concert held at the house of Goethe Institute ex-pat Hartmut Geerken in Heliopolis, from a live Cairo TV channel broadcast and a concert at the Ballon Theatre in Cairo.

The impact and significance of these few weeks upon Sun Ra can be measured by the growth and development of his output over the next few years; the immediate post-Egypt period included new studio and live recordings on the Saturn, Blue Thumb, Atlantic and Impulse labels and the ‘Space Is The Place’ movie. Ra also edited the three LPs of the ‘Live In Egypt’ series which were subsequently released on his Saturn record label and its affiliated twin, Thoth Intergalactic: ‘Dark Myth Equation Visitation’, ‘Nidhamu’ and ‘Horizon’

This 4CD set features these albums alongside previously unreleased material from the December 1971 recordings. All tracks are remastered from the original tapes and this CD set also features a 24-page booklet featuring new sleeve notes and rare photos by Hartmut Geerken and background information on the recordings by Paul Griffiths.
Tracklist:
1. Discipline 27 (03:58)
2. Interview with Ra (04:16)
3. Solar Ship Voyage (02:35)
4. Interview with Ra (Concluded) (00:24)
5. Cosmo-Darkness (02:04)
6. The Light Thereof (05:17)
7. Friendly Galaxy No. 2 (10:16)
8. To Nature's God (09:06)
9. Why Go to the Moon? (02:42)
10. Space Loneliness No. 2 (11:42)
11. Discipline 11 (09:43)
12. Discipline 15 (02:42)
13. Starwatchers / Theme of the Stargazers (01:20)
14. Nidhamu (13:09)
15. Discipline 2 (05:28)
16. Shadow World (13:35)
17. Third Planet (04:56)
18. Space is the Place (03:27)
19. Horizon (08:24)
20. Discipline 8 (07:57)
21. We'll Wait for You (01:38)
22. Satellites Are Spinning (11:17)
23. Enlightenment (02:36)
24. Love in Outer Space (07:14)
25. Next Stop Mars (House Of Hartmut Geerken, Heliopolis 12.12.71) (06:26)
26. Pleiades (House Of Hartmut Geerken, Heliopolis 12.12.71) (01:59)
27. We'll Wait for You (House Of Hartmut Geerken, Heliopolis 12.12.71) (08:39)
28. The Bridge (House Of Hartmut Geerken, Heliopolis 12.12.71) (04:52)
29. Nidhamu (Pt. 1) (House Of Hartmut Geerken, Heliopolis 12.12.71) (13:37)
30. Nidhamu (Pt. 2) (House Of Hartmut Geerken, Heliopolis 12.12.71) (06:18)
31. Discipline 27 (House Of Hartmut Geerken, Heliopolis 12.12.71) (01:16)
32. They'll Come Back (House Of Hartmut Geerken, Heliopolis 12.12.71) (00:43)
33. Calling Planet Earth (House Of Hartmut Geerken, Heliopolis 12.12.71) (02:48)
34. Imagination (House Of Hartmut Geerken, Heliopolis 12.12.71) (01:13)
35. Discipline (House Of Hartmut Geerken, Heliopolis 12.12.71) (03:47)
36. Angels and Demons at Play (House Of Hartmut Geerken, Heliopolis 12.12.71) (03:15)
37. We Sing This Song (House Of Hartmut Geerken, Heliopolis 12.12.71) (05:43)
38. Space is the Place (TV Broadcast, Cairo 16.12.71) (05:24)
39. Organ Interlude (Ballon Theatre, Cairo 17.12.71) (01:16)
40. Angels and Demons at Play (Ballon Theatre, Cairo 17.12.71) (13:30)
41. Egyptian Oasis 1 (Streets Of Heliopolis) (03:10)
42. Egyptian Oasis 2 (Streets Of Heliopolis) (03:35)
43. Have You Heard the Latest News from Neptune (Ballon Theatre, Cairo 17.12.71) (09:59)

Exact Audio Copy V1.3 from 2. September 2016

EAC extraction logfile from 16. November 2020, 14:14

Sun Ra Arkestra / Egypt 1971

Used drive : ATAPI iHBS112 2 Adapter: 1 ID: 0

Read mode : Secure
Utilize accurate stream : Yes
Defeat audio cache : Yes
Make use of C2 pointers : No

Read offset correction : 6
Overread into Lead-In and Lead-Out : No
Fill up missing offset samples with silence : Yes
Delete leading and trailing silent blocks : No
Null samples used in CRC calculations : Yes
Used interface : Native Win32 interface for Win NT & 2000
Gap handling : Appended to previous track

Used output format : User Defined Encoder
Selected bitrate : 1024 kBit/s
Quality : High
Add ID3 tag : No
Command line compressor : C:\Program Files (x86)\Exact Audio Copy\FLAC\FLAC.EXE
Additional command line options : -8 -e -V -T "ARTIST=%artist%" -T "TITLE=%title%" -T "ALBUM=%albumtitle%" -T "DATE=%year%" -T "TRACKNUMBER=%tracknr%" -T "GENRE=%genre%" -T "PERFORMER=%albuminterpret%" -T "COMPOSER=%composer%" %haslyrics%–tag-from-file=LYRICS="%lyricsfile%"%haslyrics% -T "ALBUMARTIST=%albumartist%" -T "DISCNUMBER=%cdnumber%" -T "TOTALDISCS=%totalcds%" -T "TOTALTRACKS=%numtracks%" -T "COMMENT=%comment%" %source% -o %dest%


TOC of the extracted CD

Track | Start | Length | Start sector | End sector
––––––––––––––––––––––––––––-
1 | 0:00.00 | 3:58.06 | 0 | 17855
2 | 3:58.06 | 4:16.16 | 17856 | 37071
3 | 8:14.22 | 2:34.39 | 37072 | 48660
4 | 10:48.61 | 0:24.04 | 48661 | 50464
5 | 11:12.65 | 2:04.01 | 50465 | 59765
6 | 13:16.66 | 5:17.25 | 59766 | 83565
7 | 18:34.16 | 10:16.15 | 83566 | 129780
8 | 28:50.31 | 9:05.59 | 129781 | 170714
9 | 37:56.15 | 2:42.16 | 170715 | 182880
10 | 40:38.31 | 11:41.40 | 182881 | 235495
11 | 52:19.71 | 9:42.51 | 235496 | 279196
12 | 62:02.47 | 2:41.60 | 279197 | 291331
13 | 64:44.32 | 13:08.38 | 291332 | 350469


Track 1

Filename E:\Rips\Sun Ra - Egypt '71 [CD] (2020) {STRUT209CD}\Disc 1\01 - Discipline 27.wav

Pre-gap length 0:00:02.00

Peak level 91.2 %
Extraction speed 2.2 X
Track quality 100.0 %
Test CRC 549B465A
Copy CRC 549B465A
Track not present in AccurateRip database
Copy OK

Track 2

Filename E:\Rips\Sun Ra - Egypt '71 [CD] (2020) {STRUT209CD}\Disc 1\02 - Interview with Ra.wav

Peak level 91.0 %
Extraction speed 2.5 X
Track quality 100.0 %
Test CRC 4B7305EE
Copy CRC 4B7305EE
Track not present in AccurateRip database
Copy OK

Track 3

Filename E:\Rips\Sun Ra - Egypt '71 [CD] (2020) {STRUT209CD}\Disc 1\03 - Solar Ship Voyage.wav

Peak level 91.2 %
Extraction speed 2.4 X
Track quality 100.0 %
Test CRC F99FDADA
Copy CRC F99FDADA
Track not present in AccurateRip database
Copy OK

Track 4

Filename E:\Rips\Sun Ra - Egypt '71 [CD] (2020) {STRUT209CD}\Disc 1\04 - Interview with Ra (Concluded).wav

Peak level 91.2 %
Extraction speed 1.2 X
Track quality 100.0 %
Test CRC 501C80D7
Copy CRC 501C80D7
Track not present in AccurateRip database
Copy OK

Track 5

Filename E:\Rips\Sun Ra - Egypt '71 [CD] (2020) {STRUT209CD}\Disc 1\05 - Cosmo-Darkness.wav

Peak level 91.2 %
Extraction speed 2.4 X
Track quality 100.0 %
Test CRC 3EF07C12
Copy CRC 3EF07C12
Track not present in AccurateRip database
Copy OK

Track 6

Filename E:\Rips\Sun Ra - Egypt '71 [CD] (2020) {STRUT209CD}\Disc 1\06 - The Light Thereof.wav

Peak level 91.2 %
Extraction speed 3.0 X
Track quality 100.0 %
Test CRC F4CE0238
Copy CRC F4CE0238
Track not present in AccurateRip database
Copy OK

Track 7

Filename E:\Rips\Sun Ra - Egypt '71 [CD] (2020) {STRUT209CD}\Disc 1\07 - Friendly Galaxy No. 2.wav

Peak level 91.2 %
Extraction speed 3.1 X
Track quality 99.9 %
Test CRC 21F343B1
Copy CRC 21F343B1
Track not present in AccurateRip database
Copy OK

Track 8

Filename E:\Rips\Sun Ra - Egypt '71 [CD] (2020) {STRUT209CD}\Disc 1\08 - To Nature's God.wav

Peak level 91.2 %
Extraction speed 3.3 X
Track quality 99.9 %
Test CRC 0E361520
Copy CRC 0E361520
Track not present in AccurateRip database
Copy OK

Track 9

Filename E:\Rips\Sun Ra - Egypt '71 [CD] (2020) {STRUT209CD}\Disc 1\09 - Why Go To The Moon.wav

Peak level 91.2 %
Extraction speed 3.5 X
Track quality 100.0 %
Test CRC 11682DE9
Copy CRC 11682DE9
Track not present in AccurateRip database
Copy OK

Track 10

Filename E:\Rips\Sun Ra - Egypt '71 [CD] (2020) {STRUT209CD}\Disc 1\10 - Space Loneliness No. 2.wav

Peak level 91.2 %
Extraction speed 3.9 X
Track quality 99.9 %
Test CRC 2FE96087
Copy CRC 2FE96087
Track not present in AccurateRip database
Copy OK

Track 11

Filename E:\Rips\Sun Ra - Egypt '71 [CD] (2020) {STRUT209CD}\Disc 1\11 - Discipline 11.wav

Peak level 91.2 %
Extraction speed 4.0 X
Track quality 99.9 %
Test CRC 4D1392BA
Copy CRC 4D1392BA
Track not present in AccurateRip database
Copy OK

Track 12

Filename E:\Rips\Sun Ra - Egypt '71 [CD] (2020) {STRUT209CD}\Disc 1\12 - Discipline 15.wav

Peak level 91.2 %
Extraction speed 4.2 X
Track quality 100.0 %
Test CRC FD62040C
Copy CRC FD62040C
Track not present in AccurateRip database
Copy OK

Track 13

Filename E:\Rips\Sun Ra - Egypt '71 [CD] (2020) {STRUT209CD}\Disc 1\13 - Nidhamu.wav

Peak level 91.2 %
Extraction speed 4.6 X
Track quality 99.9 %
Test CRC 6BADFE47
Copy CRC 6BADFE47
Track not present in AccurateRip database
Copy OK


None of the tracks are present in the AccurateRip database

No errors occurred

End of status report

–– CUETools DB Plugin V2.1.6

[CTDB TOCID: CeB73d.96rUY3Rdqhh2jtpTjfYo-] disk not present in database
Submit result: CeB73d.96rUY3Rdqhh2jtpTjfYo- has been uploaded


==== Log checksum DF301BB3273E139403485A8D0583B240B12576872098688D37B4028737D0BDC8 ====
Exact Audio Copy V1.3 from 2. September 2016

EAC extraction logfile from 16. November 2020, 19:00

Sun Ra Arkestra / Egypt 1971

Used drive : ATAPI iHBS112 2 Adapter: 1 ID: 0

Read mode : Secure
Utilize accurate stream : Yes
Defeat audio cache : Yes
Make use of C2 pointers : No

Read offset correction : 6
Overread into Lead-In and Lead-Out : No
Fill up missing offset samples with silence : Yes
Delete leading and trailing silent blocks : No
Null samples used in CRC calculations : Yes
Used interface : Native Win32 interface for Win NT & 2000
Gap handling : Appended to previous track

Used output format : User Defined Encoder
Selected bitrate : 1024 kBit/s
Quality : High
Add ID3 tag : No
Command line compressor : C:\Program Files (x86)\Exact Audio Copy\FLAC\FLAC.EXE
Additional command line options : -8 -e -V -T "ARTIST=%artist%" -T "TITLE=%title%" -T "ALBUM=%albumtitle%" -T "DATE=%year%" -T "TRACKNUMBER=%tracknr%" -T "GENRE=%genre%" -T "PERFORMER=%albuminterpret%" -T "COMPOSER=%composer%" %haslyrics%–tag-from-file=LYRICS="%lyricsfile%"%haslyrics% -T "ALBUMARTIST=%albumartist%" -T "DISCNUMBER=%cdnumber%" -T "TOTALDISCS=%totalcds%" -T "TOTALTRACKS=%numtracks%" -T "COMMENT=%comment%" %source% -o %dest%


TOC of the extracted CD

Track | Start | Length | Start sector | End sector
––––––––––––––––––––––––––––-
1 | 0:00.00 | 1:20.32 | 0 | 6031
2 | 1:20.32 | 5:28.11 | 6032 | 30642
3 | 6:48.43 | 13:34.60 | 30643 | 91752
4 | 20:23.28 | 4:55.51 | 91753 | 113928
5 | 25:19.04 | 3:27.10 | 113929 | 129463
6 | 28:46.14 | 8:23.44 | 129464 | 167232
7 | 37:09.58 | 8:02.25 | 167233 | 203407
8 | 45:12.08 | 1:37.42 | 203408 | 210724
9 | 46:49.50 | 11:17.00 | 210725 | 261499
10 | 58:06.50 | 2:35.43 | 261500 | 273167
11 | 60:42.18 | 7:14.01 | 273168 | 305718


Track 1

Filename E:\Rips\Sun Ra - Egypt '71 [CD] (2020) {STRUT209CD}\Disc 2\14 - Starwatchers , Theme of the Stargazers.wav

Pre-gap length 0:00:02.00

Peak level 91.2 %
Extraction speed 0.9 X
Track quality 100.0 %
Test CRC 885F66E6
Copy CRC 885F66E6
Track not present in AccurateRip database
Copy OK

Track 2

Filename E:\Rips\Sun Ra - Egypt '71 [CD] (2020) {STRUT209CD}\Disc 2\15 - Discipline No. 2.wav

Peak level 91.2 %
Extraction speed 1.3 X
Track quality 100.0 %
Test CRC 37672167
Copy CRC 37672167
Track not present in AccurateRip database
Copy OK

Track 3

Filename E:\Rips\Sun Ra - Egypt '71 [CD] (2020) {STRUT209CD}\Disc 2\16 - Shadow World.wav

Peak level 91.2 %
Extraction speed 1.7 X
Track quality 100.0 %
Test CRC EFBDE957
Copy CRC EFBDE957
Track not present in AccurateRip database
Copy OK

Track 4

Filename E:\Rips\Sun Ra - Egypt '71 [CD] (2020) {STRUT209CD}\Disc 2\17 - Third Planet.wav

Peak level 91.2 %
Extraction speed 1.8 X
Track quality 100.0 %
Test CRC 5897522C
Copy CRC 5897522C
Track not present in AccurateRip database
Copy OK

Track 5

Filename E:\Rips\Sun Ra - Egypt '71 [CD] (2020) {STRUT209CD}\Disc 2\18 - Space Is The Place.wav

Peak level 91.2 %
Extraction speed 1.6 X
Track quality 99.9 %
Test CRC CFA69497
Copy CRC CFA69497
Track not present in AccurateRip database
Copy OK

Track 6

Filename E:\Rips\Sun Ra - Egypt '71 [CD] (2020) {STRUT209CD}\Disc 2\19 - Horizon.wav

Peak level 70.4 %
Extraction speed 2.2 X
Track quality 100.0 %
Test CRC 49C9DB38
Copy CRC 49C9DB38
Track not present in AccurateRip database
Copy OK

Track 7

Filename E:\Rips\Sun Ra - Egypt '71 [CD] (2020) {STRUT209CD}\Disc 2\20 - Discipline No. 8.wav

Peak level 91.2 %
Extraction speed 2.3 X
Track quality 100.0 %
Test CRC 30B6CF80
Copy CRC 30B6CF80
Track not present in AccurateRip database
Copy OK

Track 8

Filename E:\Rips\Sun Ra - Egypt '71 [CD] (2020) {STRUT209CD}\Disc 2\21 - We'll Wait For You.wav

Peak level 91.2 %
Extraction speed 1.9 X
Track quality 100.0 %
Test CRC 893A96C4
Copy CRC 893A96C4
Track not present in AccurateRip database
Copy OK

Track 9

Filename E:\Rips\Sun Ra - Egypt '71 [CD] (2020) {STRUT209CD}\Disc 2\22 - The Satellites Are Spinning.wav

Peak level 91.2 %
Extraction speed 2.6 X
Track quality 100.0 %
Test CRC 8B95CBFE
Copy CRC 8B95CBFE
Track not present in AccurateRip database
Copy OK

Track 10

Filename E:\Rips\Sun Ra - Egypt '71 [CD] (2020) {STRUT209CD}\Disc 2\23 - Enlightenment.wav

Peak level 91.2 %
Extraction speed 2.3 X
Track quality 100.0 %
Test CRC BD2662D6
Copy CRC BD2662D6
Track not present in AccurateRip database
Copy OK

Track 11

Filename E:\Rips\Sun Ra - Egypt '71 [CD] (2020) {STRUT209CD}\Disc 2\24 - Love In Outer Space.wav

Peak level 91.2 %
Extraction speed 2.7 X
Track quality 100.0 %
Test CRC 4A0B2858
Copy CRC 4A0B2858
Track not present in AccurateRip database
Copy OK


None of the tracks are present in the AccurateRip database

No errors occurred

End of status report

–– CUETools DB Plugin V2.1.6

[CTDB TOCID: tX1RgjPxiUE.3f9CiUimH3QCW98-] disk not present in database
Submit result: tX1RgjPxiUE.3f9CiUimH3QCW98- has been uploaded


==== Log checksum F1083B5A4DEC80BFC3C57BA48CEF0BFC0875B5755F5725C847CC5745F0CA7CFD ====
Exact Audio Copy V1.3 from 2. September 2016

EAC extraction logfile from 16. November 2020, 20:38

Sun Ra / Egypt 1971

Used drive : ATAPI iHBS112 2 Adapter: 1 ID: 0

Read mode : Secure
Utilize accurate stream : Yes
Defeat audio cache : Yes
Make use of C2 pointers : No

Read offset correction : 6
Overread into Lead-In and Lead-Out : No
Fill up missing offset samples with silence : Yes
Delete leading and trailing silent blocks : No
Null samples used in CRC calculations : Yes
Used interface : Native Win32 interface for Win NT & 2000
Gap handling : Appended to previous track

Used output format : User Defined Encoder
Selected bitrate : 1024 kBit/s
Quality : High
Add ID3 tag : No
Command line compressor : C:\Program Files (x86)\Exact Audio Copy\FLAC\FLAC.EXE
Additional command line options : -8 -e -V -T "ARTIST=%artist%" -T "TITLE=%title%" -T "ALBUM=%albumtitle%" -T "DATE=%year%" -T "TRACKNUMBER=%tracknr%" -T "GENRE=%genre%" -T "PERFORMER=%albuminterpret%" -T "COMPOSER=%composer%" %haslyrics%–tag-from-file=LYRICS="%lyricsfile%"%haslyrics% -T "ALBUMARTIST=%albumartist%" -T "DISCNUMBER=%cdnumber%" -T "TOTALDISCS=%totalcds%" -T "TOTALTRACKS=%numtracks%" -T "COMMENT=%comment%" %source% -o %dest%


TOC of the extracted CD

Track | Start | Length | Start sector | End sector
––––––––––––––––––––––––––––-
1 | 0:00.00 | 6:26.35 | 0 | 28984
2 | 6:26.35 | 1:59.27 | 28985 | 37936
3 | 8:25.62 | 8:38.59 | 37937 | 76845
4 | 17:04.46 | 4:52.33 | 76846 | 98778
5 | 21:57.04 | 13:37.18 | 98779 | 160071
6 | 35:34.22 | 6:18.15 | 160072 | 188436
7 | 41:52.37 | 1:19.70 | 188437 | 194431
8 | 43:12.32 | 0:43.16 | 194432 | 197672


Track 1

Filename E:\Rips\Sun Ra - Egypt '71 [CD] (2020) {STRUT209CD}\Disc 3\25 - Next Stop Mars.wav

Pre-gap length 0:00:02.00

Peak level 91.2 %
Extraction speed 1.2 X
Track quality 100.0 %
Test CRC CFB6E095
Copy CRC CFB6E095
Track not present in AccurateRip database
Copy OK

Track 2

Filename E:\Rips\Sun Ra - Egypt '71 [CD] (2020) {STRUT209CD}\Disc 3\26 - Pleiades.wav

Peak level 91.2 %
Extraction speed 1.1 X
Track quality 100.0 %
Test CRC 6F42A1B6
Copy CRC 6F42A1B6
Track not present in AccurateRip database
Copy OK

Track 3

Filename E:\Rips\Sun Ra - Egypt '71 [CD] (2020) {STRUT209CD}\Disc 3\27 - We'll Wait For You.wav

Peak level 91.2 %
Extraction speed 1.5 X
Track quality 100.0 %
Test CRC 9F15E595
Copy CRC 9F15E595
Track not present in AccurateRip database
Copy OK

Track 4

Filename E:\Rips\Sun Ra - Egypt '71 [CD] (2020) {STRUT209CD}\Disc 3\28 - The Bridge.wav

Peak level 91.2 %
Extraction speed 1.6 X
Track quality 100.0 %
Test CRC 5393E265
Copy CRC 5393E265
Track not present in AccurateRip database
Copy OK

Track 5

Filename E:\Rips\Sun Ra - Egypt '71 [CD] (2020) {STRUT209CD}\Disc 3\29 - Nidamu (Part 1).wav

Peak level 91.2 %
Extraction speed 1.9 X
Track quality 100.0 %
Test CRC CFDF8A4D
Copy CRC CFDF8A4D
Track not present in AccurateRip database
Copy OK

Track 6

Filename E:\Rips\Sun Ra - Egypt '71 [CD] (2020) {STRUT209CD}\Disc 3\30 - Nidhamu (Part 2).wav

Peak level 91.2 %
Extraction speed 2.0 X
Track quality 100.0 %
Test CRC 32CFD4C6
Copy CRC 32CFD4C6
Track not present in AccurateRip database
Copy OK

Track 7

Filename E:\Rips\Sun Ra - Egypt '71 [CD] (2020) {STRUT209CD}\Disc 3\31 - Discipline No. 27.wav

Peak level 86.0 %
Extraction speed 1.6 X
Track quality 100.0 %
Test CRC AA580246
Copy CRC AA580246
Track not present in AccurateRip database
Copy OK

Track 8

Filename E:\Rips\Sun Ra - Egypt '71 [CD] (2020) {STRUT209CD}\Disc 3\32 - They'll Come Back.wav

Peak level 91.2 %
Extraction speed 1.2 X
Track quality 100.0 %
Test CRC 0943B983
Copy CRC 0943B983
Track not present in AccurateRip database
Copy OK


None of the tracks are present in the AccurateRip database

No errors occurred

End of status report

–– CUETools DB Plugin V2.1.6

[CTDB TOCID: Ls0.CCILNsIKyrjf4MRkWerv.Ow-] disk not present in database
Submit result: Ls0.CCILNsIKyrjf4MRkWerv.Ow- has been uploaded


==== Log checksum 3BADCA966A60230D7E957E82992558D49791D21823E218D9C2FD470FC3BE145D ====
Exact Audio Copy V1.3 from 2. September 2016

EAC extraction logfile from 16. November 2020, 22:02

Sun Ra / Egypt 1971

Used drive : ATAPI iHBS112 2 Adapter: 1 ID: 0

Read mode : Secure
Utilize accurate stream : Yes
Defeat audio cache : Yes
Make use of C2 pointers : No

Read offset correction : 6
Overread into Lead-In and Lead-Out : No
Fill up missing offset samples with silence : Yes
Delete leading and trailing silent blocks : No
Null samples used in CRC calculations : Yes
Used interface : Native Win32 interface for Win NT & 2000
Gap handling : Appended to previous track

Used output format : User Defined Encoder
Selected bitrate : 1024 kBit/s
Quality : High
Add ID3 tag : No
Command line compressor : C:\Program Files (x86)\Exact Audio Copy\FLAC\FLAC.EXE
Additional command line options : -8 -e -V -T "ARTIST=%artist%" -T "TITLE=%title%" -T "ALBUM=%albumtitle%" -T "DATE=%year%" -T "TRACKNUMBER=%tracknr%" -T "GENRE=%genre%" -T "PERFORMER=%albuminterpret%" -T "COMPOSER=%composer%" %haslyrics%–tag-from-file=LYRICS="%lyricsfile%"%haslyrics% -T "ALBUMARTIST=%albumartist%" -T "DISCNUMBER=%cdnumber%" -T "TOTALDISCS=%totalcds%" -T "TOTALTRACKS=%numtracks%" -T "COMMENT=%comment%" %source% -o %dest%


TOC of the extracted CD

Track | Start | Length | Start sector | End sector
––––––––––––––––––––––––––––-
1 | 0:00.00 | 2:48.31 | 0 | 12630
2 | 2:48.31 | 1:13.16 | 12631 | 18121
3 | 4:01.47 | 3:47.20 | 18122 | 35166
4 | 7:48.67 | 3:15.18 | 35167 | 49809
5 | 11:04.10 | 5:42.42 | 49810 | 75501
6 | 16:46.52 | 5:23.49 | 75502 | 99775
7 | 22:10.26 | 1:15.59 | 99776 | 105459
8 | 23:26.10 | 13:35.46 | 105460 | 166630
9 | 37:01.56 | 3:09.47 | 166631 | 180852
10 | 40:11.28 | 3:35.17 | 180853 | 196994
11 | 43:46.45 | 9:58.65 | 196995 | 241909


Track 1

Filename E:\Rips\Sun Ra - Egypt '71 [CD] (2020) {STRUT209CD}\Disc 4\33 - Calling Planet Earth.wav

Pre-gap length 0:00:02.00

Peak level 91.2 %
Extraction speed 1.0 X
Track quality 100.0 %
Test CRC D331D543
Copy CRC D331D543
Track not present in AccurateRip database
Copy OK

Track 2

Filename E:\Rips\Sun Ra - Egypt '71 [CD] (2020) {STRUT209CD}\Disc 4\34 - Imagination.wav

Peak level 91.2 %
Extraction speed 0.9 X
Track quality 100.0 %
Test CRC 41DFB2DD
Copy CRC 41DFB2DD
Track not present in AccurateRip database
Copy OK

Track 3

Filename E:\Rips\Sun Ra - Egypt '71 [CD] (2020) {STRUT209CD}\Disc 4\35 - Discipline.wav

Peak level 91.2 %
Extraction speed 1.2 X
Track quality 100.0 %
Test CRC 25DCD6B8
Copy CRC 25DCD6B8
Track not present in AccurateRip database
Copy OK

Track 4

Filename E:\Rips\Sun Ra - Egypt '71 [CD] (2020) {STRUT209CD}\Disc 4\36 - Angels And Demons At Play.wav

Peak level 91.2 %
Extraction speed 1.2 X
Track quality 100.0 %
Test CRC 692E4D31
Copy CRC 692E4D31
Track not present in AccurateRip database
Copy OK

Track 5

Filename E:\Rips\Sun Ra - Egypt '71 [CD] (2020) {STRUT209CD}\Disc 4\37 - We Sing This Song.wav

Peak level 91.2 %
Extraction speed 1.5 X
Track quality 100.0 %
Test CRC 9994DF28
Copy CRC 9994DF28
Track not present in AccurateRip database
Copy OK

Track 6

Filename E:\Rips\Sun Ra - Egypt '71 [CD] (2020) {STRUT209CD}\Disc 4\38 - Space Is The Place.wav

Peak level 91.2 %
Extraction speed 1.6 X
Track quality 100.0 %
Test CRC 5868DB1D
Copy CRC 5868DB1D
Track not present in AccurateRip database
Copy OK

Track 7

Filename E:\Rips\Sun Ra - Egypt '71 [CD] (2020) {STRUT209CD}\Disc 4\39 - Organ Interlude.wav

Peak level 74.8 %
Extraction speed 1.2 X
Track quality 100.0 %
Test CRC 876A679E
Copy CRC 876A679E
Track not present in AccurateRip database
Copy OK

Track 8

Filename E:\Rips\Sun Ra - Egypt '71 [CD] (2020) {STRUT209CD}\Disc 4\40 - Angels And Demons At Play.wav

Peak level 91.2 %
Extraction speed 1.9 X
Track quality 100.0 %
Test CRC 1FF19325
Copy CRC 1FF19325
Track not present in AccurateRip database
Copy OK

Track 9

Filename E:\Rips\Sun Ra - Egypt '71 [CD] (2020) {STRUT209CD}\Disc 4\41 - Egyptian Oasis 1.wav

Peak level 91.2 %
Extraction speed 1.8 X
Track quality 100.0 %
Test CRC CA05261A
Copy CRC CA05261A
Track not present in AccurateRip database
Copy OK

Track 10

Filename E:\Rips\Sun Ra - Egypt '71 [CD] (2020) {STRUT209CD}\Disc 4\42 - Egyptian Oasis 2.wav

Peak level 91.2 %
Extraction speed 1.9 X
Track quality 100.0 %
Test CRC B9FFFDE0
Copy CRC B9FFFDE0
Track not present in AccurateRip database
Copy OK

Track 11

Filename E:\Rips\Sun Ra - Egypt '71 [CD] (2020) {STRUT209CD}\Disc 4\43 - Have You Heard The Latest News From Neptune.wav

Peak level 91.2 %
Extraction speed 2.3 X
Track quality 100.0 %
Test CRC 33EE684A
Copy CRC 33EE684A
Track not present in AccurateRip database
Copy OK


None of the tracks are present in the AccurateRip database

No errors occurred

End of status report

–– CUETools DB Plugin V2.1.6

[CTDB TOCID: oKoW_9AK7nX0Atif0o.Rz4Ui5q8-] disk not present in database
Submit result: oKoW_9AK7nX0Atif0o.Rz4Ui5q8- has been uploaded


==== Log checksum 482E347D08FA9A31CCDE0E293F853B8D261D96348499543C7CC3A55E104DD105 ====

Thanks to the Original ripper !