Subcategories
Tags
Language
Tags

Sunn O))) - La Mort Noir Dans Esch / Alzette (2006/2021)

Posted By: delpotro
Sunn O))) - La Mort Noir Dans Esch / Alzette (2006/2021)

Sunn O))) - La Mort Noir Dans Esch / Alzette (2006/2021)
EAC Rip | FLAC (tracks+log+.cue) - 314 Mb | MP3 CBR 320 kbps - 146 Mb | 01:03:36
Experimental, Drone Metal, Doom Metal | Label: Southern Lord

Recorded live at Alzette Kulturfabrik, Esch-sur-Alzette, Luxembourg in February 2006.

In early 2006 SUNN O))) embarked on an extended European bus tour in support of their BLACK ONE album, together with our masters EARTH. Malefic/Xasthur (voice), Mark Deutrom (bass), Steve Moore (trombone), Tos (MOOG), Randall Dunn (FOH), Seldon Hunt (photo documentation) … and of course The Lord & SOMA (axes) comprised the geometry of that era of O))).

Through the chaos, mayhem and (mis)adventures, and multi-dimensionality of that incredible tour, the remarkable individuals in the tour party forged musical life bonds, friendships, creative peaks, destinies vanquished and traversed riffs and tones and bass intonated to most brutal edges. On 16 February 2006, the tour arrived at Alzette Kulturfabrik, Esch sur Alzette, Luxembourg and this distortion praising document was recorded by our sound master Randall Dunn. Dyan Carlson of EARTH joined us onstage for the horrifying piece “Reptile Lux", of which only a handful of audience witnessed this representation of the evolved and eroded gems of BLACK ONE. A limited jewel case CD issued at the end of 2006 as a tour merchandise album for O)))'s subsequent tours in North America and marked the initial collaboration with our ally and illustrator Justin Bartlett, whom defined the ceremony with a portrait of a reposing corpse aided by fungus along her long return journey to the humus & other kingdoms.

Mr Barlett is presently in the midst of a battle with stage 4 cancer. We now offer a limited edition reissue of this black diamond to honour and benefit him. All profits of this release and the accompanying T-shirt will go directly to Mr Bartlett. Your purchase ensures that you contribute to helping him out in this challenging time and in the recovery to come. Thank you for considering this.
Tracklist:
1. Orthodox Caveman (06:16)
2. Hallow-Cave (21:59)
3. Reptile Lux (13:26)
4. CandleGoat/Bathori (21:55)

Exact Audio Copy V1.6 from 23. October 2020

EAC extraction logfile from 18. May 2021, 13:06

Sunn O))) / La Mort Noir dans Esch / Alzette

Used drive : HL-DT-STDVDRAM GP57EB40 Adapter: 1 ID: 1

Read mode : Secure
Utilize accurate stream : Yes
Defeat audio cache : Yes
Make use of C2 pointers : No

Read offset correction : 6
Overread into Lead-In and Lead-Out : No
Fill up missing offset samples with silence : Yes
Delete leading and trailing silent blocks : No
Null samples used in CRC calculations : Yes
Used interface : Native Win32 interface for Win NT & 2000
Gap handling : Appended to previous track

Used output format : User Defined Encoder
Selected bitrate : 1024 kBit/s
Quality : High
Add ID3 tag : No
Command line compressor : C:\Program Files (x86)\Exact Audio Copy\Flac\flac.exe
Additional command line options : -8 -V -T "ARTIST=%artist%" -T "TITLE=%title%" -T "ALBUM=%albumtitle%" -T "DATE=%year%" -T "TRACKNUMBER=%tracknr%" -T "GENRE=%genre%" -T "PERFORMER=%albuminterpret%" -T "COMPOSER=%composer%" %haslyrics%–tag-from-file=LYRICS="%lyricsfile%"%haslyrics% -T "ALBUMARTIST=%albumartist%" -T "DISCNUMBER=%cdnumber%" -T "TOTALDISCS=%totalcds%" -T "TOTALTRACKS=%numtracks%" -T "COMMENT=%comment%" %source% -o %dest%


TOC of the extracted CD

Track | Start | Length | Start sector | End sector
––––––––––––––––––––––––––––-
1 | 0:00.00 | 6:16.07 | 0 | 28206
2 | 6:16.07 | 21:58.50 | 28207 | 127106
3 | 28:14.57 | 13:26.00 | 127107 | 187556
4 | 41:40.57 | 21:55.62 | 187557 | 286243


Track 1

Filename Z:\Sunn O))) - La Mort Noir dans Esch _ Alzette (2021) [FLAC] {SUNN66.6}\01 Orthodox Caveman.wav

Pre-gap length 0:00:02.00

Peak level 98.8 %
Extraction speed 2.9 X
Track quality 100.0 %
Test CRC 6B153B9A
Copy CRC 6B153B9A
Track not present in AccurateRip database
Copy OK

Track 2

Filename Z:\Sunn O))) - La Mort Noir dans Esch _ Alzette (2021) [FLAC] {SUNN66.6}\02 Hallow-Cave.wav

Peak level 98.8 %
Extraction speed 3.9 X
Track quality 99.9 %
Test CRC F9AE3302
Copy CRC F9AE3302
Track not present in AccurateRip database
Copy OK

Track 3

Filename Z:\Sunn O))) - La Mort Noir dans Esch _ Alzette (2021) [FLAC] {SUNN66.6}\03 Reptile Lux.wav

Peak level 98.8 %
Extraction speed 4.9 X
Track quality 100.0 %
Test CRC 45A002A0
Copy CRC 45A002A0
Track not present in AccurateRip database
Copy OK

Track 4

Filename Z:\Sunn O))) - La Mort Noir dans Esch _ Alzette (2021) [FLAC] {SUNN66.6}\04 CandleGoat , Bathori.wav

Peak level 98.8 %
Extraction speed 5.8 X
Track quality 100.0 %
Test CRC 513EFBC6
Copy CRC 513EFBC6
Track not present in AccurateRip database
Copy OK


None of the tracks are present in the AccurateRip database

No errors occurred

End of status report

–– CUETools DB Plugin V2.1.6

[CTDB TOCID: XSyYEl7KjpiFg2iA8QEJTbCyE3Y-] found
Submit result: XSyYEl7KjpiFg2iA8QEJTbCyE3Y- has been confirmed
Track | CTDB Status
1 | (1/1) Accurately ripped
2 | (1/1) Accurately ripped
3 | (1/1) Accurately ripped
4 | (1/1) Accurately ripped


==== Log checksum 351ED9E96628389F771F7AEEB6D96F4FFDE1814A801339EAE3987CB990AF0B16 ====

Thanks to the Original ripper !