Subcategories
Tags
Language
Tags

Talivaldis Kenins - Anthology of Canadian Music (1989) {4CD Set, Radio Canada International ACM-33}

Posted By: ruskaval
Talivaldis Kenins - Anthology of Canadian Music (1989) {4CD Set, Radio Canada International ACM-33}

Talivaldis Kenins - Anthology of Canadian Music (1989) {4CD Set, Radio Canada International ACM-33}
EAC rip (secure mode) | FLAC (tracks)+CUE+LOG -> 1.28 Gb | MP3 @320 -> 661 Mb
Full Artwork @ 300 dpi (png) -> 50 Mb | 5% repair rar
© 1989 Radio Canada International | ACM-33
Classical / Contemporary Classical / 20th Century

Anthology of Canadian Music/Anthologie de la musique canadienne(ACM). Collection of recorded music created by RCI devoted to prominent Canadian composers of serious music and to their most significant works.

Tālivaldis Ķeniņš was born on 22 April, 1919, in Liepāja. He died on 21 January, 2008, in Toronto. He began to study music with Lūcija Garūta, then, having moved to France with his parents, he studied in Grenoble with Henri Miller. He studied composition at the Latvian State Conservatory with Jāzeps Vītols. After World War II, Ķeniņš once again travelled to France and in 1945 enrolled at the Conservatoire National Superieur de Paris, where his professors were Tony Aubin and Olivier Messiaen.

Ķeniņš graduated in 1950, winning First Prize in composition. In 1951 Ķeniņš moved with his wife to Canada. Ķeniņš was organist for the Latvian congregation at St. Andrew’s Church, Toronto, and also began to give composition and polyphony classes in the music faculty of the University of Toronto. From 1977 to 1979 he was director of the composition department. Along with his educational work, the composer was actively involved in Canadian musical life. In 1959, he founded the Toronto Latvian Concert Association, and for many years he was a member of the Canadian League of Composers and its president from 1973 to 1974.

Ķeniņš’s creative output encompasses a broad range of works – eight symphonies, twelve concertos, three cantatas, choral works, piano music, as well as works for various types of chamber ensemble.

His music has received great recognition, and has been performed at many festivals and concerts, particularly in Canada. The composer has received the Latvian Order of Three Stars and is an honorary professor of the Jāzeps Vītols Latvian Academy of Music, and Professor Emeritus at the University of Toronto (receiving this title after 32 years of work at the University).

The composer’s life and artistic work has been researched by musicologist Ingrīda Zemzare, as well as Canadian music scholar Paul Rapoport.
Talivaldis Kenins - Anthology of Canadian Music (1989) {4CD Set, Radio Canada International ACM-33}


Track Listing:

Disc 1

1. Tālivaldis Ķeniņš & Eric McLean - Tālivaldis Ķeniņš talks with Eric McLean (35:25)
2. Tālivaldis Ķeniņš & Henri Bergeron - Tālivaldis Ķeniņš accorde une interview à Eric Bergeron (37:31)

Talivaldis Kenins - Anthology of Canadian Music (1989) {4CD Set, Radio Canada International ACM-33}


Disc 2
1. Milton Barnes & Toronto Repertory Ensemble - Septuor: I. Introduction: sostenuto assai lento - II. Scherzo: Vivo (5:38)
2. Milton Barnes & Toronto Repertory Ensemble - Septuor: III. Andante (7:08)
3. Milton Barnes & Toronto Repertory Ensemble - Septuor: IV. Finale: Allegro ma non troppo (4:07)
4. Desmond Hoebig & Andrew Tunis - Suite concertante: I. Introduction: Lento - II. Scherzo: Vivace (4:44)
5. Desmond Hoebig & Andrew Tunis - Suite concertante: III. Aria: Largo (4:04)
6. Desmond Hoebig & Andrew Tunis - Suite concertante: IV. Finale: Allegro molto, quasi danza (3:36)
7. Quartet Canada - Quartet No. 1: I. Moderato ed espressivo (7:45)
8. Quartet Canada - Quartet No. 1: II. Largo sostenuto (6:25)
9. Quartet Canada - Quartet No. 1: III. Vivace e marcato (4:41)
10. Avrahm Galper & Leo Barkin - Divertimento: I. Moderato con moto (2:26)
11. Avrahm Galper & Leo Barkin - Divertimento: II. Arietta (3:06)
12. Avrahm Galper & Leo Barkin - Divertimento: III. Vivo ed animato (2:58)
13. Boris Brott & Orchester der Beethovenhalle, Bonn - Beatae Voces Tenebrae (12:12)

Talivaldis Kenins - Anthology of Canadian Music (1989) {4CD Set, Radio Canada International ACM-33}


Disc 3
1. Arthur Ozolins - Sonata No. 1: I. Adagio, vivace assai (6:22)
2. Arthur Ozolins - Sonata No. 1: II. Andante con variazioni (7:03)
3. Arthur Ozolins - Sonata No. 1: III. Rondo: Presto (3:28)
4. Elmer Iseler & Toronto Festival Singers - Bonhomme! Bonhomme! (2:23)
5. Jos van der Kooy - Suite in D: I. Prelude (2:43)
6. Jos van der Kooy - Suite in D: II. Variations on an Indian lullaby (10:42)
7. Jos van der Kooy - Suite in D: III. Toccata (4:52)
8. John Avison & CBC Vancouver Chamber Orchestra - Symphony No. 4: I. Lento, molto animato, tranquillo, lento (12:51)
9. John Avison & CBC Vancouver Chamber Orchestra - Symphony No. 4: II. Scherzo: Presto, adagio, con brio (10:48)

Talivaldis Kenins - Anthology of Canadian Music (1989) {4CD Set, Radio Canada International ACM-33}


Disc 4
1. Steven Staryk, John Avison & CBC Vancouver Chamber Orchestra - Concerto: Moderato con moto, Molto adagio, Doppio movimento scherzoso, Più lento, Presto volante (20:33)
2. Patrick Wedd - Sinfonia Notturna: I. Fantasia (6:26)
3. Patrick Wedd - Sinfonia Notturna: II. Sogni (6:38)
4. Patrick Wedd - Sinfonia Notturna: III. Moto perpetuo (6:35)
5. William Aide, Cynthia Steljes, Gwillym Williams, Harcus Hennigar & Gerald Robinson - Quintet: I. Intrada: Grave quasi maestoso - II. Vivo ed agitato (6:58)
6. William Aide, Cynthia Steljes, Gwillym Williams, Harcus Hennigar & Gerald Robinson - Quintet: III. Adagio molto cantabile (7:29)
7. William Aide, Cynthia Steljes, Gwillym Williams, Harcus Hennigar & Gerald Robinson - Quintet: IV. Allegretto amabile (3:52)
8. Chia Chou - Sonata No. 3: 'motions… and emotions' (12:08)

Talivaldis Kenins - Anthology of Canadian Music (1989) {4CD Set, Radio Canada International ACM-33}


Exact Audio Copy V1.3 from 2. September 2016

EAC extraction logfile from 20. December 2017, 21:36

Talivaldis Kenins / Anthology of Canadian Music: Talivaldis Kenins

Used drive : slimtype eTDU108 1 Adapter: 1 ID: 0

Read mode : Secure
Utilize accurate stream : Yes
Defeat audio cache : Yes
Make use of C2 pointers : No

Read offset correction : 6
Overread into Lead-In and Lead-Out : No
Fill up missing offset samples with silence : Yes
Delete leading and trailing silent blocks : No
Null samples used in CRC calculations : Yes
Used interface : Native Win32 interface for Win NT & 2000
Gap handling : Appended to previous track

Used output format : User Defined Encoder
Selected bitrate : 1024 kBit/s
Quality : High
Add ID3 tag : No
Command line compressor : D:\Documents\Utilities\Audio\FLAC\flac.exe
Additional command line options : -8 -e -p -V -T "ARTIST=%artist%" -T "TITLE=%title%" -T "ALBUM=%albumtitle%" -T "DATE=%year%" -T "TRACKNUMBER=%tracknr%" -T "GENRE=%genre%" -T "PERFORMER=%albuminterpret%" -T "COMPOSER=%composer%" %haslyrics%–tag-from-file=LYRICS="%lyricsfile%"%haslyrics% -T "ALBUMARTIST=%albumartist%" -T "DISCNUMBER=%cdnumber%" -T "TOTALDISCS=%totalcds%" -T "TOTALTRACKS=%numtracks%" -T "COMMENT=%comment%" %source% -o %dest%


TOC of the extracted CD

Track | Start | Length | Start sector | End sector
––––––––––––––––––––––––––––-
1 | 0:00.00 | 35:25.27 | 0 | 159401
2 | 35:25.27 | 37:31.00 | 159402 | 328226


Track 1

Filename D:\Process\Music\Anthology of Canadian Music\Talivaldis Kenins\Disc 1\01 - Interview 1.wav

Pre-gap length 0:00:02.00

Peak level 97.7 %
Extraction speed 4.0 X
Track quality 100.0 %
Test CRC 5EBB2CA4
Copy CRC 5EBB2CA4
Track not present in AccurateRip database
Copy OK

Track 2

Filename D:\Process\Music\Anthology of Canadian Music\Talivaldis Kenins\Disc 1\02 - Interview 2.wav

Pre-gap length 0:00:08.16

Peak level 94.5 %
Extraction speed 5.0 X
Track quality 99.9 %
Test CRC 26D2590E
Copy CRC 26D2590E
Track not present in AccurateRip database
Copy OK


None of the tracks are present in the AccurateRip database

No errors occurred

End of status report

–– CUETools DB Plugin V2.1.6

[CTDB TOCID: ij0.YonxK4eyutFA75kcMJvyWTc-] found
Submit result: ij0.YonxK4eyutFA75kcMJvyWTc- has been confirmed
Track | CTDB Status
1 | (1/1) Accurately ripped
2 | (1/1) Accurately ripped


==== Log checksum EE1F476DCB2F9F0AEE76CF754C22470E842AFC2B65B8BE423E52EF6D889FA186 ====
Exact Audio Copy V1.3 from 2. September 2016

EAC extraction logfile from 21. December 2017, 0:46

Talivaldis Kenins / Anthology of Canadian Music: Talivaldis Kenins

Used drive : slimtype eTDU108 1 Adapter: 1 ID: 0

Read mode : Secure
Utilize accurate stream : Yes
Defeat audio cache : Yes
Make use of C2 pointers : No

Read offset correction : 6
Overread into Lead-In and Lead-Out : No
Fill up missing offset samples with silence : Yes
Delete leading and trailing silent blocks : No
Null samples used in CRC calculations : Yes
Used interface : Native Win32 interface for Win NT & 2000
Gap handling : Appended to previous track

Used output format : User Defined Encoder
Selected bitrate : 1024 kBit/s
Quality : High
Add ID3 tag : No
Command line compressor : D:\Documents\Utilities\Audio\FLAC\flac.exe
Additional command line options : -8 -e -p -V -T "ARTIST=%artist%" -T "TITLE=%title%" -T "ALBUM=%albumtitle%" -T "DATE=%year%" -T "TRACKNUMBER=%tracknr%" -T "GENRE=%genre%" -T "PERFORMER=%albuminterpret%" -T "COMPOSER=%composer%" %haslyrics%–tag-from-file=LYRICS="%lyricsfile%"%haslyrics% -T "ALBUMARTIST=%albumartist%" -T "DISCNUMBER=%cdnumber%" -T "TOTALDISCS=%totalcds%" -T "TOTALTRACKS=%numtracks%" -T "COMMENT=%comment%" %source% -o %dest%


TOC of the extracted CD

Track | Start | Length | Start sector | End sector
––––––––––––––––––––––––––––-
1 | 0:00.00 | 5:37.60 | 0 | 25334
2 | 5:37.60 | 7:08.05 | 25335 | 57439
3 | 12:45.65 | 4:06.60 | 57440 | 75949
4 | 16:52.50 | 4:43.50 | 75950 | 97224
5 | 21:36.25 | 4:03.45 | 97225 | 115494
6 | 25:39.70 | 3:35.57 | 115495 | 131676
7 | 29:15.52 | 7:45.25 | 131677 | 166576
8 | 37:01.02 | 6:24.48 | 166577 | 195424
9 | 43:25.50 | 4:40.57 | 195425 | 216481
10 | 48:06.32 | 2:25.50 | 216482 | 227406
11 | 50:32.07 | 3:06.33 | 227407 | 241389
12 | 53:38.40 | 2:57.40 | 241390 | 254704
13 | 56:36.05 | 12:12.30 | 254705 | 309634


Track 1

Filename D:\Process\Music\Anthology of Canadian Music\Talivaldis Kenins\Disc 2\01 - Track01.wav

Pre-gap length 0:00:02.00

Peak level 71.3 %
Extraction speed 3.1 X
Track quality 100.0 %
Test CRC B1853C5C
Copy CRC B1853C5C
Track not present in AccurateRip database
Copy OK

Track 2

Filename D:\Process\Music\Anthology of Canadian Music\Talivaldis Kenins\Disc 2\02 - Track02.wav

Pre-gap length 0:00:05.33

Peak level 78.1 %
Extraction speed 3.7 X
Track quality 100.0 %
Test CRC 2BF6B35B
Copy CRC 2BF6B35B
Track not present in AccurateRip database
Copy OK

Track 3

Filename D:\Process\Music\Anthology of Canadian Music\Talivaldis Kenins\Disc 2\03 - Track03.wav

Pre-gap length 0:00:05.10

Peak level 76.3 %
Extraction speed 3.8 X
Track quality 100.0 %
Test CRC 2722A9C6
Copy CRC 2722A9C6
Track not present in AccurateRip database
Copy OK

Track 4

Filename D:\Process\Music\Anthology of Canadian Music\Talivaldis Kenins\Disc 2\04 - Track04.wav

Pre-gap length 0:00:06.57

Peak level 97.7 %
Extraction speed 4.1 X
Track quality 100.0 %
Test CRC F69E1D2A
Copy CRC F69E1D2A
Track not present in AccurateRip database
Copy OK

Track 5

Filename D:\Process\Music\Anthology of Canadian Music\Talivaldis Kenins\Disc 2\05 - Track05.wav

Pre-gap length 0:00:02.90

Peak level 62.6 %
Extraction speed 4.3 X
Track quality 100.0 %
Test CRC 5191FA4E
Copy CRC 5191FA4E
Track not present in AccurateRip database
Copy OK

Track 6

Filename D:\Process\Music\Anthology of Canadian Music\Talivaldis Kenins\Disc 2\06 - Track06.wav

Pre-gap length 0:00:03.97

Peak level 97.6 %
Extraction speed 3.3 X
Track quality 99.9 %
Test CRC 8B4E9988
Copy CRC 8B4E9988
Track not present in AccurateRip database
Copy OK

Track 7

Filename D:\Process\Music\Anthology of Canadian Music\Talivaldis Kenins\Disc 2\07 - Track07.wav

Pre-gap length 0:00:08.62

Peak level 86.6 %
Extraction speed 5.0 X
Track quality 100.0 %
Test CRC F2492409
Copy CRC F2492409
Track not present in AccurateRip database
Copy OK

Track 8

Filename D:\Process\Music\Anthology of Canadian Music\Talivaldis Kenins\Disc 2\08 - Track08.wav

Pre-gap length 0:00:04.02

Peak level 95.6 %
Extraction speed 5.3 X
Track quality 100.0 %
Test CRC 16259B03
Copy CRC 16259B03
Track not present in AccurateRip database
Copy OK

Track 9

Filename D:\Process\Music\Anthology of Canadian Music\Talivaldis Kenins\Disc 2\09 - Track09.wav

Pre-gap length 0:00:04.50

Peak level 90.4 %
Extraction speed 5.3 X
Track quality 100.0 %
Test CRC 1F883106
Copy CRC 1F883106
Track not present in AccurateRip database
Copy OK

Track 10

Filename D:\Process\Music\Anthology of Canadian Music\Talivaldis Kenins\Disc 2\10 - Track10.wav

Pre-gap length 0:00:08.53

Peak level 97.7 %
Extraction speed 4.9 X
Track quality 100.0 %
Test CRC 77E7A657
Copy CRC 77E7A657
Track not present in AccurateRip database
Copy OK

Track 11

Filename D:\Process\Music\Anthology of Canadian Music\Talivaldis Kenins\Disc 2\11 - Track11.wav

Pre-gap length 0:00:02.46

Peak level 54.1 %
Extraction speed 5.2 X
Track quality 100.0 %
Test CRC 7149DA60
Copy CRC 7149DA60
Track not present in AccurateRip database
Copy OK

Track 12

Filename D:\Process\Music\Anthology of Canadian Music\Talivaldis Kenins\Disc 2\12 - Track12.wav

Pre-gap length 0:00:02.06

Peak level 97.7 %
Extraction speed 5.3 X
Track quality 100.0 %
Test CRC 9DBC64F2
Copy CRC 9DBC64F2
Track not present in AccurateRip database
Copy OK

Track 13

Filename D:\Process\Music\Anthology of Canadian Music\Talivaldis Kenins\Disc 2\13 - Track13.wav

Pre-gap length 0:00:08.57

Peak level 62.6 %
Extraction speed 2.9 X
Track quality 99.9 %
Test CRC 9367295F
Copy CRC 9367295F
Track not present in AccurateRip database
Copy OK


None of the tracks are present in the AccurateRip database

No errors occurred

End of status report

–– CUETools DB Plugin V2.1.6

[CTDB TOCID: 2XcYEY1ieoCl8nAimXbHtAKADRk-] found
Submit result: 2XcYEY1ieoCl8nAimXbHtAKADRk- has been confirmed
Track | CTDB Status
1 | (1/1) Accurately ripped
2 | (1/1) Accurately ripped
3 | (1/1) Accurately ripped
4 | (1/1) Accurately ripped
5 | (1/1) Accurately ripped
6 | (1/1) Accurately ripped
7 | (1/1) Accurately ripped
8 | (1/1) Accurately ripped
9 | (1/1) Accurately ripped
10 | (1/1) Accurately ripped
11 | (1/1) Accurately ripped
12 | (1/1) Accurately ripped
13 | (1/1) Accurately ripped


==== Log checksum 1F3193E17FC2F38AFE9E97759EB2E644B9731F9C9820C444F1B96DE77369A788 ====
Exact Audio Copy V1.3 from 2. September 2016

EAC extraction logfile from 21. December 2017, 2:07

Talivaldis Kenins / Anthology of Canadian Music: Talivaldis Kenins

Used drive : slimtype eTDU108 1 Adapter: 1 ID: 0

Read mode : Secure
Utilize accurate stream : Yes
Defeat audio cache : Yes
Make use of C2 pointers : No

Read offset correction : 6
Overread into Lead-In and Lead-Out : No
Fill up missing offset samples with silence : Yes
Delete leading and trailing silent blocks : No
Null samples used in CRC calculations : Yes
Used interface : Native Win32 interface for Win NT & 2000
Gap handling : Appended to previous track

Used output format : User Defined Encoder
Selected bitrate : 1024 kBit/s
Quality : High
Add ID3 tag : No
Command line compressor : D:\Documents\Utilities\Audio\FLAC\flac.exe
Additional command line options : -8 -e -p -V -T "ARTIST=%artist%" -T "TITLE=%title%" -T "ALBUM=%albumtitle%" -T "DATE=%year%" -T "TRACKNUMBER=%tracknr%" -T "GENRE=%genre%" -T "PERFORMER=%albuminterpret%" -T "COMPOSER=%composer%" %haslyrics%–tag-from-file=LYRICS="%lyricsfile%"%haslyrics% -T "ALBUMARTIST=%albumartist%" -T "DISCNUMBER=%cdnumber%" -T "TOTALDISCS=%totalcds%" -T "TOTALTRACKS=%numtracks%" -T "COMMENT=%comment%" %source% -o %dest%


TOC of the extracted CD

Track | Start | Length | Start sector | End sector
––––––––––––––––––––––––––––-
1 | 0:00.00 | 6:21.47 | 0 | 28621
2 | 6:21.47 | 7:02.63 | 28622 | 60334
3 | 13:24.35 | 3:27.70 | 60335 | 75929
4 | 16:52.30 | 2:22.42 | 75930 | 86621
5 | 19:14.72 | 2:42.55 | 86622 | 98826
6 | 21:57.52 | 10:42.35 | 98827 | 147011
7 | 32:40.12 | 4:51.53 | 147012 | 168889
8 | 37:31.65 | 12:50.70 | 168890 | 226709
9 | 50:22.60 | 10:47.62 | 226710 | 275296


Track 1

Filename D:\Process\Music\Anthology of Canadian Music\Talivaldis Kenins\Disc 3\01 - Track01.wav

Pre-gap length 0:00:02.00

Peak level 97.7 %
Extraction speed 1.2 X
Track quality 100.0 %
Test CRC EC4AA4DD
Copy CRC EC4AA4DD
Track not present in AccurateRip database
Copy OK

Track 2

Filename D:\Process\Music\Anthology of Canadian Music\Talivaldis Kenins\Disc 3\02 - Track02.wav

Pre-gap length 0:00:03.00

Peak level 97.7 %
Extraction speed 1.4 X
Track quality 100.0 %
Test CRC 57B008E3
Copy CRC 57B008E3
Track not present in AccurateRip database
Copy OK

Track 3

Filename D:\Process\Music\Anthology of Canadian Music\Talivaldis Kenins\Disc 3\03 - Track03.wav

Pre-gap length 0:00:03.84

Peak level 78.0 %
Extraction speed 1.4 X
Track quality 100.0 %
Test CRC AAA67A69
Copy CRC AAA67A69
Track not present in AccurateRip database
Copy OK

Track 4

Filename D:\Process\Music\Anthology of Canadian Music\Talivaldis Kenins\Disc 3\04 - Track04.wav

Pre-gap length 0:00:09.77

Peak level 97.5 %
Extraction speed 1.4 X
Track quality 100.0 %
Test CRC A86E5CC7
Copy CRC A86E5CC7
Track not present in AccurateRip database
Copy OK

Track 5

Filename D:\Process\Music\Anthology of Canadian Music\Talivaldis Kenins\Disc 3\05 - Track05.wav

Pre-gap length 0:00:09.33

Peak level 51.1 %
Extraction speed 1.5 X
Track quality 100.0 %
Test CRC 5D2FBCCA
Copy CRC 5D2FBCCA
Track not present in AccurateRip database
Copy OK

Track 6

Filename D:\Process\Music\Anthology of Canadian Music\Talivaldis Kenins\Disc 3\06 - Track06.wav

Pre-gap length 0:00:08.02

Peak level 44.9 %
Extraction speed 1.9 X
Track quality 100.0 %
Test CRC 452D6C8A
Copy CRC 452D6C8A
Track not present in AccurateRip database
Copy OK

Track 7

Filename D:\Process\Music\Anthology of Canadian Music\Talivaldis Kenins\Disc 3\07 - Track07.wav

Pre-gap length 0:00:02.93

Peak level 97.7 %
Extraction speed 1.9 X
Track quality 100.0 %
Test CRC 52B2E591
Copy CRC 52B2E591
Track not present in AccurateRip database
Copy OK

Track 8

Filename D:\Process\Music\Anthology of Canadian Music\Talivaldis Kenins\Disc 3\08 - Track08.wav

Pre-gap length 0:00:10.24

Peak level 94.6 %
Extraction speed 2.1 X
Track quality 99.9 %
Test CRC C8D47E7C
Copy CRC C8D47E7C
Track not present in AccurateRip database
Copy OK

Track 9

Filename D:\Process\Music\Anthology of Canadian Music\Talivaldis Kenins\Disc 3\09 - Track09.wav

Pre-gap length 0:00:03.17

Peak level 90.6 %
Extraction speed 2.4 X
Track quality 100.0 %
Test CRC D150F61E
Copy CRC D150F61E
Track not present in AccurateRip database
Copy OK


None of the tracks are present in the AccurateRip database

No errors occurred

End of status report

–– CUETools DB Plugin V2.1.6

[CTDB TOCID: Af9UtgwZci6Y064gT84rkNgTPCg-] found
Submit result: Af9UtgwZci6Y064gT84rkNgTPCg- has been confirmed
Track | CTDB Status
1 | (1/1) Accurately ripped
2 | (1/1) Accurately ripped
3 | (1/1) Accurately ripped
4 | (1/1) Accurately ripped
5 | (1/1) Accurately ripped
6 | (1/1) Accurately ripped
7 | (1/1) Accurately ripped
8 | (1/1) Accurately ripped
9 | (1/1) Accurately ripped


==== Log checksum 74A8483D3B45DF6B2A29D413C0154CAF228486F596459FDA069D2DC70060E146 ====
Exact Audio Copy V1.3 from 2. September 2016

EAC extraction logfile from 21. December 2017, 12:15

Talivaldis Kenins / Anthology of Canadian Music: Talivaldis Kenins

Used drive : slimtype eTDU108 1 Adapter: 1 ID: 0

Read mode : Secure
Utilize accurate stream : Yes
Defeat audio cache : Yes
Make use of C2 pointers : No

Read offset correction : 6
Overread into Lead-In and Lead-Out : No
Fill up missing offset samples with silence : Yes
Delete leading and trailing silent blocks : No
Null samples used in CRC calculations : Yes
Used interface : Native Win32 interface for Win NT & 2000
Gap handling : Appended to previous track

Used output format : User Defined Encoder
Selected bitrate : 1024 kBit/s
Quality : High
Add ID3 tag : No
Command line compressor : D:\Documents\Utilities\Audio\FLAC\flac.exe
Additional command line options : -8 -e -p -V -T "ARTIST=%artist%" -T "TITLE=%title%" -T "ALBUM=%albumtitle%" -T "DATE=%year%" -T "TRACKNUMBER=%tracknr%" -T "GENRE=%genre%" -T "PERFORMER=%albuminterpret%" -T "COMPOSER=%composer%" %haslyrics%–tag-from-file=LYRICS="%lyricsfile%"%haslyrics% -T "ALBUMARTIST=%albumartist%" -T "DISCNUMBER=%cdnumber%" -T "TOTALDISCS=%totalcds%" -T "TOTALTRACKS=%numtracks%" -T "COMMENT=%comment%" %source% -o %dest%


TOC of the extracted CD

Track | Start | Length | Start sector | End sector
––––––––––––––––––––––––––––-
1 | 0:00.00 | 20:33.15 | 0 | 92489
2 | 20:33.15 | 6:26.02 | 92490 | 121441
3 | 26:59.17 | 6:38.20 | 121442 | 151311
4 | 33:37.37 | 6:35.08 | 151312 | 180944
5 | 40:12.45 | 6:57.50 | 180945 | 212269
6 | 47:10.20 | 7:28.45 | 212270 | 245914
7 | 54:38.65 | 3:51.47 | 245915 | 263286
8 | 58:30.37 | 12:08.00 | 263287 | 317886


Track 1

Filename D:\Process\Music\Anthology of Canadian Music\Talivaldis Kenins\Disc 4\01 - Track01.wav

Pre-gap length 0:00:02.00

Peak level 97.7 %
Extraction speed 3.9 X
Track quality 100.0 %
Test CRC 1E416ED8
Copy CRC 1E416ED8
Track not present in AccurateRip database
Copy OK

Track 2

Filename D:\Process\Music\Anthology of Canadian Music\Talivaldis Kenins\Disc 4\02 - Track02.wav

Pre-gap length 0:00:08.70

Peak level 61.2 %
Extraction speed 4.5 X
Track quality 100.0 %
Test CRC AC080F1C
Copy CRC AC080F1C
Track not present in AccurateRip database
Copy OK

Track 3

Filename D:\Process\Music\Anthology of Canadian Music\Talivaldis Kenins\Disc 4\03 - Track03.wav

Pre-gap length 0:00:00.73

Peak level 25.3 %
Extraction speed 4.9 X
Track quality 100.0 %
Test CRC 8551913F
Copy CRC 8551913F
Track not present in AccurateRip database
Copy OK

Track 4

Filename D:\Process\Music\Anthology of Canadian Music\Talivaldis Kenins\Disc 4\04 - Track04.wav

Pre-gap length 0:00:07.00

Peak level 94.8 %
Extraction speed 5.1 X
Track quality 100.0 %
Test CRC BC1F7AE8
Copy CRC BC1F7AE8
Track not present in AccurateRip database
Copy OK

Track 5

Filename D:\Process\Music\Anthology of Canadian Music\Talivaldis Kenins\Disc 4\05 - Track05.wav

Pre-gap length 0:00:10.10

Peak level 80.8 %
Extraction speed 4.7 X
Track quality 99.9 %
Test CRC BA2440EB
Copy CRC BA2440EB
Track not present in AccurateRip database
Copy OK

Track 6

Filename D:\Process\Music\Anthology of Canadian Music\Talivaldis Kenins\Disc 4\06 - Track06.wav

Pre-gap length 0:00:01.77

Peak level 55.6 %
Extraction speed 5.8 X
Track quality 100.0 %
Test CRC 4DC02B56
Copy CRC 4DC02B56
Track not present in AccurateRip database
Copy OK

Track 7

Filename D:\Process\Music\Anthology of Canadian Music\Talivaldis Kenins\Disc 4\07 - Track07.wav

Pre-gap length 0:00:01.37

Peak level 80.8 %
Extraction speed 5.6 X
Track quality 100.0 %
Test CRC BEECE281
Copy CRC BEECE281
Track not present in AccurateRip database
Copy OK

Track 8

Filename D:\Process\Music\Anthology of Canadian Music\Talivaldis Kenins\Disc 4\08 - Track08.wav

Pre-gap length 0:00:09.00

Peak level 89.2 %
Extraction speed 6.4 X
Track quality 100.0 %
Test CRC 4BF9B687
Copy CRC 4BF9B687
Track not present in AccurateRip database
Copy OK


None of the tracks are present in the AccurateRip database

No errors occurred

End of status report

–– CUETools DB Plugin V2.1.6

[CTDB TOCID: 7Yk8Cb3wCokz8EUVQBbOso66fbI-] found
Submit result: 7Yk8Cb3wCokz8EUVQBbOso66fbI- has been confirmed
Track | CTDB Status
1 | (1/1) Accurately ripped
2 | (1/1) Accurately ripped
3 | (1/1) Accurately ripped
4 | (1/1) Accurately ripped
5 | (1/1) Accurately ripped
6 | (1/1) Accurately ripped
7 | (1/1) Accurately ripped
8 | (1/1) Accurately ripped


==== Log checksum 5323B73CF80FE3A43843A3C3087C60E4332ED35C8A35352851571768C763F458 ====


Talivaldis Kenins - Anthology of Canadian Music (1989) {4CD Set, Radio Canada International ACM-33}



===